Subcategories

The Durutti Column - Amigos em Portugal (1983/2016)

Posted By: delpotro
The Durutti Column - Amigos em Portugal (1983/2016)

The Durutti Column - Amigos em Portugal (1983/2016)
EAC Rip | FLAC (tracks+log+.cue) - 184 Mb | MP3 CBR 320 kbps - 88 Mb | 00:38:08
Ambient, Dreampop, Post-Punk | Label: Durutti

Released in 1983, label-owner Miguel met the band in the Manchester before subsequently inviting them to record a single in Portugal. As the story goes, Vini came and recorded a whole albums worth of material, which would be quickly developed into following releases. This was the pre-cursor to Without Mercy and it contains some beautiful little tunes and is highly under-rated and overlooked.
Tracklist:
1. Amigos Em Portugal (03:53)
2. Small Girl By A Pool (03:20)
3. Lisboa (04:09)
4. Sara E Tristana (02:55)
5. Estoril À Noite (02:52)
6. Vestido Amarratado (03:45)
7. Wheels Turning (02:50)
8. Lies Of Mercy (02:40)
9. Saudade (02:21)
10. Games Of Rhythm (02:03)
11. Favourite Descending Intervals (04:47)
12. To End With (01:23)

Exact Audio Copy V1.1 from 23. June 2015

EAC extraction logfile from 8. October 2016, 19:02

The Durutti Column / Amigos Em Portugal

Used drive : HL-DT-STDVDRAM GH24NS95 Adapter: 1 ID: 1

Read mode : Secure
Utilize accurate stream : Yes
Defeat audio cache : Yes
Make use of C2 pointers : No

Read offset correction : 6
Overread into Lead-In and Lead-Out : No
Fill up missing offset samples with silence : Yes
Delete leading and trailing silent blocks : No
Null samples used in CRC calculations : Yes
Used interface : Native Win32 interface for Win NT & 2000
Gap handling : Appended to previous track

Used output format : User Defined Encoder
Selected bitrate : 1024 kBit/s
Quality : High
Add ID3 tag : No
Command line compressor : C:\Program Files (x86)\Exact Audio Copy\Flac\flac.exe
Additional command line options : -8 -V -T "ARTIST=%artist%" -T "TITLE=%title%" -T "ALBUM=%albumtitle%" -T "DATE=%year%" -T "TRACKNUMBER=%tracknr%" -T "GENRE=%genre%" -T "PERFORMER=%albuminterpret%" -T "COMPOSER=%composer%" %haslyrics%–tag-from-file=LYRICS="%lyricsfile%"%haslyrics% -T "ALBUMARTIST=%albumartist%" -T "DISCNUMBER=%cdnumber%" -T "TOTALDISCS=%totalcds%" -T "TOTALTRACKS=%numtracks%" -T "COMMENT=%comment%" %source% -o %dest%


TOC of the extracted CD

Track | Start | Length | Start sector | End sector
––––––––––––––––––––––––––––-
1 | 0:00.00 | 3:56.63 | 0 | 17762
2 | 3:56.63 | 3:24.32 | 17763 | 33094
3 | 7:21.20 | 4:18.38 | 33095 | 52482
4 | 11:39.58 | 3:02.50 | 52483 | 66182
5 | 14:42.33 | 2:59.08 | 66183 | 79615
6 | 17:41.41 | 3:47.24 | 79616 | 96664
7 | 21:28.65 | 2:55.24 | 96665 | 109813
8 | 24:24.14 | 2:48.02 | 109814 | 122415
9 | 27:12.16 | 2:28.21 | 122416 | 133536
10 | 29:40.37 | 2:07.68 | 133537 | 143129
11 | 31:48.30 | 4:55.53 | 143130 | 165307
12 | 36:44.08 | 1:24.09 | 165308 | 171616


Track 1

Filename C:\EAC Rips\The Durutti Column - Amigos em Portugal (2016) [FLAC]\01 Amigos Em Portugal.wav

Pre-gap length 0:00:02.00

Peak level 97.5 %
Extraction speed 1.0 X
Track quality 100.0 %
Test CRC FBD078A9
Copy CRC FBD078A9
Accurately ripped (confidence 1) [DFDB99E6] (AR v2)
Copy OK

Track 2

Filename C:\EAC Rips\The Durutti Column - Amigos em Portugal (2016) [FLAC]\02 Menina Ao Pé Duma Piscina.wav

Peak level 97.7 %
Extraction speed 1.1 X
Track quality 100.0 %
Test CRC 62991CEB
Copy CRC 62991CEB
Accurately ripped (confidence 1) [EA72502D] (AR v2)
Copy OK

Track 3

Filename C:\EAC Rips\The Durutti Column - Amigos em Portugal (2016) [FLAC]\03 Lisboa.wav

Peak level 97.5 %
Extraction speed 1.2 X
Track quality 100.0 %
Test CRC D2B21C87
Copy CRC D2B21C87
Accurately ripped (confidence 1) [7D0F79F7] (AR v2)
Copy OK

Track 4

Filename C:\EAC Rips\The Durutti Column - Amigos em Portugal (2016) [FLAC]\04 Sara E Tristana.wav

Peak level 97.7 %
Extraction speed 1.3 X
Track quality 100.0 %
Test CRC 1379FC14
Copy CRC 1379FC14
Accurately ripped (confidence 1) [8A6683D3] (AR v2)
Copy OK

Track 5

Filename C:\EAC Rips\The Durutti Column - Amigos em Portugal (2016) [FLAC]\05 Estoril À Noite.wav

Peak level 98.5 %
Extraction speed 1.3 X
Track quality 100.0 %
Test CRC 3439578B
Copy CRC 3439578B
Accurately ripped (confidence 1) [1C4B8115] (AR v2)
Copy OK

Track 6

Filename C:\EAC Rips\The Durutti Column - Amigos em Portugal (2016) [FLAC]\06 Vestido Amarrotado.wav

Peak level 98.8 %
Extraction speed 1.4 X
Track quality 100.0 %
Test CRC 144E903A
Copy CRC 144E903A
Accurately ripped (confidence 1) [88FAE4BE] (AR v2)
Copy OK

Track 7

Filename C:\EAC Rips\The Durutti Column - Amigos em Portugal (2016) [FLAC]\07 Wheels Turning.wav

Peak level 98.8 %
Extraction speed 1.4 X
Track quality 100.0 %
Test CRC 6CD7738D
Copy CRC 6CD7738D
Accurately ripped (confidence 1) [2DC08F59] (AR v2)
Copy OK

Track 8

Filename C:\EAC Rips\The Durutti Column - Amigos em Portugal (2016) [FLAC]\08 Lies Of Mercy.wav

Peak level 98.8 %
Extraction speed 1.5 X
Track quality 100.0 %
Test CRC B0C61AF2
Copy CRC B0C61AF2
Accurately ripped (confidence 1) [8F7A339D] (AR v2)
Copy OK

Track 9

Filename C:\EAC Rips\The Durutti Column - Amigos em Portugal (2016) [FLAC]\09 Saudade.wav

Peak level 98.8 %
Extraction speed 1.5 X
Track quality 100.0 %
Test CRC 85BA4C53
Copy CRC 85BA4C53
Accurately ripped (confidence 1) [6B00E630] (AR v2)
Copy OK

Track 10

Filename C:\EAC Rips\The Durutti Column - Amigos em Portugal (2016) [FLAC]\10 Games Of Rhythm.wav

Peak level 98.8 %
Extraction speed 1.5 X
Track quality 100.0 %
Test CRC 811708A2
Copy CRC 811708A2
Accurately ripped (confidence 1) [E0C23DA4] (AR v2)
Copy OK

Track 11

Filename C:\EAC Rips\The Durutti Column - Amigos em Portugal (2016) [FLAC]\11 Favourite Descending Intervals.wav

Peak level 97.5 %
Extraction speed 1.7 X
Track quality 100.0 %
Test CRC C600023E
Copy CRC C600023E
Accurately ripped (confidence 1) [2391FD59] (AR v2)
Copy OK

Track 12

Filename C:\EAC Rips\The Durutti Column - Amigos em Portugal (2016) [FLAC]\12 To End With.wav

Peak level 97.7 %
Extraction speed 1.4 X
Track quality 100.0 %
Test CRC D79179D5
Copy CRC D79179D5
Accurately ripped (confidence 1) [6E683604] (AR v2)
Copy OK


All tracks accurately ripped

No errors occurred

End of status report

–– CUETools DB Plugin V2.1.6

[CTDB TOCID: CygaDf6Pno8GLZvjs8.ULYzmUPc-] found
Submit result: CygaDf6Pno8GLZvjs8.ULYzmUPc- has been confirmed
Track | CTDB Status
1 | (3/3) Accurately ripped
2 | (3/3) Accurately ripped
3 | (3/3) Accurately ripped
4 | (3/3) Accurately ripped
5 | (3/3) Accurately ripped
6 | (3/3) Accurately ripped
7 | (3/3) Accurately ripped
8 | (3/3) Accurately ripped
9 | (3/3) Accurately ripped
10 | (3/3) Accurately ripped
11 | (3/3) Accurately ripped
12 | (3/3) Accurately ripped


==== Log checksum 6297A025A7C35721BD7F6577C887E994D573931EBF1DA6EDDC34EAED11BC8F81 ====

Thanks to the Original ripper !