Subcategories

The Glasspack - Dirty Women (2007)

Posted By: Necromandus

The Glasspack - Dirty Women (2007)
EAC Rip | WV, IMG+CUE+LOG | 250 MB | MP3 CBR 320 Kbps | 94 MB | Complete Scans | 17 MB
Garage/Stoner Rock | Label: Small Stone Records | Catalog Number: SS-071 | RAR 3% Rec. | RS.com

Like a fine Kentucky Bourbon "Dirty" Dave & Co. blended the best elements from the 60's jam rock that they were raised on with the 70's punk and hard rock that had inspired them to pick up instruments in the first place. Each time the riffs are heavier, the songs more skillfully crafted, and the explosive nature of the live show comes through clearer and clearer. From the moment you press play Dirty Women explodes right out of your speakers, slaps you in the face and asks you if you want more. It's not subtle, but what in Kentucky is?"

~ StonerRock.com
Tracklist:
1. Taming of the Ram - 2:47
2. Fastback - 2:34
3. My Curse - 2:04
4. Lot Lizard - 3:41
5. Ice Cream, But No Reply - 5:28
6. Fire in the Trailer Park - 2:49
7. Super Sport - 4:05
8. Play it Loud (with the Rock n' Roll Outlaw) - 2:39
9. Lizard Reprise - 0:59
10. Louisana Strawberry - 11:24
11. Farewell Little Girl - 1:27

Exact Audio Copy V0.99 prebeta 4 from 23. January 2008

EAC extraction logfile from 12. March 2009, 16:54

The Glasspack / Dirty Women

Used drive : SONY DVD RW AW-G170A Adapter: 0 ID: 0

Read mode : Secure
Utilize accurate stream : Yes
Defeat audio cache : Yes
Make use of C2 pointers : No

Read offset correction : 48
Overread into Lead-In and Lead-Out : No
Fill up missing offset samples with silence : Yes
Delete leading and trailing silent blocks : No
Null samples used in CRC calculations : Yes
Used interface : Installed external ASPI interface

Used output format : Internal WAV Routines
Sample format : 44.100 Hz; 16 Bit; Stereo


TOC of the extracted CD

Track | Start | Length | Start sector | End sector
––––––––––––––––––––––––––––-
1 | 0:00.00 | 2:46.70 | 0 | 12519
2 | 2:46.70 | 2:34.24 | 12520 | 24093
3 | 5:21.19 | 2:03.55 | 24094 | 33373
4 | 7:24.74 | 3:40.54 | 33374 | 49927
5 | 11:05.53 | 5:27.71 | 49928 | 74523
6 | 16:33.49 | 2:48.68 | 74524 | 87191
7 | 19:22.42 | 4:05.34 | 87192 | 105600
8 | 23:28.01 | 2:38.39 | 105601 | 117489
9 | 26:06.40 | 0:59.41 | 117490 | 121955
10 | 27:06.06 | 11:24.33 | 121956 | 173288
11 | 38:30.39 | 1:27.21 | 173289 | 179834


Range status and errors

Selected range

Filename D:\Music\The Glasspack - Dirty Women.wav

Peak level 96.6 %
Range quality 100.0 %
Test CRC C3D480B8
Copy CRC C3D480B8
Copy OK

No errors occurred


AccurateRip summary

Track 1 not present in database
Track 2 not present in database
Track 3 not present in database
Track 4 not present in database
Track 5 not present in database
Track 6 not present in database
Track 7 not present in database
Track 8 not present in database
Track 9 not present in database
Track 10 not present in database
Track 11 not present in database

None of the tracks are present in the AccurateRip database

End of status report

The Glasspack is:
'Dirty' Dave Johnson - vocals, guitars
Chad Omen - bass
Eric McManus - drums
Brian Foor - keys, organs.

Produced by D.R. Johnson & Nick Stevens.

Recorded on 2-inch tape by Nick Stevens.
Additional recording by Brian Haulter at Downtown Recording Studios, Louisville, KY.
Mixed by Chris Greenwell & D.R. Johnson at Downtown Recording Studios Louisville, KY.
Mastered By Chris Gooseman at Solid Sound Studios, Ann Arbor, MI.