Subcategories

The Great Jazz Trio - Collaboration (2004)

Posted By: Bezz
The Great Jazz Trio - Collaboration (2004)

The Great Jazz Trio - Collaboration (2004)
EAC rip | FLAC + CUE + LOG | Full Scans | 320 Mb (Incl. Recovery)
Genre ~ Post-Bop, Cool | Label ~ Village Records

Collaboration is the third CD to be issued from a pair of 2002 sessions by the Great Jazz Trio, featuring Elvin Jones and Richard Davis with leader Hank Jones. The pianist previously worked alongside Davis on numerous sessions led by other musicians, including Elvin's Dear John C., though the Jones brothers worked together only sporadically during their long careers. Although eight of the songs appeared on Someday My Prince Will Come (issued by Eighty-Eights/Columbia) and the earlier 441 CD Autumn Leaves, these are valid alternate takes and not repeats or castoffs. Elvin Jones, who died in 2004 from heart problems, is still in top form on these sessions, especially on the thunderous opener, "Rhythm-a-Ning," though he focuses quite a bit on his underrated brushwork for the remainder of the disc. Davis shines in the spacious arrangement of "Summertime" and the jaunty treatment of "Satin Doll." The leader's brisk approach to "The Shadow of Your Smile" proves to be very refreshing, while his intricate arrangement of "Moose the Mooche" is especially subtle. The one solo track, an imaginative take of "Memories of You," was recorded by Hank in early 2004, just a few months prior to his younger brother's death. ~ CDUniverse


Tracks List

1 Rhythm-A-Ning
2 Summertime
3 Satin Doll
4 Blue Bossa
5 Long Ago And Far Away
6 Shadow Of Your Smile
7 Autumn Leaves
8 My Funny Valentine
9 Moose the Mooche
10 Memories Of You


Personel

Richard Davis (bass);
Elvin Jones (drums);
Hank Jones (piano).

Recording information: Avatar Studios, New York, NY (05/12/2002-02/05/2004); Sony Music Studios, Tokyo, Japan (05/12/2002-02/05/2004).


Exact Audio Copy V1.0 beta 1 from 15. November 2010

EAC extraction logfile from 29. March 2011, 16:51

The Great Jazz Trio / Collaboration

Used drive : HL-DT-STDVD-RAM GSA-H55N Adapter: 0 ID: 2

Read mode : Secure
Utilize accurate stream : Yes
Defeat audio cache : Yes
Make use of C2 pointers : No

Read offset correction : 102
Overread into Lead-In and Lead-Out : Yes
Fill up missing offset samples with silence : Yes
Delete leading and trailing silent blocks : No
Null samples used in CRC calculations : Yes
Used interface : Installed external ASPI interface
Gap handling : Appended to previous track

Used output format : User Defined Encoder
Selected bitrate : 128 kBit/s
Quality : High
Add ID3 tag : No
Command line compressor : G:\Program Files\Exact Audio Copy\Encoder\flac.exe
Additional command line options : -V -8 -T "Genre=%m" -T "Artist=%a" -T "Title=%t" -T "Album=%g" -T "Date=%y" -T "Tracknumber=%n" -T "Comment=EAC1.0b1 -8" %s


TOC of the extracted CD

Track | Start | Length | Start sector | End sector
––––––––––––––––––––––––––––-
1 | 0:00.00 | 4:08.13 | 0 | 18612
2 | 4:08.13 | 4:55.12 | 18613 | 40749
3 | 9:03.25 | 5:32.08 | 40750 | 65657
4 | 14:35.33 | 4:49.35 | 65658 | 87367
5 | 19:24.68 | 6:06.08 | 87368 | 114825
6 | 25:31.01 | 6:55.02 | 114826 | 145952
7 | 32:26.03 | 5:24.10 | 145953 | 170262
8 | 37:50.13 | 4:40.56 | 170263 | 191318
9 | 42:30.69 | 3:59.68 | 191319 | 209311
10 | 46:30.62 | 4:04.49 | 209312 | 227660


Track 1

Filename F:\WAV\01 - Rhythm-A-Ning.wav

Pre-gap length 0:00:02.00

Peak level 99.8 %
Extraction speed 4.5 X
Track quality 100.0 %
Test CRC BCC11E7E
Copy CRC BCC11E7E
Track not present in AccurateRip database
Copy OK

Track 2

Filename F:\WAV\02 - Summertime.wav

Pre-gap length 0:00:01.60

Peak level 75.1 %
Extraction speed 5.0 X
Track quality 100.0 %
Test CRC FAD31503
Copy CRC FAD31503
Track not present in AccurateRip database
Copy OK

Track 3

Filename F:\WAV\03 - Satin Doll.wav

Pre-gap length 0:00:01.57

Peak level 99.8 %
Extraction speed 5.8 X
Track quality 100.0 %
Test CRC F8D9F978
Copy CRC F8D9F978
Track not present in AccurateRip database
Copy OK

Track 4

Filename F:\WAV\04 - Blue Bossa.wav

Pre-gap length 0:00:01.59

Peak level 99.8 %
Extraction speed 6.1 X
Track quality 100.0 %
Test CRC C41DFFE7
Copy CRC C41DFFE7
Track not present in AccurateRip database
Copy OK

Track 5

Filename F:\WAV\05 - Long Ago and Far Away.wav

Pre-gap length 0:00:01.55

Peak level 99.8 %
Extraction speed 6.7 X
Track quality 100.0 %
Test CRC 2498BCEB
Copy CRC 2498BCEB
Track not present in AccurateRip database
Copy OK

Track 6

Filename F:\WAV\06 - The Shadow of Your Smile.wav

Pre-gap length 0:00:01.58

Peak level 99.8 %
Extraction speed 7.3 X
Track quality 100.0 %
Test CRC 99DE2651
Copy CRC 99DE2651
Track not present in AccurateRip database
Copy OK

Track 7

Filename F:\WAV\07 - Autumn Leaves.wav

Pre-gap length 0:00:01.58

Peak level 99.8 %
Extraction speed 7.5 X
Track quality 100.0 %
Test CRC A475E1AB
Copy CRC A475E1AB
Track not present in AccurateRip database
Copy OK

Track 8

Filename F:\WAV\08 - My Funny Valentine.wav

Pre-gap length 0:00:01.60

Peak level 56.5 %
Extraction speed 7.6 X
Track quality 100.0 %
Test CRC DEC3A9DC
Copy CRC DEC3A9DC
Track not present in AccurateRip database
Copy OK

Track 9

Filename F:\WAV\09 - Moose the Mooche.wav

Pre-gap length 0:00:01.57

Peak level 99.8 %
Extraction speed 7.6 X
Track quality 100.0 %
Test CRC 08FFCC1E
Copy CRC 08FFCC1E
Track not present in AccurateRip database
Copy OK

Track 10

Filename F:\WAV\10 - Memories of You.wav

Pre-gap length 0:00:02.56

Peak level 71.8 %
Extraction speed 7.6 X
Track quality 100.0 %
Test CRC 5D05CBF1
Copy CRC 5D05CBF1
Track not present in AccurateRip database
Copy OK


None of the tracks are present in the AccurateRip database

No errors occurred

End of status report

==== Log checksum 39DDD16596F6B76D1CF384BB851A8B206FA7A25D9CB304419F9F602DAC6CA8B9 ====



The Great Jazz Trio - Collaboration (2004)


The Great Jazz Trio - Collaboration (2004)



Special thanks to the original ripper!


FILESONIC links

Part 1 | Part 2 | Part 3 | Part 4


FILESERVE links

Part 1 | Part 2 | Part 3 | Part 4


BITSHARE links

Part 1 | Part 2 | Part 3 | Part 4


Welcome to my blog for more wonderful music


PLEASE DO NOT PROVIDE MIRROR LINKS!