Subcategories

The HYUNDAI Music Collection (4 CD)

Posted By: Speedyclick
The HYUNDAI Music Collection (4 CD)

The HYUNDAI Music Collection (4 CD)
EAC Rip | FLAC (image & cue & log) & mp3 @ 320 kbps | tracks: 48 | Scans | 3:11:56 | ~ 1,14 Gb & 476 Mb
Label: BMG Ariola | 1992 | Genre: Pop, ballads, oldies

An rare collection of 48 top rank hits, sponsored by Hyundai. It was released at 1992 in Greece, and circulated in a very limited number of copies. You will find wonderful ballads mainly from the 80's but there are some 'immortal' hits from 70's and a few from early 90's. A delightful 4CD compilation with carefully selected tracks, to offer a relaxing and euphoric feeling whenever you need it. Enjoy.

The HYUNDAI Music Collection (4 CD)

The Excel Collection
EAC rip | FLAC (img & cue & log) | ~296 Mb & 122 Mb | 48:52

TRACKLIST
01. Lou Rawls - You'll Never Find Another Love
02. Harold Melvin & The Blue Notes - If You Don't Know Me By Now
03. Billy Ocean - Suddenly
04. Earth Wind & Fire - After The Love Has Gone
05. Rose Royce - Wishing On A Star
06. Champaign - How About Us
07. Bill Withers - Ain't No Sunshine
08. Sam & Dave - I Thank You
09. Womack & Womack - Love Wars
10. Candi Stanton - Young Hearts Run Free
11. Spinners - Could It Be I'm Falling In Love.
12. Wilson Pickett - In The Midnight Hour

Exact Audio Copy V0.99 prebeta 5 from 4. May 2009

EAC extraction logfile from 18. January 2011, 12:46

Various / The EXCEL Collection

Used drive : HL-DT-STDVDRAM GH10N Adapter: 1 ID: 0

Read mode : Secure
Utilize accurate stream : Yes
Defeat audio cache : Yes
Make use of C2 pointers : No

Read offset correction : 667
Overread into Lead-In and Lead-Out : No
Fill up missing offset samples with silence : Yes
Delete leading and trailing silent blocks : No
Null samples used in CRC calculations : Yes
Used interface : Native Win32 interface for Win NT & 2000

Used output format : User Defined Encoder
Selected bitrate : 896 kBit/s
Quality : High
Add ID3 tag : No
Command line compressor : C:\Program Files\FLAC\flac.exe
Additional command line options : -V -5 -T "artist=%a" -T "title=%t" -T "album=%g" -T "date=%y" -T "tracknumber=%n" -T "genre=%m" -5 %s


TOC of the extracted CD

Track | Start | Length | Start sector | End sector
––––––––––––––––––––––––––––-
1 | 0:00.00 | 4:31.37 | 0 | 20361
2 | 4:31.37 | 3:25.38 | 20362 | 35774
3 | 7:57.00 | 3:52.55 | 35775 | 53229
4 | 11:49.55 | 3:57.10 | 53230 | 71014
5 | 15:46.65 | 3:58.25 | 71015 | 88889
6 | 19:45.15 | 4:34.02 | 88890 | 109441
7 | 24:19.17 | 5:44.10 | 109442 | 135251
8 | 30:03.27 | 2:55.20 | 135252 | 148396
9 | 32:58.47 | 5:05.20 | 148397 | 171291
10 | 38:03.67 | 4:04.03 | 171292 | 189594
11 | 42:07.70 | 4:11.65 | 189595 | 208484
12 | 46:19.60 | 2:32.62 | 208485 | 219946


Range status and errors

Selected range

Filename S:\EAC Rips\The Hyundai Collection\Excel\Various - The EXCEL Collection.wav

Peak level 99.8 %
Range quality 100.0 %
Test CRC 91F44E8A
Copy CRC 91F44E8A
Copy OK

No errors occurred


AccurateRip summary

Track 1 not present in database
Track 2 not present in database
Track 3 not present in database
Track 4 not present in database
Track 5 not present in database
Track 6 not present in database
Track 7 not present in database
Track 8 not present in database
Track 9 not present in database
Track 10 not present in database
Track 11 not present in database
Track 12 not present in database

None of the tracks are present in the AccurateRip database

End of status report

The HYUNDAI Music Collection (4 CD)

The Lantra Collection
EAC rip | FLAC (img & cue & log) | ~295 Mb & 119 Mb | 47:49

TRACKLIST
01. Eric Carmen - All By Myself
02. Barry Manilow - Can't Smile Without You
03. Leonard Cohen - I'm Your Man
04. Lou Reed - Walk On The Wild Side
05. Santana - I Love You Too Much
06. Scorpions - In Trance
07. Lobo - I'd Love You To Want Me
08. Paul Young - Every Time You Go Away
09. Styx - Lady
10. Fairground Attraction - Perfect
11. Sony & Cher - The Beat Goes On
12. Air Supply - Lost In Love

Exact Audio Copy V0.99 prebeta 5 from 4. May 2009

EAC extraction logfile from 18. January 2011, 14:58

Various / The LANTRA Collection

Used drive : HL-DT-STDVDRAM GH10N Adapter: 1 ID: 0

Read mode : Secure
Utilize accurate stream : Yes
Defeat audio cache : Yes
Make use of C2 pointers : No

Read offset correction : 667
Overread into Lead-In and Lead-Out : No
Fill up missing offset samples with silence : Yes
Delete leading and trailing silent blocks : No
Null samples used in CRC calculations : Yes
Used interface : Native Win32 interface for Win NT & 2000

Used output format : User Defined Encoder
Selected bitrate : 896 kBit/s
Quality : High
Add ID3 tag : No
Command line compressor : C:\Program Files\FLAC\flac.exe
Additional command line options : -V -5 -T "artist=%a" -T "title=%t" -T "album=%g" -T "date=%y" -T "tracknumber=%n" -T "genre=%m" -5 %s


TOC of the extracted CD

Track | Start | Length | Start sector | End sector
––––––––––––––––––––––––––––-
1 | 0:00.00 | 4:16.50 | 0 | 19249
2 | 4:16.50 | 3:09.15 | 19250 | 33439
3 | 7:25.65 | 4:23.33 | 33440 | 53197
4 | 11:49.23 | 4:12.62 | 53198 | 72159
5 | 16:02.10 | 4:43.63 | 72160 | 93447
6 | 20:45.73 | 4:41.17 | 93448 | 114539
7 | 25:27.15 | 4:00.60 | 114540 | 132599
8 | 29:28.00 | 4:26.10 | 132600 | 152559
9 | 33:54.10 | 2:59.60 | 152560 | 166044
10 | 36:53.70 | 3:36.55 | 166045 | 182299
11 | 40:30.50 | 3:26.35 | 182300 | 197784
12 | 43:57.10 | 3:52.20 | 197785 | 215204


Range status and errors

Selected range

Filename S:\EAC Rips\The Hyundai Collection\Lantra\Various - The LANTRA Collection.wav

Peak level 98.1 %
Range quality 99.9 %
Test CRC 4DE21A38
Copy CRC 4DE21A38
Copy OK

No errors occurred


AccurateRip summary

Track 1 not present in database
Track 2 not present in database
Track 3 not present in database
Track 4 not present in database
Track 5 not present in database
Track 6 not present in database
Track 7 not present in database
Track 8 not present in database
Track 9 not present in database
Track 10 not present in database
Track 11 not present in database
Track 12 not present in database

None of the tracks are present in the AccurateRip database

End of status report

The HYUNDAI Music Collection (4 CD)

The S-Coupe Collection
EAC rip | FLAC (img & cue & log) | ~336 Mb & 129 Mb | 53:14

TRACKLIST
01. Christians - Words
02. George Michael & Elton John - Don't let the sun go down on me
03. Ten Sharp - You
04. Sade - Smooth Operator
05. Brendan Crocker - No money at all
06. Glenn Frey - The heat is on
07. Vaya Con Dios - What's a woman
08. John Farnham - You're the voice
09. Snap - Rhythm is a dancer
10. Hooters - 500 miles
11. Sister Sledge - Thinking of you
12. Dr. Alban - It's my life

Exact Audio Copy V0.99 prebeta 5 from 4. May 2009

EAC extraction logfile from 18. January 2011, 13:49

Various Artists / Hyundai - The S coupe collection

Used drive : HL-DT-STDVDRAM GH10N Adapter: 1 ID: 0

Read mode : Secure
Utilize accurate stream : Yes
Defeat audio cache : Yes
Make use of C2 pointers : No

Read offset correction : 667
Overread into Lead-In and Lead-Out : No
Fill up missing offset samples with silence : Yes
Delete leading and trailing silent blocks : No
Null samples used in CRC calculations : Yes
Used interface : Native Win32 interface for Win NT & 2000

Used output format : User Defined Encoder
Selected bitrate : 896 kBit/s
Quality : High
Add ID3 tag : No
Command line compressor : C:\Program Files\FLAC\flac.exe
Additional command line options : -V -5 -T "artist=%a" -T "title=%t" -T "album=%g" -T "date=%y" -T "tracknumber=%n" -T "genre=%m" -5 %s


TOC of the extracted CD

Track | Start | Length | Start sector | End sector
––––––––––––––––––––––––––––-
1 | 0:00.00 | 5:28.65 | 0 | 24664
2 | 5:28.65 | 5:47.13 | 24665 | 50702
3 | 11:16.03 | 3:42.02 | 50703 | 67354
4 | 14:58.05 | 4:26.58 | 67355 | 87362
5 | 19:24.63 | 3:37.32 | 87363 | 103669
6 | 23:02.20 | 3:31.10 | 103670 | 119504
7 | 26:33.30 | 3:32.03 | 119505 | 135407
8 | 30:05.33 | 4:56.25 | 135408 | 157632
9 | 35:01.58 | 5:30.60 | 157633 | 182442
10 | 40:32.43 | 4:21.70 | 182443 | 202087
11 | 44:54.38 | 4:19.12 | 202088 | 221524
12 | 49:13.50 | 4:00.38 | 221525 | 239562


Range status and errors

Selected range

Filename S:\EAC Rips\The Hyundai Collection\Scoupe\Various Artists - Hyundai - The S coupe collection.wav

Peak level 97.4 %
Range quality 99.9 %
Test CRC AD458309
Copy CRC AD458309
Copy OK

No errors occurred


AccurateRip summary

Track 1 not present in database
Track 2 not present in database
Track 3 not present in database
Track 4 not present in database
Track 5 not present in database
Track 6 not present in database
Track 7 not present in database
Track 8 not present in database
Track 9 not present in database
Track 10 not present in database
Track 11 not present in database
Track 12 not present in database

None of the tracks are present in the AccurateRip database

End of status report

The HYUNDAI Music Collection (4 CD)

The Sonata Collection
EAC rip | FLAC (img & cue & log) | ~238 Mb & 106 Mb | 42:01

TRACKLIST
01. Lucio Dalla - Caruso
02. Tony Bennet - I Left My Heart In San Francisco
03. Charlie Rich - The Most Beautiful Girl
04. Albert Hammond - It Never Rains In…
05. Perry Como - It's Impossible
06. Percy Sledge - When A Man Loves A Woman
07. Joe Dassin - Et Si Tu N' Existais Pas
08. Eartha Kitt - C' Est Si Bon
09. Dave Crusin - Havana
10. Aretha Franklin - Daydreaming
11. Dionne Warwick - I'll Never Love This Way Again
12. Lucio Dalla - Cosa Sara

Exact Audio Copy V0.99 prebeta 5 from 4. May 2009

EAC extraction logfile from 18. January 2011, 15:50

Various / The SONATA Collection

Used drive : HL-DT-STDVDRAM GH10N Adapter: 1 ID: 0

Read mode : Secure
Utilize accurate stream : Yes
Defeat audio cache : Yes
Make use of C2 pointers : No

Read offset correction : 667
Overread into Lead-In and Lead-Out : No
Fill up missing offset samples with silence : Yes
Delete leading and trailing silent blocks : No
Null samples used in CRC calculations : Yes
Used interface : Native Win32 interface for Win NT & 2000

Used output format : User Defined Encoder
Selected bitrate : 896 kBit/s
Quality : High
Add ID3 tag : No
Command line compressor : C:\Program Files\FLAC\flac.exe
Additional command line options : -V -5 -T "artist=%a" -T "title=%t" -T "album=%g" -T "date=%y" -T "tracknumber=%n" -T "genre=%m" -5 %s


TOC of the extracted CD

Track | Start | Length | Start sector | End sector
––––––––––––––––––––––––––––-
1 | 0:00.00 | 5:13.30 | 0 | 23504
2 | 5:13.30 | 2:51.53 | 23505 | 36382
3 | 8:05.08 | 2:44.42 | 36383 | 48724
4 | 10:49.50 | 3:50.38 | 48725 | 66012
5 | 14:40.13 | 3:17.12 | 66013 | 80799
6 | 17:57.25 | 2:52.53 | 80800 | 93752
7 | 20:50.03 | 3:28.55 | 93753 | 109407
8 | 24:18.58 | 3:00.37 | 109408 | 122944
9 | 27:19.20 | 3:04.08 | 122945 | 136752
10 | 30:23.28 | 3:54.55 | 136753 | 154357
11 | 34:18.08 | 3:29.47 | 154358 | 170079
12 | 37:47.55 | 4:14.10 | 170080 | 189139


Range status and errors

Selected range

Filename S:\EAC Rips\The Hyundai Collection\Sonata\Various - The SONATA Collection.wav

Peak level 99.6 %
Range quality 100.0 %
Test CRC AC8EE7FA
Copy CRC AC8EE7FA
Copy OK

No errors occurred


AccurateRip summary

Track 1 not present in database
Track 2 not present in database
Track 3 not present in database
Track 4 not present in database
Track 5 not present in database
Track 6 not present in database
Track 7 not present in database
Track 8 not present in database
Track 9 not present in database
Track 10 not present in database
Track 11 not present in database
Track 12 not present in database

None of the tracks are present in the AccurateRip database

End of status report