Subcategories

The Jazz Butcher - The Wasted Years (2017)

Posted By: delpotro
The Jazz Butcher - The Wasted Years (2017)

The Jazz Butcher - The Wasted Years (2017)
EAC Rip | FLAC (tracks+log+.cue) | 02:28:58 | 997 Mb
Rock'n'Roll, Pop Rock, Jangle Pop, Post-Punk | Label: Fire Records

A new box set, collecting four albums released between 1983 and 1986, is a fascinating look at the early stages of an underrated UK post-punk act.

Gass Records, the London-based label created in 1981 by musician Dave Barker, was home to an unusually motley collection of pop and rock acts. Some were castaways from defunct bands (David J. of goth originators Bauhaus and Nikki Sudden of cheeky experimentalists Swell Maps signed to the imprint after their respective projects crumbled in the early ’80s), others were new artists like synthpop outfit In Embrace and the psychedelic preachers Spacemen 3. No one artist sounded much like the rest of the roster; what seemed to connect them was a cavalier indifference to their potential commercial prospects.

No artist in the Glass stable exemplified this spirit better than the Jazz Butcher, a project led by Pat Fish (real name: Patrick Huntrods), a singer/songwriter from Northampton, England, who, at the time, was cobbling together lo-fi demos in his bedroom using a cheap tape deck. The band signed to Glass in 1982 and went on to release a quartet of albums and a smattering of singles that experimented freely with dubby pop, jazzy rambles sung in French, tumbledown rockabilly, and fuzzed-out rock.

That stylistic range fit well within the electrifying, unsettled post-punk aesthetic of the time, but somehow the Jazz Butcher hasn’t been canonized in the manner of many of its contemporaries. That could change with the reissue campaign that Fire Records recently launched, starting with The Wasted Years, a multi-disc set compiling the group’s first four LPs for Glass. Shaggy and often uneven as the records are, together they provide a fascinating spotlight on how Fish’s songwriting evolved from spirited insouciance into mature introspection.

The Jazz Butcher’s progression was steep and fast. Separated by only four years, the albums that bookend this collection‚ 1983’s In Bath of Bacon and 1986’s Distressed Gentlefolk‚ share plenty of the same DNA, but feel miles apart. On the debut, Fish has yet to shake off the sensibilities of the bedroom demos that got him a record deal. “It’s really just the sound of a few mates failing to take seriously the fact that they’ve got an LP to make,” he has said. That’s a little dismissive to the music he was making at the time, an appealing jangle-pop minimalism akin to Tracey Thorn’s early band Marine Girls, with small spurts of virtuosity from guitarists Max Eider and M.K. Daley. But Fish’s comment does jibe with his boyish lyrical concerns on Bacon, which include food poisoning, a hotel for sasquatches (“Bigfoot see a neon sign/Bigfoot reach for his credit card”), and “Girls Who Keep Goldfish.”

Those interests stay pretty much the same on the follow-up, 1984’s A Scandal in Bohemia—it’s the music that improves markedly. By this point, the Jazz Butcher was a full-fledged band, with Fish and Eider joined by David J. on bass and drummer Owen Jones. These seasoned musicians, and the guiding presence of producer John A. Rivers, give the music a new verve on the wobbly sea-shanty folk of “My Desert” and the winking garage-rocker “Caroline Wheeler’s Birthday Present.”

The Jazz Butcher’s final two releases on Glass set the stage for the rest of Fish’s career to date. The wonderful 1985 mini-LP Sex and Travel retains a loose, playful approach to guitar pop, while Fish’s lyrics become more focused and sharp, whether exploring his romantic troubles as heard on “Only a Rumour” and the bitter “Walk With the Devil,” or the insanity of the Cold War (“President Reagan’s Birthday Present”).

Gentlefolk completes his transformation into a fully-formed songwriter. Credited to the Jazz Butcher Conspiracy (with like-minded friend of the band Felix Ray replacing David J), the record boasts some of Fish’s finest material: “Still in the Kitchen” is a devastating glimpse into a depressive mind (“Be lonely/You’re already all alone anyway”), while the smoldering “Angels” balances the agony of heartbreak with gratitude at the support of his loved ones. Fish diminishes the impact a bit by mixing in Jonathan Richman-like goofs like “Domestic Animal” and “Big Bad Thing,” but even those moments are presented with wit and a welcoming smile.

In the years that followed, Fish would only get better. He would soon leave Glass for Creation Records, a label with far more clout and the money to support his creative growth. Their relationship resulted in some of his most commercially-successful efforts—his 1988 cover of the ’60s pop classic “Spooky” gave him his best-ever position in the UK indie charts—and a crystallizing of his persona as a sensitive freak who pours his heart out to a female companion with the same fervor that he imagines, say, contracting the bubonic plague. (The high point: 1993’s Waiting for the Love Bus is a frothy delight, with Fish at his most lovestruck and giddy.)

The Wasted Years, despite its sardonic title, is a worthwhile look back at the path he took to get to those heights. While it’s not a complete document of the band’s start—this set ignores standalone singles and b-sides from this era, like a rollicking cover of the Modern Lovers’ “Roadrunner”—it sets the table for a three-decade-plus journey that continues to surprise, confound, and satisfy.
Tracklist:
Disc One: Bath Of Bacon
1 Gloop Jiving
2 Jazz Butcher Theme
3 Partytime
4 Bigfoot Motel
5 Sex Engine Thing
6 Chinatown
7 Zombie Love
8 Grey Flannelette
9 La Mer
10 Poisoned By Food
11 Love Kittens
12 Bath Of Bacon
13 Girls Who Keep Goldfish

Disc Two: A Scandal In Bohemia
1 Southern Mark Smith (Big Return)
2 Real Men
3 Soul Happy Hour
4 I Need Meat
5 Just Like Betty Page
6 Marnie (Muscovite Mix)
7 Caroline Wheeler's Birthday Present
8 Mind Like A Playgroup
9 Girlfriend
10 My Desert

Disc Three: Sex And Travel
1 Big Saturday
2 Holiday
3 Red Pets
4 Only A Rumor
5 President Regan's Birthday Present
6 What's The Matter, Boy?
7 Walk With The Devil
8 Down The Drain

Disc Four: Distressed Gentlefolk
1 Falling In Love
2 Big Bad Thing
3 Still In The Kitchen
4 Hungarian Love Song
5 The New World
6 Who Loves You Now?
7 Domestic Animal
8 Buffalo Shame
9 Nothing Special
10 Angels

Exact Audio Copy V1.3 from 2. September 2016

EAC extraction logfile from 10. February 2018, 18:06

The Jazz Butcher / Bath of Bacon

Used drive : HL-DT-STDVDRAM GP30NB20 Adapter: 1 ID: 1

Read mode : Secure
Utilize accurate stream : Yes
Defeat audio cache : Yes
Make use of C2 pointers : No

Read offset correction : 6
Overread into Lead-In and Lead-Out : No
Fill up missing offset samples with silence : Yes
Delete leading and trailing silent blocks : No
Null samples used in CRC calculations : Yes
Used interface : Native Win32 interface for Win NT & 2000
Gap handling : Appended to previous track

Used output format : User Defined Encoder
Selected bitrate : 1024 kBit/s
Quality : High
Add ID3 tag : No
Command line compressor : C:\Program Files (x86)\Exact Audio Copy\Flac\flac.exe
Additional command line options : -8 -e -p -V -T "ARTIST=%artist%" -T "TITLE=%title%" -T "ALBUM=%albumtitle%" -T "DATE=%year%" -T "TRACKNUMBER=%tracknr%" -T "GENRE=%genre%" -T "PERFORMER=%albuminterpret%" -T "COMPOSER=%composer%" %haslyrics%–tag-from-file=LYRICS="%lyricsfile%"%haslyrics% -T "ALBUMARTIST=%albumartist%" -T "DISCNUMBER=%cdnumber%" -T "TOTALDISCS=%totalcds%" -T "TOTALTRACKS=%numtracks%" -T "COMMENT=%comment%" %source% -o %dest%


TOC of the extracted CD

Track | Start | Length | Start sector | End sector
––––––––––––––––––––––––––––-
1 | 0:00.00 | 2:05.37 | 0 | 9411
2 | 2:05.37 | 4:40.43 | 9412 | 30454
3 | 6:46.05 | 3:46.05 | 30455 | 47409
4 | 10:32.10 | 3:56.50 | 47410 | 65159
5 | 14:28.60 | 3:54.40 | 65160 | 82749
6 | 18:23.25 | 3:08.20 | 82750 | 96869
7 | 21:31.45 | 3:57.22 | 96870 | 114666
8 | 25:28.67 | 2:11.03 | 114667 | 124494
9 | 27:39.70 | 2:45.17 | 124495 | 136886
10 | 30:25.12 | 3:15.60 | 136887 | 151571
11 | 33:40.72 | 2:27.23 | 151572 | 162619
12 | 36:08.20 | 2:47.00 | 162620 | 175144
13 | 38:55.20 | 3:38.17 | 175145 | 191511


Track 1

Filename C:\Users\PC\Desktop\The Jazz Butcher-The Wasted Years-CD-FLAC-2017\cd1-Bath of Bacon\01 Gloop Jiving.wav

Pre-gap length 0:00:02.00

Peak level 96.2 %
Extraction speed 0.8 X
Track quality 99.9 %
Test CRC 804AC855
Copy CRC 804AC855
Accurately ripped (confidence 2) [7C12FFB7] (AR v2)
Copy OK

Track 2

Filename C:\Users\PC\Desktop\The Jazz Butcher-The Wasted Years-CD-FLAC-2017\cd1-Bath of Bacon\02 Jazz Butcher Theme.wav

Peak level 96.2 %
Extraction speed 1.2 X
Track quality 100.0 %
Test CRC 932D5707
Copy CRC 932D5707
Accurately ripped (confidence 2) [1CA677B4] (AR v2)
Copy OK

Track 3

Filename C:\Users\PC\Desktop\The Jazz Butcher-The Wasted Years-CD-FLAC-2017\cd1-Bath of Bacon\03 Party Time.wav

Peak level 96.2 %
Extraction speed 1.1 X
Track quality 99.9 %
Test CRC 24F69AD8
Copy CRC 24F69AD8
Accurately ripped (confidence 2) [E1DD5B61] (AR v2)
Copy OK

Track 4

Filename C:\Users\PC\Desktop\The Jazz Butcher-The Wasted Years-CD-FLAC-2017\cd1-Bath of Bacon\04 Bigfoot Motel.wav

Peak level 96.2 %
Extraction speed 1.4 X
Track quality 100.0 %
Test CRC A13425E6
Copy CRC A13425E6
Accurately ripped (confidence 2) [955D3ECB] (AR v2)
Copy OK

Track 5

Filename C:\Users\PC\Desktop\The Jazz Butcher-The Wasted Years-CD-FLAC-2017\cd1-Bath of Bacon\05 Sex Engine Thing.wav

Peak level 90.5 %
Extraction speed 1.5 X
Track quality 100.0 %
Test CRC 809856F3
Copy CRC 809856F3
Accurately ripped (confidence 2) [17FB14D4] (AR v2)
Copy OK

Track 6

Filename C:\Users\PC\Desktop\The Jazz Butcher-The Wasted Years-CD-FLAC-2017\cd1-Bath of Bacon\06 Chinatown.wav

Peak level 86.2 %
Extraction speed 1.5 X
Track quality 100.0 %
Test CRC 993E5D95
Copy CRC 993E5D95
Accurately ripped (confidence 2) [A3B47122] (AR v2)
Copy OK

Track 7

Filename C:\Users\PC\Desktop\The Jazz Butcher-The Wasted Years-CD-FLAC-2017\cd1-Bath of Bacon\07 Zombie Love.wav

Peak level 85.7 %
Extraction speed 1.6 X
Track quality 100.0 %
Test CRC 178B8263
Copy CRC 178B8263
Accurately ripped (confidence 2) [A866668E] (AR v2)
Copy OK

Track 8

Filename C:\Users\PC\Desktop\The Jazz Butcher-The Wasted Years-CD-FLAC-2017\cd1-Bath of Bacon\08 Grey Flanellette.wav

Peak level 96.2 %
Extraction speed 1.5 X
Track quality 100.0 %
Test CRC 0F662C90
Copy CRC 0F662C90
Accurately ripped (confidence 2) [FF40E5C2] (AR v2)
Copy OK

Track 9

Filename C:\Users\PC\Desktop\The Jazz Butcher-The Wasted Years-CD-FLAC-2017\cd1-Bath of Bacon\09 La Mer.wav

Peak level 96.2 %
Extraction speed 1.7 X
Track quality 100.0 %
Test CRC 5D93F7B4
Copy CRC 5D93F7B4
Accurately ripped (confidence 2) [00ECD3EE] (AR v2)
Copy OK

Track 10

Filename C:\Users\PC\Desktop\The Jazz Butcher-The Wasted Years-CD-FLAC-2017\cd1-Bath of Bacon\10 Poisoned By Food.wav

Peak level 96.2 %
Extraction speed 1.8 X
Track quality 100.0 %
Test CRC 83ED5798
Copy CRC 83ED5798
Accurately ripped (confidence 2) [7A0D70BC] (AR v2)
Copy OK

Track 11

Filename C:\Users\PC\Desktop\The Jazz Butcher-The Wasted Years-CD-FLAC-2017\cd1-Bath of Bacon\11 Love Kittens.wav

Peak level 96.2 %
Extraction speed 1.7 X
Track quality 100.0 %
Test CRC 0A9DBE12
Copy CRC 0A9DBE12
Accurately ripped (confidence 2) [65680CCB] (AR v2)
Copy OK

Track 12

Filename C:\Users\PC\Desktop\The Jazz Butcher-The Wasted Years-CD-FLAC-2017\cd1-Bath of Bacon\12 Bath of Bacon.wav

Peak level 96.2 %
Extraction speed 1.5 X
Track quality 99.9 %
Test CRC 06B504F6
Copy CRC 06B504F6
Accurately ripped (confidence 2) [393098B1] (AR v2)
Copy OK

Track 13

Filename C:\Users\PC\Desktop\The Jazz Butcher-The Wasted Years-CD-FLAC-2017\cd1-Bath of Bacon\13 Girls Who Keep Goldfish.wav

Peak level 90.7 %
Extraction speed 2.0 X
Track quality 100.0 %
Test CRC B356984D
Copy CRC B356984D
Accurately ripped (confidence 2) [EB89C9F5] (AR v2)
Copy OK


All tracks accurately ripped

No errors occurred

End of status report

–– CUETools DB Plugin V2.1.6

[CTDB TOCID: ZhxROBV39_xsuWIBNzkpnEj8cl0-] found
Submit result: ZhxROBV39_xsuWIBNzkpnEj8cl0- has been confirmed
Track | CTDB Status
1 | (7/7) Accurately ripped
2 | (7/7) Accurately ripped
3 | (7/7) Accurately ripped
4 | (7/7) Accurately ripped
5 | (7/7) Accurately ripped
6 | (7/7) Accurately ripped
7 | (7/7) Accurately ripped
8 | (7/7) Accurately ripped
9 | (7/7) Accurately ripped
10 | (7/7) Accurately ripped
11 | (7/7) Accurately ripped
12 | (7/7) Accurately ripped
13 | (7/7) Accurately ripped


==== Log checksum AFD6526BB23F978EACDF29B612BB6246C8EED7B72A8FCDC18FBE8345C57BBB00 ====

Exact Audio Copy V1.3 from 2. September 2016

EAC extraction logfile from 10. February 2018, 19:28

The Jazz Butcher / Scandal In Bohemia

Used drive : HL-DT-STDVDRAM GP30NB20 Adapter: 1 ID: 1

Read mode : Secure
Utilize accurate stream : Yes
Defeat audio cache : Yes
Make use of C2 pointers : No

Read offset correction : 6
Overread into Lead-In and Lead-Out : No
Fill up missing offset samples with silence : Yes
Delete leading and trailing silent blocks : No
Null samples used in CRC calculations : Yes
Used interface : Native Win32 interface for Win NT & 2000
Gap handling : Appended to previous track

Used output format : User Defined Encoder
Selected bitrate : 1024 kBit/s
Quality : High
Add ID3 tag : No
Command line compressor : C:\Program Files (x86)\Exact Audio Copy\Flac\flac.exe
Additional command line options : -8 -e -p -V -T "ARTIST=%artist%" -T "TITLE=%title%" -T "ALBUM=%albumtitle%" -T "DATE=%year%" -T "TRACKNUMBER=%tracknr%" -T "GENRE=%genre%" -T "PERFORMER=%albuminterpret%" -T "COMPOSER=%composer%" %haslyrics%–tag-from-file=LYRICS="%lyricsfile%"%haslyrics% -T "ALBUMARTIST=%albumartist%" -T "DISCNUMBER=%cdnumber%" -T "TOTALDISCS=%totalcds%" -T "TOTALTRACKS=%numtracks%" -T "COMMENT=%comment%" %source% -o %dest%


TOC of the extracted CD

Track | Start | Length | Start sector | End sector
––––––––––––––––––––––––––––-
1 | 0:00.00 | 5:17.03 | 0 | 23777
2 | 5:17.03 | 4:00.54 | 23778 | 41831
3 | 9:17.57 | 2:23.49 | 41832 | 52605
4 | 11:41.31 | 2:30.04 | 52606 | 63859
5 | 14:11.35 | 2:59.41 | 63860 | 77325
6 | 17:11.01 | 3:05.59 | 77326 | 91259
7 | 20:16.60 | 4:27.23 | 91260 | 111307
8 | 24:44.08 | 2:18.72 | 111308 | 121729
9 | 27:03.05 | 4:07.21 | 121730 | 140275
10 | 31:10.26 | 6:17.00 | 140276 | 168550


Track 1

Filename C:\Users\PC\Desktop\The Jazz Butcher-The Wasted Years-CD-FLAC-2017\cd2-A Scandal In Bohemia\01 Southern Mark Smith (Big Return).wav

Pre-gap length 0:00:02.00

Peak level 96.2 %
Extraction speed 1.0 X
Track quality 99.9 %
Test CRC EC50F306
Copy CRC EC50F306
Accurately ripped (confidence 2) [483E9555] (AR v2)
Copy OK

Track 2

Filename C:\Users\PC\Desktop\The Jazz Butcher-The Wasted Years-CD-FLAC-2017\cd2-A Scandal In Bohemia\02 Real Men.wav

Peak level 96.2 %
Extraction speed 1.2 X
Track quality 100.0 %
Test CRC 38925093
Copy CRC 38925093
Accurately ripped (confidence 2) [4E60D8C3] (AR v2)
Copy OK

Track 3

Filename C:\Users\PC\Desktop\The Jazz Butcher-The Wasted Years-CD-FLAC-2017\cd2-A Scandal In Bohemia\03 Soul Happy Hour.wav

Peak level 96.2 %
Extraction speed 1.2 X
Track quality 100.0 %
Test CRC B1B231AA
Copy CRC B1B231AA
Accurately ripped (confidence 2) [787C9C3B] (AR v2)
Copy OK

Track 4

Filename C:\Users\PC\Desktop\The Jazz Butcher-The Wasted Years-CD-FLAC-2017\cd2-A Scandal In Bohemia\04 I Need Meat.wav

Peak level 96.2 %
Extraction speed 1.1 X
Track quality 99.9 %
Test CRC D09DACB2
Copy CRC D09DACB2
Accurately ripped (confidence 2) [30B47493] (AR v2)
Copy OK

Track 5

Filename C:\Users\PC\Desktop\The Jazz Butcher-The Wasted Years-CD-FLAC-2017\cd2-A Scandal In Bohemia\05 Just Like Betty Page.wav

Peak level 96.2 %
Extraction speed 1.4 X
Track quality 100.0 %
Test CRC FE3DF4E6
Copy CRC FE3DF4E6
Accurately ripped (confidence 2) [D928DA25] (AR v2)
Copy OK

Track 6

Filename C:\Users\PC\Desktop\The Jazz Butcher-The Wasted Years-CD-FLAC-2017\cd2-A Scandal In Bohemia\06 Marnie (Muscovite mix).wav

Peak level 96.2 %
Extraction speed 1.5 X
Track quality 100.0 %
Test CRC 581F6B85
Copy CRC 581F6B85
Accurately ripped (confidence 2) [EBBA3597] (AR v2)
Copy OK

Track 7

Filename C:\Users\PC\Desktop\The Jazz Butcher-The Wasted Years-CD-FLAC-2017\cd2-A Scandal In Bohemia\07 Caroline Wheeler's Birthday Present.wav

Peak level 96.2 %
Extraction speed 1.7 X
Track quality 100.0 %
Test CRC 557DB83F
Copy CRC 557DB83F
Accurately ripped (confidence 2) [E5055400] (AR v2)
Copy OK

Track 8

Filename C:\Users\PC\Desktop\The Jazz Butcher-The Wasted Years-CD-FLAC-2017\cd2-A Scandal In Bohemia\08 Mind Like a Playgroup.wav

Peak level 96.2 %
Extraction speed 1.5 X
Track quality 100.0 %
Test CRC C5FA353E
Copy CRC C5FA353E
Accurately ripped (confidence 2) [6158FFBC] (AR v2)
Copy OK

Track 9

Filename C:\Users\PC\Desktop\The Jazz Butcher-The Wasted Years-CD-FLAC-2017\cd2-A Scandal In Bohemia\09 Girlfriend.wav

Peak level 96.2 %
Extraction speed 1.8 X
Track quality 100.0 %
Test CRC 94C9509D
Copy CRC 94C9509D
Accurately ripped (confidence 2) [0AE4A0FA] (AR v2)
Copy OK

Track 10

Filename C:\Users\PC\Desktop\The Jazz Butcher-The Wasted Years-CD-FLAC-2017\cd2-A Scandal In Bohemia\10 My Desert.wav

Peak level 96.2 %
Extraction speed 2.0 X
Track quality 100.0 %
Test CRC E399CA50
Copy CRC E399CA50
Accurately ripped (confidence 2) [30343759] (AR v2)
Copy OK


All tracks accurately ripped

No errors occurred

End of status report

–– CUETools DB Plugin V2.1.6

[CTDB TOCID: 3g7zapZhsfDkhEX1tOTLsPVYoWU-] found
Submit result: 3g7zapZhsfDkhEX1tOTLsPVYoWU- has been confirmed
Track | CTDB Status
1 | (6/6) Accurately ripped
2 | (6/6) Accurately ripped
3 | (6/6) Accurately ripped
4 | (6/6) Accurately ripped
5 | (6/6) Accurately ripped
6 | (6/6) Accurately ripped
7 | (6/6) Accurately ripped
8 | (6/6) Accurately ripped
9 | (6/6) Accurately ripped
10 | (6/6) Accurately ripped


==== Log checksum A5363C47604E599D9DFB21B99E6557696CAF2E79839424B795F5BE42CA3F34ED ====

Exact Audio Copy V1.3 from 2. September 2016

EAC extraction logfile from 10. February 2018, 21:07

The Jazz Butcher / Sex And Travel

Used drive : HL-DT-STDVDRAM GP30NB20 Adapter: 1 ID: 1

Read mode : Secure
Utilize accurate stream : Yes
Defeat audio cache : Yes
Make use of C2 pointers : No

Read offset correction : 6
Overread into Lead-In and Lead-Out : No
Fill up missing offset samples with silence : Yes
Delete leading and trailing silent blocks : No
Null samples used in CRC calculations : Yes
Used interface : Native Win32 interface for Win NT & 2000
Gap handling : Appended to previous track

Used output format : User Defined Encoder
Selected bitrate : 1024 kBit/s
Quality : High
Add ID3 tag : No
Command line compressor : C:\Program Files (x86)\Exact Audio Copy\Flac\flac.exe
Additional command line options : -8 -e -p -V -T "ARTIST=%artist%" -T "TITLE=%title%" -T "ALBUM=%albumtitle%" -T "DATE=%year%" -T "TRACKNUMBER=%tracknr%" -T "GENRE=%genre%" -T "PERFORMER=%albuminterpret%" -T "COMPOSER=%composer%" %haslyrics%–tag-from-file=LYRICS="%lyricsfile%"%haslyrics% -T "ALBUMARTIST=%albumartist%" -T "DISCNUMBER=%cdnumber%" -T "TOTALDISCS=%totalcds%" -T "TOTALTRACKS=%numtracks%" -T "COMMENT=%comment%" %source% -o %dest%


TOC of the extracted CD

Track | Start | Length | Start sector | End sector
––––––––––––––––––––––––––––-
1 | 0:00.00 | 2:40.63 | 0 | 12062
2 | 2:40.63 | 4:45.02 | 12063 | 33439
3 | 7:25.65 | 2:19.13 | 33440 | 43877
4 | 9:45.03 | 4:22.25 | 43878 | 63552
5 | 14:07.28 | 4:22.07 | 63553 | 83209
6 | 18:29.35 | 2:35.48 | 83210 | 94882
7 | 21:05.08 | 6:05.20 | 94883 | 122277
8 | 27:10.28 | 1:52.40 | 122278 | 130717


Track 1

Filename C:\Users\PC\Desktop\The Jazz Butcher-The Wasted Years-CD-FLAC-2017\cd3-Sex And Travel\01 Big Saturday.wav

Pre-gap length 0:00:02.00

Peak level 96.2 %
Extraction speed 1.0 X
Track quality 100.0 %
Test CRC A715766F
Copy CRC A715766F
Accurately ripped (confidence 2) [3BA26895] (AR v2)
Copy OK

Track 2

Filename C:\Users\PC\Desktop\The Jazz Butcher-The Wasted Years-CD-FLAC-2017\cd3-Sex And Travel\02 Holiday.wav

Peak level 96.2 %
Extraction speed 1.2 X
Track quality 100.0 %
Test CRC 4230D612
Copy CRC 4230D612
Accurately ripped (confidence 2) [E517764D] (AR v2)
Copy OK

Track 3

Filename C:\Users\PC\Desktop\The Jazz Butcher-The Wasted Years-CD-FLAC-2017\cd3-Sex And Travel\03 Red Pets.wav

Peak level 96.2 %
Extraction speed 1.2 X
Track quality 100.0 %
Test CRC 171AB97E
Copy CRC 171AB97E
Accurately ripped (confidence 2) [34CDF938] (AR v2)
Copy OK

Track 4

Filename C:\Users\PC\Desktop\The Jazz Butcher-The Wasted Years-CD-FLAC-2017\cd3-Sex And Travel\04 Only A Rumour.wav

Peak level 96.2 %
Extraction speed 1.4 X
Track quality 100.0 %
Test CRC E2D1226D
Copy CRC E2D1226D
Accurately ripped (confidence 2) [3E992C38] (AR v2)
Copy OK

Track 5

Filename C:\Users\PC\Desktop\The Jazz Butcher-The Wasted Years-CD-FLAC-2017\cd3-Sex And Travel\05 President Reagan's Birthday Present.wav

Peak level 96.2 %
Extraction speed 1.5 X
Track quality 100.0 %
Test CRC 3302CD81
Copy CRC 3302CD81
Accurately ripped (confidence 2) [5947A29E] (AR v2)
Copy OK

Track 6

Filename C:\Users\PC\Desktop\The Jazz Butcher-The Wasted Years-CD-FLAC-2017\cd3-Sex And Travel\06 What's The Matter, Boy.wav

Peak level 96.2 %
Extraction speed 1.4 X
Track quality 100.0 %
Test CRC BA0AB053
Copy CRC BA0AB053
Accurately ripped (confidence 2) [0F24DA76] (AR v2)
Copy OK

Track 7

Filename C:\Users\PC\Desktop\The Jazz Butcher-The Wasted Years-CD-FLAC-2017\cd3-Sex And Travel\07 Walk With The Devil.wav

Peak level 96.2 %
Extraction speed 1.8 X
Track quality 100.0 %
Test CRC A367E5AF
Copy CRC A367E5AF
Accurately ripped (confidence 2) [62277FBC] (AR v2)
Copy OK

Track 8

Filename C:\Users\PC\Desktop\The Jazz Butcher-The Wasted Years-CD-FLAC-2017\cd3-Sex And Travel\08 Down The Drain.wav

Peak level 96.2 %
Extraction speed 1.2 X
Track quality 99.9 %
Test CRC E1790033
Copy CRC E1790033
Accurately ripped (confidence 2) [39CD0F46] (AR v2)
Copy OK


All tracks accurately ripped

No errors occurred

End of status report

–– CUETools DB Plugin V2.1.6

[CTDB TOCID: .OoU_Sw_2jufkkRhZaGpiYswju8-] found
Submit result: .OoU_Sw_2jufkkRhZaGpiYswju8- has been confirmed
Track | CTDB Status
1 | (7/7) Accurately ripped
2 | (7/7) Accurately ripped
3 | (7/7) Accurately ripped
4 | (7/7) Accurately ripped
5 | (7/7) Accurately ripped
6 | (7/7) Accurately ripped
7 | (7/7) Accurately ripped
8 | (7/7) Accurately ripped


==== Log checksum FD153926C8F6CD5DC452FBF724926840555CBA76E2E647671545E33EC5E5A004 ====

Exact Audio Copy V1.3 from 2. September 2016

EAC extraction logfile from 11. February 2018, 0:09

Jazz Butcher Conspiracy / Distressed Gentlefolk

Used drive : HL-DT-STDVDRAM GP30NB20 Adapter: 1 ID: 1

Read mode : Secure
Utilize accurate stream : Yes
Defeat audio cache : Yes
Make use of C2 pointers : No

Read offset correction : 6
Overread into Lead-In and Lead-Out : No
Fill up missing offset samples with silence : Yes
Delete leading and trailing silent blocks : No
Null samples used in CRC calculations : Yes
Used interface : Native Win32 interface for Win NT & 2000
Gap handling : Appended to previous track

Used output format : User Defined Encoder
Selected bitrate : 1024 kBit/s
Quality : High
Add ID3 tag : No
Command line compressor : C:\Program Files (x86)\Exact Audio Copy\Flac\flac.exe
Additional command line options : -8 -e -p -V -T "ARTIST=%artist%" -T "TITLE=%title%" -T "ALBUM=%albumtitle%" -T "DATE=%year%" -T "TRACKNUMBER=%tracknr%" -T "GENRE=%genre%" -T "PERFORMER=%albuminterpret%" -T "COMPOSER=%composer%" %haslyrics%–tag-from-file=LYRICS="%lyricsfile%"%haslyrics% -T "ALBUMARTIST=%albumartist%" -T "DISCNUMBER=%cdnumber%" -T "TOTALDISCS=%totalcds%" -T "TOTALTRACKS=%numtracks%" -T "COMMENT=%comment%" %source% -o %dest%


TOC of the extracted CD

Track | Start | Length | Start sector | End sector
––––––––––––––––––––––––––––-
1 | 0:00.00 | 3:51.05 | 0 | 17329
2 | 3:51.05 | 2:59.03 | 17330 | 30757
3 | 6:50.08 | 5:50.28 | 30758 | 57035
4 | 12:40.36 | 3:41.15 | 57036 | 73625
5 | 16:21.51 | 3:20.22 | 73626 | 88647
6 | 19:41.73 | 3:30.22 | 88648 | 104419
7 | 23:12.20 | 3:41.65 | 104420 | 121059
8 | 26:54.10 | 4:15.23 | 121060 | 140207
9 | 31:09.33 | 3:28.42 | 140208 | 155849
10 | 34:38.00 | 5:17.04 | 155850 | 179628


Track 1

Filename C:\Users\PC\Desktop\The Jazz Butcher-The Wasted Years-CD-FLAC-2017\cd4-Distressed Gentlefolk\01 Falling in Love.wav

Pre-gap length 0:00:02.00

Peak level 96.2 %
Extraction speed 0.9 X
Track quality 99.9 %
Test CRC 9F6238A5
Copy CRC 9F6238A5
Accurately ripped (confidence 2) [8F5C8E4C] (AR v2)
Copy OK

Track 2

Filename C:\Users\PC\Desktop\The Jazz Butcher-The Wasted Years-CD-FLAC-2017\cd4-Distressed Gentlefolk\02 Big Bad Thing.wav

Peak level 96.2 %
Extraction speed 1.1 X
Track quality 100.0 %
Test CRC 1670807B
Copy CRC 1670807B
Accurately ripped (confidence 2) [F721B132] (AR v2)
Copy OK

Track 3

Filename C:\Users\PC\Desktop\The Jazz Butcher-The Wasted Years-CD-FLAC-2017\cd4-Distressed Gentlefolk\03 Still In the Kitchen.wav

Peak level 96.2 %
Extraction speed 1.4 X
Track quality 100.0 %
Test CRC 4A10B094
Copy CRC 4A10B094
Accurately ripped (confidence 2) [AF12AF24] (AR v2)
Copy OK

Track 4

Filename C:\Users\PC\Desktop\The Jazz Butcher-The Wasted Years-CD-FLAC-2017\cd4-Distressed Gentlefolk\04 Hungarian Love Song.wav

Peak level 96.2 %
Extraction speed 1.4 X
Track quality 100.0 %
Test CRC 5DB29566
Copy CRC 5DB29566
Accurately ripped (confidence 2) [4CBF015E] (AR v2)
Copy OK

Track 5

Filename C:\Users\PC\Desktop\The Jazz Butcher-The Wasted Years-CD-FLAC-2017\cd4-Distressed Gentlefolk\05 The New World.wav

Peak level 96.2 %
Extraction speed 1.5 X
Track quality 100.0 %
Test CRC C3A3A3F9
Copy CRC C3A3A3F9
Accurately ripped (confidence 2) [F62164B8] (AR v2)
Copy OK

Track 6

Filename C:\Users\PC\Desktop\The Jazz Butcher-The Wasted Years-CD-FLAC-2017\cd4-Distressed Gentlefolk\06 Who Loves You Now.wav

Peak level 96.2 %
Extraction speed 1.6 X
Track quality 100.0 %
Test CRC E6CFA18F
Copy CRC E6CFA18F
Accurately ripped (confidence 2) [D3F032FB] (AR v2)
Copy OK

Track 7

Filename C:\Users\PC\Desktop\The Jazz Butcher-The Wasted Years-CD-FLAC-2017\cd4-Distressed Gentlefolk\07 Domestic Animal.wav

Peak level 96.2 %
Extraction speed 1.7 X
Track quality 100.0 %
Test CRC A340668C
Copy CRC A340668C
Accurately ripped (confidence 2) [6A51238D] (AR v2)
Copy OK

Track 8

Filename C:\Users\PC\Desktop\The Jazz Butcher-The Wasted Years-CD-FLAC-2017\cd4-Distressed Gentlefolk\08 Buffalo Shame.wav

Peak level 96.2 %
Extraction speed 1.6 X
Track quality 99.9 %
Test CRC 1AE1BC9D
Copy CRC 1AE1BC9D
Accurately ripped (confidence 2) [23C07009] (AR v2)
Copy OK

Track 9

Filename C:\Users\PC\Desktop\The Jazz Butcher-The Wasted Years-CD-FLAC-2017\cd4-Distressed Gentlefolk\09 Nothing Special.wav

Peak level 96.2 %
Extraction speed 1.8 X
Track quality 100.0 %
Test CRC 25DC4D43
Copy CRC 25DC4D43
Accurately ripped (confidence 2) [2049BC9A] (AR v2)
Copy OK

Track 10

Filename C:\Users\PC\Desktop\The Jazz Butcher-The Wasted Years-CD-FLAC-2017\cd4-Distressed Gentlefolk\10 Angels.wav

Peak level 96.2 %
Extraction speed 1.8 X
Track quality 99.9 %
Test CRC 94F9865A
Copy CRC 94F9865A
Accurately ripped (confidence 2) [9B174C83] (AR v2)
Copy OK


All tracks accurately ripped

No errors occurred

End of status report

–– CUETools DB Plugin V2.1.6

[CTDB TOCID: EW.B3pPE_B01d9eskXRPKvKG928-] found
Submit result: EW.B3pPE_B01d9eskXRPKvKG928- has been confirmed
Track | CTDB Status
1 | (7/7) Accurately ripped
2 | (7/7) Accurately ripped
3 | (7/7) Accurately ripped
4 | (7/7) Accurately ripped
5 | (7/7) Accurately ripped
6 | (7/7) Accurately ripped
7 | (7/7) Accurately ripped
8 | (7/7) Accurately ripped
9 | (7/7) Accurately ripped
10 | (7/7) Accurately ripped


==== Log checksum B9877C05F36F25FEB4A6C1A53B9A3B91CB9F34791F280AB4634DF9506F970DBE ====

Thanks to the Original ripper sharky77 !