Subcategories

The Mamas & The Papas - The Mamas & The Papas (1966, CD 1988)

Posted By: stfine
The Mamas & The Papas - The Mamas & The Papas (1966, CD 1988)

The Mamas & The Papas - The Mamas & The Papas (1966, CD 1988)
EAC rip | FLAC image + cue + log + scans | 00:32:41 | 248 MB (3% rec.)
Rock, Pop-Rock | Label: MCA (Japan), MCAD-31043

The second album by the Mamas & the Papas, which was recorded and released during the precise high point in their brief career. While not quite as striking as a whole as their debut, the result is still magnificent. Aside from the hits "I Saw Her Again",which was possibly the hardest-rocking track the group ever recorded, and "Words of Love" (featuring Cass Elliot), the rest of the album has numerous highlights.

Tracklist

1. No Salt On Her Tail [02:43]
2. Trip, Stumble And Fall [02:41]
3. Dancing Bear [04:11]
4. Words Of Love [02:16]
5. My Heart Stood Still (Richard Rodgers, Lorenz Hart) [01:44]
6. Dancing In The Street (Marvin Gaye, William "Mickey" Stevenson, Ivy Jo Hunter) [03:49]
7. I Saw Her Again (Phillips, Doherty) [03:15]
8. Strange Young Girls [02:56]
9. I Can't Wait [02:43]
10. Even If I Could [02:43]
11. That Kind Of Girl [02:41]
12. Once Was A Time I Thought [00:59]

Total time 00:32:41

Exact Audio Copy V1.0 beta 2 from 29. April 2011

EAC extraction logfile from 25. June 2011, 14:27

The Mamas & The Papas / The Mamas & The Papas

Used drive : _NEC DVD_RW ND-3550A Adapter: 1 ID: 0

Read mode : Secure
Utilize accurate stream : Yes
Defeat audio cache : Yes
Make use of C2 pointers : No

Read offset correction : 48
Overread into Lead-In and Lead-Out : No
Fill up missing offset samples with silence : Yes
Delete leading and trailing silent blocks : No
Null samples used in CRC calculations : Yes
Used interface : Native Win32 interface for Win NT & 2000

Used output format : User Defined Encoder
Selected bitrate : 768 kBit/s
Quality : High
Add ID3 tag : No
Command line compressor : C:\Program Files\Exact Audio Copy\FLAC\FLAC.EXE
Additional command line options : -6 -V -T "ARTIST=%artist%" -T "TITLE=%title%" -T "ALBUM=%albumtitle%" -T "DATE=%year%" -T "TRACKNUMBER=%tracknr%" -T "GENRE=%genre%" -T "COMMENT=%comment%" -T "BAND=%albuminterpret%" -T "COMPOSER=%composer%" %haslyrics%–ta


TOC of the extracted CD

Track | Start | Length | Start sector | End sector
––––––––––––––––––––––––––––-
1 | 0:00.00 | 2:43.69 | 0 | 12293
2 | 2:43.69 | 2:41.03 | 12294 | 24371
3 | 5:24.72 | 4:11.39 | 24372 | 43235
4 | 9:36.36 | 2:16.39 | 43236 | 53474
5 | 11:53.00 | 1:44.69 | 53475 | 61343
6 | 13:37.69 | 3:49.66 | 61344 | 78584
7 | 17:27.60 | 3:15.37 | 78585 | 93246
8 | 20:43.22 | 2:56.45 | 93247 | 106491
9 | 23:39.67 | 2:43.54 | 106492 | 118770
10 | 26:23.46 | 2:43.36 | 118771 | 131031
11 | 29:07.07 | 2:41.27 | 131032 | 143133
12 | 31:48.34 | 0:59.66 | 143134 | 147624


Range status and errors

Selected range

Filename D:\1\The Mamas & The Papas - The Mamas & The Papas (1966)\The Mamas & The Papas - The Mamas & The Papas.wav

Peak level 100.0 %
Extraction speed 4.6 X
Range quality 100.0 %
Test CRC 8286827E
Copy CRC 8286827E
Copy OK

No errors occurred

End of status report

==== Log checksum 75C2B0ECA16FCFFF1920CD497B527F1E6F9C2FBAD500AEE73AA6757E4312AF8F ====

All songs by John Phillips unless otherwise noted.

Personnel:
Denny Doherty, Cass Elliot, Michelle Phillips, Jill Gibson– vocals;
John Phillips – vocals and guitar;
Hal Blaine – percussion;
Larry Knechtel – organ and piano;
Joe Osborn – bass;
"Doctor" Eric Hord, Tommy Tedesco, P. F. Sloan - guitar;
Peter Pilafian - electric violin;
Ray Manzarek – organ piano on "No Salt on Her Tail".

The first isssue of the album on CD, not remastered. Originally released by Dunhill Records.

The Mamas & The Papas - The Mamas & The Papas (1966, CD 1988)