Subcategories

The Milkees - The Album Collection (3 CDs: 2006-2010)

Posted By: Rehabilly
The Milkees - The Album Collection (3 CDs: 2006-2010)

The Milkees - The Album Collection (3 CDs: 2006-2010)
3x EAC | FLAC+CUE+LOG or MP3 CBR 320 | 91:49 min | 618 or 213 MB

The Milkees are Kobe-based 60s styled all-girls trio formed in 2004. The band combine cute looks, fantastic musicianship, and stirring chorus work for a loud garage-styled and yet amazingly listenable blend of pop and rock. This collection includes three fantastic releases in the retro-modern style that has brought bands like Shonen Knife and The 5.6.7.8's to fame.




The Milkees - The Album Collection (3 CDs: 2006-2010)

The Milkees - ミルキィズがやってきた。にゃぁにゃぁにゃぁ (2006)
FLAC+CUE+LOG or MP3 CBR 320 | 27:02 min | 177 or 63 MB

Tracklist:

01. Theme Of The Milkees
02. Sweet "L"
03. (Lita Is Like A) Baby Face
04. Locomotion
05. Sweet Sweet Times
06. (Love Is Like A) Heat Wave
07. Hey Boy!
08. フリフリ'04 (Furifuri '04)
09. Summer Beach
10. Pop Pop Pop Pie
11. Mama!
12. Da Doo Ron Ron
13. Sing A Song

Exact Audio Copy V1.1 from 23. June 2015

EAC extraction logfile from 28. March 2016, 12:30

The Milkees / The Milkees

Used drive : ASUS DRW-24B1ST Adapter: 1 ID: 0

Read mode : Secure
Utilize accurate stream : Yes
Defeat audio cache : Yes
Make use of C2 pointers : No

Read offset correction : 6
Overread into Lead-In and Lead-Out : No
Fill up missing offset samples with silence : Yes
Delete leading and trailing silent blocks : No
Null samples used in CRC calculations : Yes
Used interface : Native Win32 interface for Win NT & 2000

Used output format : Internal WAV Routines
Sample format : 44.100 Hz; 16 Bit; Stereo


TOC of the extracted CD

Track | Start | Length | Start sector | End sector
––––––––––––––––––––––––––––-
1 | 0:00.00 | 0:52.44 | 0 | 3943
2 | 0:52.44 | 2:08.21 | 3944 | 13564
3 | 3:00.65 | 1:59.48 | 13565 | 22537
4 | 5:00.38 | 1:49.55 | 22538 | 30767
5 | 6:50.18 | 2:14.13 | 30768 | 40830
6 | 9:04.31 | 2:58.01 | 40831 | 54181
7 | 12:02.32 | 2:25.03 | 54182 | 65059
8 | 14:27.35 | 1:25.51 | 65060 | 71485
9 | 15:53.11 | 1:56.05 | 71486 | 80190
10 | 17:49.16 | 1:48.71 | 80191 | 88361
11 | 19:38.12 | 2:21.12 | 88362 | 98948
12 | 21:59.24 | 2:00.03 | 98949 | 107951
13 | 23:59.27 | 3:02.55 | 107952 | 121656


Range status and errors

Selected range

Filename F:\_Rehabilly\MILKEES, The\2006- The Milkees\The Milkees - The Milkees (SZNM-1016).wav

Peak level 100.0 %
Extraction speed 7.0 X
Range quality 100.0 %
Test CRC 3C917C92
Copy CRC 3C917C92
Copy OK

No errors occurred


AccurateRip summary

Track 1 cannot be verified as accurate (confidence 2) [CA766F2E], AccurateRip returned [893D1E53] (AR v2)
Track 2 cannot be verified as accurate (confidence 2) [06C8C45B], AccurateRip returned [883F1AB9] (AR v2)
Track 3 cannot be verified as accurate (confidence 2) [B7714DF3], AccurateRip returned [04AE21E2] (AR v2)
Track 4 cannot be verified as accurate (confidence 2) [FC661BA0], AccurateRip returned [4A6B31A1] (AR v2)
Track 5 cannot be verified as accurate (confidence 2) [FFA6CE07], AccurateRip returned [C84587FA] (AR v2)
Track 6 cannot be verified as accurate (confidence 2) [E6132352], AccurateRip returned [E9818B6E] (AR v2)
Track 7 cannot be verified as accurate (confidence 2) [BD34C321], AccurateRip returned [A7976BBA] (AR v2)
Track 8 cannot be verified as accurate (confidence 2) [A491863D], AccurateRip returned [3ACAF1B1] (AR v2)
Track 9 cannot be verified as accurate (confidence 2) [001C663E], AccurateRip returned [67F19140] (AR v2)
Track 10 cannot be verified as accurate (confidence 2) [72496185], AccurateRip returned [51DB6A95] (AR v2)
Track 11 cannot be verified as accurate (confidence 2) [80A2DCCC], AccurateRip returned [58E15026] (AR v2)
Track 12 cannot be verified as accurate (confidence 2) [91BD4BC7], AccurateRip returned [7AA9EF38] (AR v2)
Track 13 cannot be verified as accurate (confidence 2) [B95AD3A1], AccurateRip returned [1C4255CF] (AR v2)

No tracks could be verified as accurate
You may have a different pressing from the one(s) in the database

End of status report

==== Log checksum 60E89F8A30BBEBE29927D4A3E409DBE661719C68E7D325D386EA0F5F5E2EBAD1 ====


Produced by The Milkees. Engineered by Shiraishi Naritsune
Recorded at Sound Vintage, Kobe, Hyogo, Japan (July 2005 & December 2005)
Mixed & Mastered by Tatsuya Akutsu at A92 Studio, Jujo, Japan (March 2006).

Release Date: April 25, 2006
Label: Sanazami Label, Japan
Catalog No.: SNZM-1016


The Milkees - The Album Collection (3 CDs: 2006-2010)

The Milkees - Lover Soul (2007)
FLAC+CUE+LOG or MP3 CBR 320 | 31:12 min | 209 or 72 MB

Tracklist:

01. 恋はミルク味 (Love Is A Flavored Milk)
02. Magic Mushroom
03. Hello Baby
04. Please Mr.Postman
05. Go! Go! Girls
06. 働く女 (Hataraku Onna)
07. Good Good Lovin'
08. We Say Merry Christmas!
09. Shalalalalee
10. Do You Love Me
11. Breakaway
12. Peace

Exact Audio Copy V1.1 from 23. June 2015

EAC extraction logfile from 27. March 2016, 22:24

The Milkees / Lover Soul

Used drive : ASUS DRW-24B1ST Adapter: 1 ID: 0

Read mode : Secure
Utilize accurate stream : Yes
Defeat audio cache : Yes
Make use of C2 pointers : No

Read offset correction : 6
Overread into Lead-In and Lead-Out : No
Fill up missing offset samples with silence : Yes
Delete leading and trailing silent blocks : No
Null samples used in CRC calculations : Yes
Used interface : Native Win32 interface for Win NT & 2000

Used output format : Internal WAV Routines
Sample format : 44.100 Hz; 16 Bit; Stereo


TOC of the extracted CD

Track | Start | Length | Start sector | End sector
––––––––––––––––––––––––––––-
1 | 0:00.00 | 1:35.08 | 0 | 7132
2 | 1:35.08 | 3:26.51 | 7133 | 22633
3 | 5:01.59 | 1:54.03 | 22634 | 31186
4 | 6:55.62 | 2:00.46 | 31187 | 40232
5 | 8:56.33 | 2:30.22 | 40233 | 51504
6 | 11:26.55 | 3:29.37 | 51505 | 67216
7 | 14:56.17 | 2:10.13 | 67217 | 76979
8 | 17:06.30 | 2:27.29 | 76980 | 88033
9 | 19:33.59 | 2:19.73 | 88034 | 98531
10 | 21:53.57 | 2:32.26 | 98532 | 109957
11 | 24:26.08 | 2:28.41 | 109958 | 121098
12 | 26:54.49 | 4:16.74 | 121099 | 140372


Range status and errors

Selected range

Filename F:\_Rehabilly\MILKEES, The\2007- Lover Soul\The Milkees - Lover Soul (SZNM-1024).wav

Peak level 97.8 %
Extraction speed 7.3 X
Range quality 100.0 %
Test CRC 9DBFC55E
Copy CRC 9DBFC55E
Copy OK

No errors occurred


AccurateRip summary

Track 1 cannot be verified as accurate (confidence 1) [4EB866CA], AccurateRip returned [82686594] (AR v2)
Track 2 cannot be verified as accurate (confidence 1) [C0334B98], AccurateRip returned [8F94B2B9] (AR v2)
Track 3 cannot be verified as accurate (confidence 1) [94541A2E], AccurateRip returned [D49D9523] (AR v2)
Track 4 cannot be verified as accurate (confidence 1) [5AE085A4], AccurateRip returned [E31EAB7C] (AR v2)
Track 5 cannot be verified as accurate (confidence 1) [B2C0F39B], AccurateRip returned [3F4A4D70] (AR v2)
Track 6 cannot be verified as accurate (confidence 1) [8A34B298], AccurateRip returned [849262B9] (AR v2)
Track 7 cannot be verified as accurate (confidence 1) [316EE85D], AccurateRip returned [1BAD55C6] (AR v2)
Track 8 cannot be verified as accurate (confidence 1) [3CFE2B08], AccurateRip returned [2967646A] (AR v2)
Track 9 cannot be verified as accurate (confidence 1) [67352EAD], AccurateRip returned [DC1ACA1E] (AR v2)
Track 10 cannot be verified as accurate (confidence 1) [3490AC78], AccurateRip returned [764A7FAE] (AR v2)
Track 11 cannot be verified as accurate (confidence 1) [9D53ABDF], AccurateRip returned [38E69B12] (AR v2)
Track 12 cannot be verified as accurate (confidence 1) [57E253DF], AccurateRip returned [BB9ECF17] (AR v2)

No tracks could be verified as accurate
You may have a different pressing from the one(s) in the database

End of status report

==== Log checksum CF52CE6D88EB75490EDD881B024187CCE178B9B04916508560B8D62A21F0886A ====


Produced & Arranged by The Milkees
Recorded at Sound Vintage, Kobe, Hyogo, Japan (July-September 2007) by Yuchi Fujitsuka
& at A92 Studio, Jujo, Japan (July-August 2007) by Tatsuya Akutsu
Mixed & Mastered by Tatsuya Akutsu at A92 Studio, Jujo, Japan (September 2007).

• Berry - vocals, guitar
• Peco - guitar, backing vocals
• :リリィ - bass, backing vocals
• ペトラ - drums, backing vocals

Release Date: November 27, 2007
Label: Sanazami Label, Japan
Catalog No.: SNZM-1024


The Milkees - The Album Collection (3 CDs: 2006-2010)

The Milkees - Lovelever (2010)
FLAC+CUE+LOG or MP3 CBR 320 | 33:35 min | 232 or 78 MB

Tracklist:

01. Lovelever
02. What I Want
03. Peach Pie
04. Pop Worker
05. It's A Happy Day
06. Hippie Girl
07. 星のイヤリング (Hoshi No Earring)
08. ママ・ミルク (Mama Milk)
09. 恋はあせらず (Koi Ha Aserazu)
10. 月と涙とロックンロール (Tsuki To Namida To Rock 'N' Roll)

Exact Audio Copy V1.1 from 23. June 2015

EAC extraction logfile from 1. April 2016, 1:09

The Milkees / Lovelever

Used drive : ASUS DRW-24B1ST Adapter: 1 ID: 0

Read mode : Secure
Utilize accurate stream : Yes
Defeat audio cache : Yes
Make use of C2 pointers : No

Read offset correction : 6
Overread into Lead-In and Lead-Out : No
Fill up missing offset samples with silence : Yes
Delete leading and trailing silent blocks : No
Null samples used in CRC calculations : Yes
Used interface : Native Win32 interface for Win NT & 2000

Used output format : Internal WAV Routines
Sample format : 44.100 Hz; 16 Bit; Stereo


TOC of the extracted CD

Track | Start | Length | Start sector | End sector
––––––––––––––––––––––––––––-
1 | 0:00.00 | 3:19.40 | 0 | 14964
2 | 3:19.40 | 2:33.56 | 14965 | 26495
3 | 5:53.21 | 3:02.19 | 26496 | 40164
4 | 8:55.40 | 3:33.41 | 40165 | 56180
5 | 12:29.06 | 3:40.07 | 56181 | 72687
6 | 16:09.13 | 3:37.29 | 72688 | 88991
7 | 19:46.42 | 3:58.15 | 88992 | 106856
8 | 23:44.57 | 2:51.36 | 106857 | 119717
9 | 26:36.18 | 2:58.51 | 119718 | 133118
10 | 29:34.69 | 4:00.15 | 133119 | 151133


Range status and errors

Selected range

Filename F:\_Rehabilly\MILKEES, The\2010- Lovelever\The Milkees - Lovelever (SZNM-1036).wav

Peak level 99.9 %
Extraction speed 7.6 X
Range quality 100.0 %
Test CRC 525D738D
Copy CRC 525D738D
Copy OK

No errors occurred


AccurateRip summary

Track 1 accurately ripped (confidence 1) [AF5AE5AF] (AR v1)
Track 2 accurately ripped (confidence 1) [F23D5151] (AR v1)
Track 3 accurately ripped (confidence 1) [E69A4B9C] (AR v1)
Track 4 accurately ripped (confidence 1) [861A8A9E] (AR v1)
Track 5 accurately ripped (confidence 1) [0E805BF2] (AR v1)
Track 6 accurately ripped (confidence 1) [1D387C44] (AR v1)
Track 7 accurately ripped (confidence 1) [270A39A0] (AR v1)
Track 8 accurately ripped (confidence 1) [3BFD90D0] (AR v1)
Track 9 accurately ripped (confidence 1) [C655D493] (AR v1)
Track 10 accurately ripped (confidence 1) [4A142EA2] (AR v1)

All tracks accurately ripped

End of status report

==== Log checksum 7AFDAE87937473EE0314B7DD11A1F1FE2B3ED6A585CFDAF19833C7EFDF01FC2F ====


Produced & Arranged by The Milkees
Recorded at Sound Vintage, Kobe, Hyogo, Japan (August 2009-April 2010) by Yuchi Fujitsuka
& at A92 Studio, Jujo, Japan (February-May 2010) by Tatsuya Akutsu
Mixed & Mastered by Tatsuya Akutsu at A92 Studio, Jujo, Japan (October 2009-June 2010).

• Berry - vocals, guitar
• Peco - guitar, backing vocals
• :リリィ - bass, backing vocals
• ペトラ - drums, backing vocals

Release Date: August 3, 2010
Label: Sanazami Label, Japan
Catalog No.: SNZM-1036



* Original CD -> EAC Image, embedded cuesheet & more, foobar2000 ready, etc.
all CUEs, LOGs and other technical info includes in the internal "CD_Support" archive


___________________________________