Tags
Language
Tags

The Pretenders - Hate for Sale (2020)

Posted By: delpotro
The Pretenders - Hate for Sale (2020)

The Pretenders - Hate for Sale (2020)
EAC Rip | FLAC (tracks+log+.cue) - 207 Mb | MP3 CBR 320 kbps - 78 Mb | 00:30:30
College Rock, Alternative Rock, Pop Rock, Female Vocal | Label: BMG Rights Management

Hate For Sale, produced by the revered Stephen Street (The Smiths, Blur), is the latest studio album by The Pretenders via BMG. The album features 10 new songs written collaboratively by Chrissie Hynde and the electrifyingly dynamic guitarist James Walbourne, in what is the first Hynde/Walbourne song writing collaboration to date.
Tracklist:
1. Hate for Sale (02:30)
2. The Buzz (03:50)
3. Lightning Man (02:56)
4. Turf Accountant Daddy (03:05)
5. You Can't Hurt a Fool (03:19)
6. I Didn't Know When to Stop (02:23)
7. Maybe Love Is in NYC (03:25)
8. Junkie Walk (02:44)
9. Didn't Want to Be This Lonely (02:56)
10. Crying in Public (03:17)

Exact Audio Copy V1.3 from 2. September 2016

EAC extraction logfile from 8. October 2020, 7:32

The Pretenders / Hate For Sale

Used drive : PLEXTOR PX-891SAF Adapter: 1 ID: 0

Read mode : Secure
Utilize accurate stream : Yes
Defeat audio cache : Yes
Make use of C2 pointers : No

Read offset correction : 6
Overread into Lead-In and Lead-Out : No
Fill up missing offset samples with silence : Yes
Delete leading and trailing silent blocks : No
Null samples used in CRC calculations : Yes
Used interface : Native Win32 interface for Win NT & 2000
Gap handling : Appended to previous track

Used output format : User Defined Encoder
Selected bitrate : 1024 kBit/s
Quality : High
Add ID3 tag : No
Command line compressor : C:\Program Files (x86)\Exact Audio Copy\Flac\flac.exe
Additional command line options : -8 -V -T "ARTIST=%artist%" -T "TITLE=%title%" -T "ALBUM=%albumtitle%" -T "DATE=%year%" -T "TRACKNUMBER=%tracknr%" -T "GENRE=%genre%" -T "PERFORMER=%albuminterpret%" -T "COMPOSER=%composer%" %haslyrics%–tag-from-file=LYRICS="%lyricsfile%"%haslyrics% -T "ALBUMARTIST=%albumartist%" -T "DISCNUMBER=%cdnumber%" -T "TOTALDISCS=%totalcds%" -T "TOTALTRACKS=%numtracks%" -T "COMMENT=%comment%" %source% -o %dest%


TOC of the extracted CD

Track | Start | Length | Start sector | End sector
––––––––––––––––––––––––––––-
1 | 0:00.00 | 2:31.32 | 0 | 11356
2 | 2:31.32 | 3:50.67 | 11357 | 28673
3 | 6:22.24 | 2:56.46 | 28674 | 41919
4 | 9:18.70 | 3:05.32 | 41920 | 55826
5 | 12:24.27 | 3:19.11 | 55827 | 70762
6 | 15:43.38 | 2:23.64 | 70763 | 81551
7 | 18:07.27 | 3:25.12 | 81552 | 96938
8 | 21:32.39 | 2:44.60 | 96939 | 109298
9 | 24:17.24 | 2:56.00 | 109299 | 122498
10 | 27:13.24 | 3:17.18 | 122499 | 137291


Track 1

Filename D:\#EAC new\#wav+flac\#add\The Pretenders - Hate For Sale\01. The Pretenders - Hate For Sale.wav

Pre-gap length 0:00:02.00

Peak level 98.6 %
Extraction speed 4.6 X
Track quality 100.0 %
Test CRC 2E5D59DC
Copy CRC 2E5D59DC
Accurately ripped (confidence 7) [AD2E8D03] (AR v2)
Copy OK

Track 2

Filename D:\#EAC new\#wav+flac\#add\The Pretenders - Hate For Sale\02. The Pretenders - The Buzz.wav

Peak level 98.6 %
Extraction speed 5.4 X
Track quality 100.0 %
Test CRC F8DE9C24
Copy CRC F8DE9C24
Accurately ripped (confidence 7) [6D1C058A] (AR v2)
Copy OK

Track 3

Filename D:\#EAC new\#wav+flac\#add\The Pretenders - Hate For Sale\03. The Pretenders - Lightning Man.wav

Peak level 98.6 %
Extraction speed 4.5 X
Track quality 99.9 %
Test CRC 297E6776
Copy CRC 297E6776
Accurately ripped (confidence 7) [6F68C801] (AR v2)
Copy OK

Track 4

Filename D:\#EAC new\#wav+flac\#add\The Pretenders - Hate For Sale\04. The Pretenders - Turf Accountant Daddy.wav

Peak level 98.6 %
Extraction speed 6.0 X
Track quality 100.0 %
Test CRC 2B49FF2D
Copy CRC 2B49FF2D
Accurately ripped (confidence 7) [3B90806A] (AR v2)
Copy OK

Track 5

Filename D:\#EAC new\#wav+flac\#add\The Pretenders - Hate For Sale\05. The Pretenders - You Can't Hurt A Fool.wav

Peak level 98.6 %
Extraction speed 6.5 X
Track quality 100.0 %
Test CRC D5D4BA79
Copy CRC D5D4BA79
Accurately ripped (confidence 7) [82E3537C] (AR v2)
Copy OK

Track 6

Filename D:\#EAC new\#wav+flac\#add\The Pretenders - Hate For Sale\06. The Pretenders - I Didn't Know When To Stop.wav

Peak level 98.6 %
Extraction speed 6.4 X
Track quality 100.0 %
Test CRC E57AAC14
Copy CRC E57AAC14
Accurately ripped (confidence 7) [0C90B6A3] (AR v2)
Copy OK

Track 7

Filename D:\#EAC new\#wav+flac\#add\The Pretenders - Hate For Sale\07. The Pretenders - Maybe Love Is In NYC.wav

Peak level 98.6 %
Extraction speed 5.7 X
Track quality 99.9 %
Test CRC CA284E9E
Copy CRC CA284E9E
Accurately ripped (confidence 7) [98CA78FD] (AR v2)
Copy OK

Track 8

Filename D:\#EAC new\#wav+flac\#add\The Pretenders - Hate For Sale\08. The Pretenders - Junkie Walk.wav

Peak level 98.6 %
Extraction speed 7.1 X
Track quality 100.0 %
Test CRC 6603D89A
Copy CRC 6603D89A
Accurately ripped (confidence 7) [EBFEB6CB] (AR v2)
Copy OK

Track 9

Filename D:\#EAC new\#wav+flac\#add\The Pretenders - Hate For Sale\09. The Pretenders - Didn't Want To Be This Lonely.wav

Peak level 98.6 %
Extraction speed 7.4 X
Track quality 100.0 %
Test CRC A0C406F7
Copy CRC A0C406F7
Accurately ripped (confidence 7) [350ED597] (AR v2)
Copy OK

Track 10

Filename D:\#EAC new\#wav+flac\#add\The Pretenders - Hate For Sale\10. The Pretenders - Crying In Public.wav

Peak level 98.6 %
Extraction speed 6.2 X
Track quality 99.9 %
Test CRC 157E8AFE
Copy CRC 157E8AFE
Accurately ripped (confidence 7) [41E368B9] (AR v2)
Copy OK


All tracks accurately ripped

No errors occurred

End of status report

–– CUETools DB Plugin V2.1.6

[CTDB TOCID: 8Lzq4xyOQJy_Ej3CHHTp_xlAtUs-] found
Submit result: 8Lzq4xyOQJy_Ej3CHHTp_xlAtUs- has been confirmed
Track | CTDB Status
1 | (127/127) Accurately ripped
2 | (127/127) Accurately ripped
3 | (127/127) Accurately ripped
4 | (127/127) Accurately ripped
5 | (127/127) Accurately ripped
6 | (127/127) Accurately ripped
7 | (127/127) Accurately ripped
8 | (127/127) Accurately ripped
9 | (127/127) Accurately ripped
10 | (127/127) Accurately ripped


==== Log checksum A0EC7EEEEC9A1062E09217B3CD4768AB64E6822016CA6DFC3D5EAE1F19518736 ====

––––––––––––––––––––––––––––––

Exact Audio Copy V1.3 from 2. September 2016

EAC extraction logfile from 8. October 2020, 7:32

The Pretenders / Hate For Sale

Used drive : PLEXTOR PX-891SAF Adapter: 1 ID: 0

Read mode : Secure
Utilize accurate stream : Yes
Defeat audio cache : Yes
Make use of C2 pointers : No

Read offset correction : 6
Overread into Lead-In and Lead-Out : No
Fill up missing offset samples with silence : Yes
Delete leading and trailing silent blocks : No
Null samples used in CRC calculations : Yes
Used interface : Native Win32 interface for Win NT & 2000
Gap handling : Appended to previous track

Used output format : User Defined Encoder
Selected bitrate : 1024 kBit/s
Quality : High
Add ID3 tag : No
Command line compressor : C:\Program Files (x86)\Exact Audio Copy\Flac\flac.exe
Additional command line options : -8 -V -T "ARTIST=%artist%" -T "TITLE=%title%" -T "ALBUM=%albumtitle%" -T "DATE=%year%" -T "TRACKNUMBER=%tracknr%" -T "GENRE=%genre%" -T "PERFORMER=%albuminterpret%" -T "COMPOSER=%composer%" %haslyrics%–tag-from-file=LYRICS="%lyricsfile%"%haslyrics% -T "ALBUMARTIST=%albumartist%" -T "DISCNUMBER=%cdnumber%" -T "TOTALDISCS=%totalcds%" -T "TOTALTRACKS=%numtracks%" -T "COMMENT=%comment%" %source% -o %dest%


TOC of the extracted CD

Track | Start | Length | Start sector | End sector
––––––––––––––––––––––––––––-
1 | 0:00.00 | 2:31.32 | 0 | 11356
2 | 2:31.32 | 3:50.67 | 11357 | 28673
3 | 6:22.24 | 2:56.46 | 28674 | 41919
4 | 9:18.70 | 3:05.32 | 41920 | 55826
5 | 12:24.27 | 3:19.11 | 55827 | 70762
6 | 15:43.38 | 2:23.64 | 70763 | 81551
7 | 18:07.27 | 3:25.12 | 81552 | 96938
8 | 21:32.39 | 2:44.60 | 96939 | 109298
9 | 24:17.24 | 2:56.00 | 109299 | 122498
10 | 27:13.24 | 3:17.18 | 122499 | 137291


Track 1

Filename D:\#EAC new\#wav+flac\#add\The Pretenders - Hate For Sale\01. The Pretenders - Hate For Sale.wav

Pre-gap length 0:00:02.00

Peak level 98.6 %
Extraction speed 4.6 X
Track quality 100.0 %
Test CRC 2E5D59DC
Copy CRC 2E5D59DC
Accurately ripped (confidence 7) [AD2E8D03] (AR v2)
Copy OK

Track 2

Filename D:\#EAC new\#wav+flac\#add\The Pretenders - Hate For Sale\02. The Pretenders - The Buzz.wav

Peak level 98.6 %
Extraction speed 5.4 X
Track quality 100.0 %
Test CRC F8DE9C24
Copy CRC F8DE9C24
Accurately ripped (confidence 7) [6D1C058A] (AR v2)
Copy OK

Track 3

Filename D:\#EAC new\#wav+flac\#add\The Pretenders - Hate For Sale\03. The Pretenders - Lightning Man.wav

Peak level 98.6 %
Extraction speed 4.5 X
Track quality 99.9 %
Test CRC 297E6776
Copy CRC 297E6776
Accurately ripped (confidence 7) [6F68C801] (AR v2)
Copy OK

Track 4

Filename D:\#EAC new\#wav+flac\#add\The Pretenders - Hate For Sale\04. The Pretenders - Turf Accountant Daddy.wav

Peak level 98.6 %
Extraction speed 6.0 X
Track quality 100.0 %
Test CRC 2B49FF2D
Copy CRC 2B49FF2D
Accurately ripped (confidence 7) [3B90806A] (AR v2)
Copy OK

Track 5

Filename D:\#EAC new\#wav+flac\#add\The Pretenders - Hate For Sale\05. The Pretenders - You Can't Hurt A Fool.wav

Peak level 98.6 %
Extraction speed 6.5 X
Track quality 100.0 %
Test CRC D5D4BA79
Copy CRC D5D4BA79
Accurately ripped (confidence 7) [82E3537C] (AR v2)
Copy OK

Track 6

Filename D:\#EAC new\#wav+flac\#add\The Pretenders - Hate For Sale\06. The Pretenders - I Didn't Know When To Stop.wav

Peak level 98.6 %
Extraction speed 6.4 X
Track quality 100.0 %
Test CRC E57AAC14
Copy CRC E57AAC14
Accurately ripped (confidence 7) [0C90B6A3] (AR v2)
Copy OK

Track 7

Filename D:\#EAC new\#wav+flac\#add\The Pretenders - Hate For Sale\07. The Pretenders - Maybe Love Is In NYC.wav

Peak level 98.6 %
Extraction speed 5.7 X
Track quality 99.9 %
Test CRC CA284E9E
Copy CRC CA284E9E
Accurately ripped (confidence 7) [98CA78FD] (AR v2)
Copy OK

Track 8

Filename D:\#EAC new\#wav+flac\#add\The Pretenders - Hate For Sale\08. The Pretenders - Junkie Walk.wav

Peak level 98.6 %
Extraction speed 7.1 X
Track quality 100.0 %
Test CRC 6603D89A
Copy CRC 6603D89A
Accurately ripped (confidence 7) [EBFEB6CB] (AR v2)
Copy OK

Track 9

Filename D:\#EAC new\#wav+flac\#add\The Pretenders - Hate For Sale\09. The Pretenders - Didn't Want To Be This Lonely.wav

Peak level 98.6 %
Extraction speed 7.4 X
Track quality 100.0 %
Test CRC A0C406F7
Copy CRC A0C406F7
Accurately ripped (confidence 7) [350ED597] (AR v2)
Copy OK

Track 10

Filename D:\#EAC new\#wav+flac\#add\The Pretenders - Hate For Sale\10. The Pretenders - Crying In Public.wav

Peak level 98.6 %
Extraction speed 6.2 X
Track quality 99.9 %
Test CRC 157E8AFE
Copy CRC 157E8AFE
Accurately ripped (confidence 7) [41E368B9] (AR v2)
Copy OK


All tracks accurately ripped

No errors occurred

End of status report

–– CUETools DB Plugin V2.1.6

[CTDB TOCID: 8Lzq4xyOQJy_Ej3CHHTp_xlAtUs-] found
Submit result: 8Lzq4xyOQJy_Ej3CHHTp_xlAtUs- has been confirmed
Track | CTDB Status
1 | (127/127) Accurately ripped
2 | (127/127) Accurately ripped
3 | (127/127) Accurately ripped
4 | (127/127) Accurately ripped
5 | (127/127) Accurately ripped
6 | (127/127) Accurately ripped
7 | (127/127) Accurately ripped
8 | (127/127) Accurately ripped
9 | (127/127) Accurately ripped
10 | (127/127) Accurately ripped


==== Log checksum A0EC7EEEEC9A1062E09217B3CD4768AB64E6822016CA6DFC3D5EAE1F19518736 ====

Thanks to the Original ripper !