Subcategories

The Replacements - For Sale: Live At Maxwell's 1986 (2017)

Posted By: delpotro
The Replacements - For Sale: Live At Maxwell's 1986 (2017)

The Replacements - For Sale: Live At Maxwell's 1986 (2017)
XLD Rip | FLAC (tracks+log+.cue) | 01:22:48 | 630 Mb
Alternative Rock | Label: Rhino Entertainment, Warner Brothers

LOS ANGELES – In February 1986, The Replacements performed a classic live show at Maxwell’s in Hoboken, NJ. That night, a 24-track mobile studio was on hand to record the quartet as they careened through a 29-song marathon that mixed tracks from all of the band’s albums to date with B-sides and covers. Until now, that pristine recording of the legendary performance has only been available in low-quality bootleg form. Even so, Pitchfork has called the show “a fiery, focused set that would make a true believer out of any skeptic.”

On October 6, FOR SALE: LIVE AT MAXWELL’S 1986 will finally make its commercial debut as a two-disc set ($19.98) and a double-LP ($29.98). The music will also be available on digital download and streaming services. This marks the first live album by the band to see an official release on any of these formats. Their infamous 1985 live release The Shit Hits The Fans, famously recorded with an audience of roughly 30 people, was only available on cassette. The set also includes new liner notes by Bob Mehr, author of the New York Times bestseller Trouble Boys: The True Story Of The Replacements, as well as never-before-seen photos from the Maxwell’s show by noted music writer and photographer Caryn Rose.

Paul Westerberg, Bob Stinson, his brother Tommy Stinson, and Chris Mars made their major-label debut in October 1985 with the release of Tim on Sire/Warner Bros. When the acclaimed album reached the charts in January, the band was preparing to perform on “Saturday Night Live” — where they would later be banned for life for using profanity live on air — before launching a short East Coast tour that included the show in Hoboken.

The show at Maxwell’s would prove to be one of the last great performances by the four original members of the Replacements, a much beloved line-up including Bob Stinson on guitar, before his departure from the band in 1986. The songs they played spanned the band’s entire history while giving prominence to new material from Tim, including “Bastards Of Young,” “Left Of The Dial” and “Kiss Me On The Bus.” Mixed in were favorites like “I Will Dare” from Let It Be (1984) and “Color Me Impressed” from Hootenanny (1983). But it was songs from the band’s first album — Sorry Ma, Forgot To Take Out The Trash (1981) — that seemed to summon their best on furious versions of “Takin’ A Ride” and “I’m In Trouble.”

The original 24-track master tapes of the show sat in the Warner Music vaults until being given a proper mix in 2007, but it would still be another decade before the concert would get its official release. Mehr writes in the album’s liner notes: “Now, a decade later, and more than 30 years after the original concert, Replacements For Sale finally offers high-fidelity proof of the peculiar alchemy and unadulterated majesty of one of rock and roll’s greatest bands.”
Tracklist:
1. The Replacements - Hayday (Live at Maxwell's, Hoboken, NJ, 2/4/86)
2. The Replacements - Color Me Impressed (Live at Maxwell's, Hoboken, NJ, 2/4/86)
3. The Replacements - Dose Of Thunder (Live at Maxwell's, Hoboken, NJ, 2/4/86)
4. The Replacements - Fox On The Run (Live at Maxwell's, Hoboken, NJ, 2/4/86)
5. The Replacements - Hold My Life (Live at Maxwell's, Hoboken, NJ, 2/4/86)
6. The Replacements - I Will Dare (Live at Maxwell's, Hoboken, NJ, 2/4/86)
7. The Replacements - Favorite Thing (Live at Maxwell's, Hoboken, NJ, 2/4/86)
8. The Replacements - Unsatisfied (Live at Maxwell's, Hoboken, NJ, 2/4/86)
9. The Replacements - Can't Hardly Wait (Live at Maxwell's, Hoboken, NJ, 2/4/86)
10. The Replacements - Tommy Gets His Tonsils Out (Live at Maxwell's, Hoboken, NJ, 2/4/86)
11. The Replacements - Takin A Ride (Live at Maxwell's, Hoboken, NJ, 2/4/86)
12. The Replacements - Bastards Of Young (Live at Maxwell's, Hoboken, NJ, 2/4/86)
13. The Replacements - Kiss Me On The Bus (Live at Maxwell's, Hoboken, NJ, 2/4/86)
14. The Replacements - Black Diamond (Live at Maxwell's, Hoboken, NJ, 2/4/86)
15. The Replacements - Johnny's Gonna Die (Live at Maxwell's, Hoboken, NJ, 2/4/86)
16. The Replacements - Otto (Live at Maxwell's, Hoboken, NJ, 2/4/86)
17. The Replacements - I'm In Trouble (Live at Maxwell's, Hoboken, NJ, 2/4/86)
18. The Replacements - Left Of The Dial (Live at Maxwell's, Hoboken, NJ, 2/4/86)
19. The Replacements - God Damn Job (Live at Maxwell's, Hoboken, NJ, 2/4/86)
20. The Replacements - Answering Machine (Live at Maxwell's, Hoboken, NJ, 2/4/86)
21. The Replacements - Waitress In The Sky (Live at Maxwell's, Hoboken, NJ, 2/4/86)
22. The Replacements - Take Me Down To The Hospital (Live at Maxwell's, Hoboken, NJ, 2/4/86)
23. The Replacements - Gary's Got A Boner (Live at Maxwell's, Hoboken, NJ, 2/4/86)
24. The Replacements - If Only You Were Lonely (Live at Maxwell's, Hoboken, NJ, 2/4/86)
25. The Replacements - Baby Strange (Live at Maxwell's, Hoboken, NJ, 2/4/86)
26. The Replacements - Hitchin' A Ride (Live at Maxwell's, Hoboken, NJ, 2/4/86)
27. The Replacements - Nowhere Man (Live at Maxwell's, Hoboken, NJ, 2/4/86)
28. The Replacements - Go (Live at Maxwell's, Hoboken, NJ, 2/4/86)
29. The Replacements - Fuck School (Live at Maxwell's, Hoboken, NJ, 2/4/86)

X Lossless Decoder version 20161007 (149.3)

XLD extraction logfile from 2017-10-07 20:58:59 -0400

The Replacements / For Sale: Live At Maxwell's 1986

Used drive : HL-DT-ST DVDRW GS31N (revision TA17)
Media type : Pressed CD

Ripper mode : XLD Secure Ripper
Disable audio cache : OK for the drive with a cache less than 1375KiB
Make use of C2 pointers : NO
Read offset correction : 667
Max retry count : 20
Gap status : Analyzed, Appended

TOC of the extracted CD
Track | Start | Length | Start sector | End sector
––––––––––––––––––––––––––––-
1 | 00:00:00 | 01:59:44 | 0 | 8968
2 | 01:59:44 | 02:40:50 | 8969 | 21018
3 | 04:40:19 | 02:37:13 | 21019 | 32806
4 | 07:17:32 | 01:09:40 | 32807 | 38021
5 | 08:26:72 | 04:35:40 | 38022 | 58686
6 | 13:02:37 | 03:54:35 | 58687 | 76271
7 | 16:56:72 | 02:21:05 | 76272 | 86851
8 | 19:18:02 | 02:52:29 | 86852 | 99780
9 | 22:10:31 | 03:18:09 | 99781 | 114639
10 | 25:28:40 | 02:11:11 | 114640 | 124475
11 | 27:39:51 | 02:44:44 | 124476 | 136819
12 | 30:24:20 | 03:43:11 | 136820 | 153555
13 | 34:07:31 | 04:05:46 | 153556 | 171976
14 | 38:13:02 | 03:07:01 | 171977 | 186002

AccurateRip Summary
Disc not found in AccurateRip DB.

All Tracks
Album gain : -11.08 dB
Peak : 1.000000
Statistics
Read error : 0
Jitter error (maybe fixed) : 0
Retry sector count : 0
Damaged sector count : 0

Track 01
Filename : /Volumes/Seagate/The Replacements - For Sale: Live At Maxwell's 1986 (2017) [FLAC (level 8)]/01 Hayday (Live At Maxwell's, Hoboken, Nj, 2/4/86).flac
/Volumes/Seagate/The Replacements - For Sale: Live At Maxwell's 1986 (2017) [MPEG-4 AAC (CBR 256kbps)]/01 Hayday (Live At Maxwell's, Hoboken, Nj, 2/4/86).m4a
Pre-gap length : 00:02:00

Track gain : -11.72 dB
Peak : 1.000000
CRC32 hash (test run) : 538F90CB
CRC32 hash : 538F90CB
CRC32 hash (skip zero) : 93C5B624
AccurateRip v1 signature : 4EFF03BF
AccurateRip v2 signature : 34915025
->Track not present in AccurateRip database.
Statistics
Read error : 0
Jitter error (maybe fixed) : 0
Retry sector count : 0
Damaged sector count : 0

Track 02
Filename : /Volumes/Seagate/The Replacements - For Sale: Live At Maxwell's 1986 (2017) [FLAC (level 8)]/02 Color Me Impressed (Live At Maxwell's, Hoboken, Nj, 2/4/86).flac
/Volumes/Seagate/The Replacements - For Sale: Live At Maxwell's 1986 (2017) [MPEG-4 AAC (CBR 256kbps)]/02 Color Me Impressed (Live At Maxwell's, Hoboken, Nj, 2/4/86).m4a

Track gain : -11.78 dB
Peak : 1.000000
CRC32 hash (test run) : B921BFAC
CRC32 hash : B921BFAC
CRC32 hash (skip zero) : EF90514F
AccurateRip v1 signature : 065D9E57
AccurateRip v2 signature : 39DC3897
->Track not present in AccurateRip database.
Statistics
Read error : 0
Jitter error (maybe fixed) : 0
Retry sector count : 0
Damaged sector count : 0

Track 03
Filename : /Volumes/Seagate/The Replacements - For Sale: Live At Maxwell's 1986 (2017) [FLAC (level 8)]/03 Dose Of Thunder (Live At Maxwell's, Hoboken, Nj, 2/4/86).flac
/Volumes/Seagate/The Replacements - For Sale: Live At Maxwell's 1986 (2017) [MPEG-4 AAC (CBR 256kbps)]/03 Dose Of Thunder (Live At Maxwell's, Hoboken, Nj, 2/4/86).m4a

Track gain : -11.15 dB
Peak : 1.000000
CRC32 hash (test run) : 93BEF20C
CRC32 hash : 93BEF20C
CRC32 hash (skip zero) : D523F882
AccurateRip v1 signature : 3BD45AD8
AccurateRip v2 signature : 674CC0FC
->Track not present in AccurateRip database.
Statistics
Read error : 0
Jitter error (maybe fixed) : 0
Retry sector count : 0
Damaged sector count : 0

Track 04
Filename : /Volumes/Seagate/The Replacements - For Sale: Live At Maxwell's 1986 (2017) [FLAC (level 8)]/04 Fox On The Run (Live At Maxwell's, Hoboken, Nj, 2/4/86).flac
/Volumes/Seagate/The Replacements - For Sale: Live At Maxwell's 1986 (2017) [MPEG-4 AAC (CBR 256kbps)]/04 Fox On The Run (Live At Maxwell's, Hoboken, Nj, 2/4/86).m4a

Track gain : -10.55 dB
Peak : 1.000000
CRC32 hash (test run) : FBFBC085
CRC32 hash : FBFBC085
CRC32 hash (skip zero) : 55D8B800
AccurateRip v1 signature : F60D7A5B
AccurateRip v2 signature : 01BC9C7B
->Track not present in AccurateRip database.
Statistics
Read error : 0
Jitter error (maybe fixed) : 0
Retry sector count : 0
Damaged sector count : 0

Track 05
Filename : /Volumes/Seagate/The Replacements - For Sale: Live At Maxwell's 1986 (2017) [FLAC (level 8)]/05 Hold My Life (Live At Maxwell's, Hoboken, Nj, 2/4/86).flac
/Volumes/Seagate/The Replacements - For Sale: Live At Maxwell's 1986 (2017) [MPEG-4 AAC (CBR 256kbps)]/05 Hold My Life (Live At Maxwell's, Hoboken, Nj, 2/4/86).m4a

Track gain : -10.58 dB
Peak : 1.000000
CRC32 hash (test run) : 01C5E4D0
CRC32 hash : 01C5E4D0
CRC32 hash (skip zero) : D2FC3C15
AccurateRip v1 signature : D63F2854
AccurateRip v2 signature : AC5B6256
->Track not present in AccurateRip database.
Statistics
Read error : 0
Jitter error (maybe fixed) : 0
Retry sector count : 0
Damaged sector count : 0

Track 06
Filename : /Volumes/Seagate/The Replacements - For Sale: Live At Maxwell's 1986 (2017) [FLAC (level 8)]/06 I Will Dare (Live At Maxwell's, Hoboken, Nj, 2/4/86).flac
/Volumes/Seagate/The Replacements - For Sale: Live At Maxwell's 1986 (2017) [MPEG-4 AAC (CBR 256kbps)]/06 I Will Dare (Live At Maxwell's, Hoboken, Nj, 2/4/86).m4a

Track gain : -10.51 dB
Peak : 1.000000
CRC32 hash (test run) : 8B9D2B5C
CRC32 hash : 8B9D2B5C
CRC32 hash (skip zero) : B60D73CC
AccurateRip v1 signature : D372EE8E
AccurateRip v2 signature : 43F56523
->Track not present in AccurateRip database.
Statistics
Read error : 0
Jitter error (maybe fixed) : 0
Retry sector count : 0
Damaged sector count : 0

Track 07
Filename : /Volumes/Seagate/The Replacements - For Sale: Live At Maxwell's 1986 (2017) [FLAC (level 8)]/07 Favorite Thing (Live At Maxwell's, Hoboken, Nj, 2/4/86).flac
/Volumes/Seagate/The Replacements - For Sale: Live At Maxwell's 1986 (2017) [MPEG-4 AAC (CBR 256kbps)]/07 Favorite Thing (Live At Maxwell's, Hoboken, Nj, 2/4/86).m4a

Track gain : -10.50 dB
Peak : 1.000000
CRC32 hash (test run) : 9C5A4F69
CRC32 hash : 9C5A4F69
CRC32 hash (skip zero) : 0901B2B1
AccurateRip v1 signature : 419C6C06
AccurateRip v2 signature : D972BC42
->Track not present in AccurateRip database.
Statistics
Read error : 0
Jitter error (maybe fixed) : 0
Retry sector count : 0
Damaged sector count : 0

Track 08
Filename : /Volumes/Seagate/The Replacements - For Sale: Live At Maxwell's 1986 (2017) [FLAC (level 8)]/08 Unsatisfied (Live At Maxwell's, Hoboken, Nj, 2/4/86).flac
/Volumes/Seagate/The Replacements - For Sale: Live At Maxwell's 1986 (2017) [MPEG-4 AAC (CBR 256kbps)]/08 Unsatisfied (Live At Maxwell's, Hoboken, Nj, 2/4/86).m4a

Track gain : -10.43 dB
Peak : 1.000000
CRC32 hash (test run) : F7F3A791
CRC32 hash : F7F3A791
CRC32 hash (skip zero) : FA97BAC6
AccurateRip v1 signature : 787E3A7F
AccurateRip v2 signature : 1EDF8988
->Track not present in AccurateRip database.
Statistics
Read error : 0
Jitter error (maybe fixed) : 0
Retry sector count : 0
Damaged sector count : 0

Track 09
Filename : /Volumes/Seagate/The Replacements - For Sale: Live At Maxwell's 1986 (2017) [FLAC (level 8)]/09 Can't Hardly Wait (Live At Maxwell's, Hoboken, Nj, 2/4/86).flac
/Volumes/Seagate/The Replacements - For Sale: Live At Maxwell's 1986 (2017) [MPEG-4 AAC (CBR 256kbps)]/09 Can't Hardly Wait (Live At Maxwell's, Hoboken, Nj, 2/4/86).m4a

Track gain : -10.93 dB
Peak : 1.000000
CRC32 hash (test run) : 8D6FE533
CRC32 hash : 8D6FE533
CRC32 hash (skip zero) : C82DC405
AccurateRip v1 signature : C861955B
AccurateRip v2 signature : B0E0615D
->Track not present in AccurateRip database.
Statistics
Read error : 0
Jitter error (maybe fixed) : 0
Retry sector count : 0
Damaged sector count : 0

Track 10
Filename : /Volumes/Seagate/The Replacements - For Sale: Live At Maxwell's 1986 (2017) [FLAC (level 8)]/10 Tommy Gets His Tonsils Out (Live At Maxwell's, Hoboken, Nj, 2/4/86).flac
/Volumes/Seagate/The Replacements - For Sale: Live At Maxwell's 1986 (2017) [MPEG-4 AAC (CBR 256kbps)]/10 Tommy Gets His Tonsils Out (Live At Maxwell's, Hoboken, Nj, 2/4/86).m4a

Track gain : -11.00 dB
Peak : 1.000000
CRC32 hash (test run) : DE897030
CRC32 hash : DE897030
CRC32 hash (skip zero) : 3F6F5A89
AccurateRip v1 signature : 1FF69CBA
AccurateRip v2 signature : F8C98722
->Track not present in AccurateRip database.
Statistics
Read error : 0
Jitter error (maybe fixed) : 0
Retry sector count : 0
Damaged sector count : 0

Track 11
Filename : /Volumes/Seagate/The Replacements - For Sale: Live At Maxwell's 1986 (2017) [FLAC (level 8)]/11 Takin A Ride (Live At Maxwell's, Hoboken, Nj, 2/4/86).flac
/Volumes/Seagate/The Replacements - For Sale: Live At Maxwell's 1986 (2017) [MPEG-4 AAC (CBR 256kbps)]/11 Takin A Ride (Live At Maxwell's, Hoboken, Nj, 2/4/86).m4a

Track gain : -11.75 dB
Peak : 1.000000
CRC32 hash (test run) : 10B0226C
CRC32 hash : 10B0226C
CRC32 hash (skip zero) : 14FAD245
AccurateRip v1 signature : 5FB73F75
AccurateRip v2 signature : 384F3704
->Track not present in AccurateRip database.
Statistics
Read error : 0
Jitter error (maybe fixed) : 0
Retry sector count : 0
Damaged sector count : 0

Track 12
Filename : /Volumes/Seagate/The Replacements - For Sale: Live At Maxwell's 1986 (2017) [FLAC (level 8)]/12 Bastards Of Young (Live At Maxwell's, Hoboken, Nj, 2/4/86).flac
/Volumes/Seagate/The Replacements - For Sale: Live At Maxwell's 1986 (2017) [MPEG-4 AAC (CBR 256kbps)]/12 Bastards Of Young (Live At Maxwell's, Hoboken, Nj, 2/4/86).m4a

Track gain : -10.54 dB
Peak : 1.000000
CRC32 hash (test run) : 271689F0
CRC32 hash : 271689F0
CRC32 hash (skip zero) : 886989B7
AccurateRip v1 signature : 551791C2
AccurateRip v2 signature : B8FB102C
->Track not present in AccurateRip database.
Statistics
Read error : 0
Jitter error (maybe fixed) : 0
Retry sector count : 0
Damaged sector count : 0

Track 13
Filename : /Volumes/Seagate/The Replacements - For Sale: Live At Maxwell's 1986 (2017) [FLAC (level 8)]/13 Kiss Me On The Bus (Live At Maxwell's, Hoboken, Nj, 2/4/86).flac
/Volumes/Seagate/The Replacements - For Sale: Live At Maxwell's 1986 (2017) [MPEG-4 AAC (CBR 256kbps)]/13 Kiss Me On The Bus (Live At Maxwell's, Hoboken, Nj, 2/4/86).m4a

Track gain : -10.46 dB
Peak : 1.000000
CRC32 hash (test run) : 3473EC7C
CRC32 hash : 3473EC7C
CRC32 hash (skip zero) : B1E6B25A
AccurateRip v1 signature : E58E3280
AccurateRip v2 signature : 433D0BD7
->Track not present in AccurateRip database.
Statistics
Read error : 0
Jitter error (maybe fixed) : 0
Retry sector count : 0
Damaged sector count : 0

Track 14
Filename : /Volumes/Seagate/The Replacements - For Sale: Live At Maxwell's 1986 (2017) [FLAC (level 8)]/14 Black Diamond (Live At Maxwell's, Hoboken, Nj, 2/4/86).flac
/Volumes/Seagate/The Replacements - For Sale: Live At Maxwell's 1986 (2017) [MPEG-4 AAC (CBR 256kbps)]/14 Black Diamond (Live At Maxwell's, Hoboken, Nj, 2/4/86).m4a

Track gain : -11.49 dB
Peak : 1.000000
CRC32 hash (test run) : 01DB3228
CRC32 hash : 01DB3228
CRC32 hash (skip zero) : 964915C2
AccurateRip v1 signature : 8CA891A6
AccurateRip v2 signature : D76ECDD7
->Track not present in AccurateRip database.
Statistics
Read error : 0
Jitter error (maybe fixed) : 0
Retry sector count : 0
Damaged sector count : 0

No errors occurred

End of status report

––-BEGIN XLD SIGNATURE––-
Jpy4m3m.4xyTP.AuEo.inp3QLjfKm4.esaHpafKSYa4FEJLwigCfkmwj9aKD1rpg9bHsPN17bccWqcuSGvKPjlbl4tmRQvhALlsGIXK
––-END XLD SIGNATURE––-

X Lossless Decoder version 20161007 (149.3)

XLD extraction logfile from 2017-10-07 22:32:02 -0400

The Replacements / For Sale: Live At Maxwell's 1986

Used drive : HL-DT-ST DVDRW GS31N (revision TA17)
Media type : Pressed CD

Ripper mode : XLD Secure Ripper
Disable audio cache : OK for the drive with a cache less than 1375KiB
Make use of C2 pointers : NO
Read offset correction : 667
Max retry count : 20
Gap status : Analyzed, Appended

TOC of the extracted CD
Track | Start | Length | Start sector | End sector
––––––––––––––––––––––––––––-
1 | 00:00:00 | 03:53:47 | 0 | 17521
2 | 03:53:47 | 02:06:00 | 17522 | 26971
3 | 05:59:47 | 02:23:40 | 26972 | 37736
4 | 08:23:12 | 03:25:01 | 37737 | 53112
5 | 11:48:13 | 01:35:33 | 53113 | 60270
6 | 13:23:46 | 03:06:07 | 60271 | 74227
7 | 16:29:53 | 02:26:20 | 74228 | 85197
8 | 18:55:73 | 03:58:09 | 85198 | 103056
9 | 22:54:07 | 02:39:41 | 103057 | 115022
10 | 25:33:48 | 02:55:50 | 115023 | 128197
11 | 28:29:23 | 02:47:60 | 128198 | 140782
12 | 31:17:08 | 02:49:21 | 140783 | 153478
13 | 34:06:29 | 02:21:56 | 153479 | 164109
14 | 36:28:10 | 03:02:41 | 164110 | 177800
15 | 39:30:51 | 01:57:40 | 177801 | 186615

AccurateRip Summary
Disc not found in AccurateRip DB.

All Tracks
Album gain : -11.25 dB
Peak : 1.000000
Statistics
Read error : 0
Jitter error (maybe fixed) : 0
Retry sector count : 0
Damaged sector count : 0

Track 01
Filename : /Volumes/Seagate/The Replacements - For Sale: Live At Maxwell's 1986 (2017) [FLAC (level 8)]/01 Johnny's Gonna Die (Live At Maxwell's, Hoboken, Nj, 2/4/86).flac
/Volumes/Seagate/The Replacements - For Sale: Live At Maxwell's 1986 (2017) [MPEG-4 AAC (CBR 256kbps)]/01 Johnny's Gonna Die (Live At Maxwell's, Hoboken, Nj, 2/4/86).m4a
Pre-gap length : 00:02:00

Track gain : -9.91 dB
Peak : 1.000000
CRC32 hash (test run) : E5F1CBBE
CRC32 hash : E5F1CBBE
CRC32 hash (skip zero) : ABAB868A
AccurateRip v1 signature : 271DFE6F
AccurateRip v2 signature : 4319C328
->Track not present in AccurateRip database.
Statistics
Read error : 0
Jitter error (maybe fixed) : 0
Retry sector count : 0
Damaged sector count : 0

Track 02
Filename : /Volumes/Seagate/The Replacements - For Sale: Live At Maxwell's 1986 (2017) [FLAC (level 8)]/02 Otto (Live At Maxwell's, Hoboken, Nj, 2/4/86).flac
/Volumes/Seagate/The Replacements - For Sale: Live At Maxwell's 1986 (2017) [MPEG-4 AAC (CBR 256kbps)]/02 Otto (Live At Maxwell's, Hoboken, Nj, 2/4/86).m4a

Track gain : -10.59 dB
Peak : 1.000000
CRC32 hash (test run) : DC0A1FD4
CRC32 hash : DC0A1FD4
CRC32 hash (skip zero) : 9B2C57F5
AccurateRip v1 signature : A7FCD51C
AccurateRip v2 signature : A5A1AA14
->Track not present in AccurateRip database.
Statistics
Read error : 0
Jitter error (maybe fixed) : 0
Retry sector count : 0
Damaged sector count : 0

Track 03
Filename : /Volumes/Seagate/The Replacements - For Sale: Live At Maxwell's 1986 (2017) [FLAC (level 8)]/03 I'm In Trouble (Live At Maxwell's, Hoboken, Nj, 2/4/86).flac
/Volumes/Seagate/The Replacements - For Sale: Live At Maxwell's 1986 (2017) [MPEG-4 AAC (CBR 256kbps)]/03 I'm In Trouble (Live At Maxwell's, Hoboken, Nj, 2/4/86).m4a

Track gain : -11.30 dB
Peak : 1.000000
CRC32 hash (test run) : F335D8D1
CRC32 hash : F335D8D1
CRC32 hash (skip zero) : 12A060DD
AccurateRip v1 signature : 00DFDEF1
AccurateRip v2 signature : 9A92AFD2
->Track not present in AccurateRip database.
Statistics
Read error : 0
Jitter error (maybe fixed) : 0
Retry sector count : 0
Damaged sector count : 0

Track 04
Filename : /Volumes/Seagate/The Replacements - For Sale: Live At Maxwell's 1986 (2017) [FLAC (level 8)]/04 Left Of The Dial (Live At Maxwell's, Hoboken, Nj, 2/4/86).flac
/Volumes/Seagate/The Replacements - For Sale: Live At Maxwell's 1986 (2017) [MPEG-4 AAC (CBR 256kbps)]/04 Left Of The Dial (Live At Maxwell's, Hoboken, Nj, 2/4/86).m4a

Track gain : -9.78 dB
Peak : 1.000000
CRC32 hash (test run) : FFBD2BE3
CRC32 hash : FFBD2BE3
CRC32 hash (skip zero) : 585A1702
AccurateRip v1 signature : CE87635F
AccurateRip v2 signature : DE6ED49B
->Track not present in AccurateRip database.
Statistics
Read error : 0
Jitter error (maybe fixed) : 0
Retry sector count : 0
Damaged sector count : 0

Track 05
Filename : /Volumes/Seagate/The Replacements - For Sale: Live At Maxwell's 1986 (2017) [FLAC (level 8)]/05 God Damn Job (Live At Maxwell's, Hoboken, Nj, 2/4/86).flac
/Volumes/Seagate/The Replacements - For Sale: Live At Maxwell's 1986 (2017) [MPEG-4 AAC (CBR 256kbps)]/05 God Damn Job (Live At Maxwell's, Hoboken, Nj, 2/4/86).m4a

Track gain : -11.25 dB
Peak : 1.000000
CRC32 hash (test run) : 0F62E365
CRC32 hash : 0F62E365
CRC32 hash (skip zero) : 45DDEEB8
AccurateRip v1 signature : 53C2C2A2
AccurateRip v2 signature : E3E9CD0C
->Track not present in AccurateRip database.
Statistics
Read error : 0
Jitter error (maybe fixed) : 0
Retry sector count : 0
Damaged sector count : 0

Track 06
Filename : /Volumes/Seagate/The Replacements - For Sale: Live At Maxwell's 1986 (2017) [FLAC (level 8)]/06 Answering Machine (Live At Maxwell's, Hoboken, Nj, 2/4/86).flac
/Volumes/Seagate/The Replacements - For Sale: Live At Maxwell's 1986 (2017) [MPEG-4 AAC (CBR 256kbps)]/06 Answering Machine (Live At Maxwell's, Hoboken, Nj, 2/4/86).m4a

Track gain : -10.72 dB
Peak : 1.000000
CRC32 hash (test run) : A8B3BB5C
CRC32 hash : A8B3BB5C
CRC32 hash (skip zero) : 627670D0
AccurateRip v1 signature : EA5015EA
AccurateRip v2 signature : 0AC8EF53
->Track not present in AccurateRip database.
Statistics
Read error : 0
Jitter error (maybe fixed) : 0
Retry sector count : 0
Damaged sector count : 0

Track 07
Filename : /Volumes/Seagate/The Replacements - For Sale: Live At Maxwell's 1986 (2017) [FLAC (level 8)]/07 Waitress In The Sky (Live At Maxwell's, Hoboken, Nj, 2/4/86).flac
/Volumes/Seagate/The Replacements - For Sale: Live At Maxwell's 1986 (2017) [MPEG-4 AAC (CBR 256kbps)]/07 Waitress In The Sky (Live At Maxwell's, Hoboken, Nj, 2/4/86).m4a

Track gain : -10.41 dB
Peak : 1.000000
CRC32 hash (test run) : A3D7D02A
CRC32 hash : A3D7D02A
CRC32 hash (skip zero) : 8A984E81
AccurateRip v1 signature : 0A31673B
AccurateRip v2 signature : DD533F12
->Track not present in AccurateRip database.
Statistics
Read error : 0
Jitter error (maybe fixed) : 0
Retry sector count : 0
Damaged sector count : 0

Track 08
Filename : /Volumes/Seagate/The Replacements - For Sale: Live At Maxwell's 1986 (2017) [FLAC (level 8)]/08 Take Me Down To The Hospital (Live At Maxwell's, Hoboken, Nj, 2/4/86).flac
/Volumes/Seagate/The Replacements - For Sale: Live At Maxwell's 1986 (2017) [MPEG-4 AAC (CBR 256kbps)]/08 Take Me Down To The Hospital (Live At Maxwell's, Hoboken, Nj, 2/4/86).m4a

Track gain : -12.37 dB
Peak : 1.000000
CRC32 hash (test run) : B3F2576B
CRC32 hash : B3F2576B
CRC32 hash (skip zero) : 9F656DFD
AccurateRip v1 signature : C43EA4C0
AccurateRip v2 signature : 84B2DAE9
->Track not present in AccurateRip database.
Statistics
Read error : 0
Jitter error (maybe fixed) : 0
Retry sector count : 0
Damaged sector count : 0

Track 09
Filename : /Volumes/Seagate/The Replacements - For Sale: Live At Maxwell's 1986 (2017) [FLAC (level 8)]/09 Gary's Got A Boner (Live At Maxwell's, Hoboken, Nj, 2/4/86).flac
/Volumes/Seagate/The Replacements - For Sale: Live At Maxwell's 1986 (2017) [MPEG-4 AAC (CBR 256kbps)]/09 Gary's Got A Boner (Live At Maxwell's, Hoboken, Nj, 2/4/86).m4a

Track gain : -11.63 dB
Peak : 1.000000
CRC32 hash (test run) : C25B3C8D
CRC32 hash : C25B3C8D
CRC32 hash (skip zero) : F522DCBA
AccurateRip v1 signature : 9865DCAE
AccurateRip v2 signature : C380AB13
->Track not present in AccurateRip database.
Statistics
Read error : 0
Jitter error (maybe fixed) : 0
Retry sector count : 0
Damaged sector count : 0

Track 10
Filename : /Volumes/Seagate/The Replacements - For Sale: Live At Maxwell's 1986 (2017) [FLAC (level 8)]/10 If Only You Were Lonely (Live At Maxwell's, Hoboken, Nj, 2/4/86).flac
/Volumes/Seagate/The Replacements - For Sale: Live At Maxwell's 1986 (2017) [MPEG-4 AAC (CBR 256kbps)]/10 If Only You Were Lonely (Live At Maxwell's, Hoboken, Nj, 2/4/86).m4a

Track gain : -7.88 dB
Peak : 1.000000
CRC32 hash (test run) : EA8F34CA
CRC32 hash : EA8F34CA
CRC32 hash (skip zero) : 1559214E
AccurateRip v1 signature : 01516972
AccurateRip v2 signature : 62443D43
->Track not present in AccurateRip database.
Statistics
Read error : 0
Jitter error (maybe fixed) : 0
Retry sector count : 0
Damaged sector count : 0

Track 11
Filename : /Volumes/Seagate/The Replacements - For Sale: Live At Maxwell's 1986 (2017) [FLAC (level 8)]/11 Baby Strange (Live At Maxwell's, Hoboken, Nj, 2/4/86).flac
/Volumes/Seagate/The Replacements - For Sale: Live At Maxwell's 1986 (2017) [MPEG-4 AAC (CBR 256kbps)]/11 Baby Strange (Live At Maxwell's, Hoboken, Nj, 2/4/86).m4a

Track gain : -11.32 dB
Peak : 1.000000
CRC32 hash (test run) : A1E7D84B
CRC32 hash : A1E7D84B
CRC32 hash (skip zero) : B6485CD2
AccurateRip v1 signature : A65916A9
AccurateRip v2 signature : 3A8473BE
->Track not present in AccurateRip database.
Statistics
Read error : 0
Jitter error (maybe fixed) : 0
Retry sector count : 0
Damaged sector count : 0

Track 12
Filename : /Volumes/Seagate/The Replacements - For Sale: Live At Maxwell's 1986 (2017) [FLAC (level 8)]/12 Hitchin' A Ride (Live At Maxwell's, Hoboken, Nj, 2/4/86).flac
/Volumes/Seagate/The Replacements - For Sale: Live At Maxwell's 1986 (2017) [MPEG-4 AAC (CBR 256kbps)]/12 Hitchin' A Ride (Live At Maxwell's, Hoboken, Nj, 2/4/86).m4a

Track gain : -10.44 dB
Peak : 1.000000
CRC32 hash (test run) : D1E306C0
CRC32 hash : D1E306C0
CRC32 hash (skip zero) : 1AC836B2
AccurateRip v1 signature : C2F05708
AccurateRip v2 signature : 30559C8D
->Track not present in AccurateRip database.
Statistics
Read error : 0
Jitter error (maybe fixed) : 0
Retry sector count : 0
Damaged sector count : 0

Track 13
Filename : /Volumes/Seagate/The Replacements - For Sale: Live At Maxwell's 1986 (2017) [FLAC (level 8)]/13 Nowhere Man (Live At Maxwell's, Hoboken, Nj, 2/4/86).flac
/Volumes/Seagate/The Replacements - For Sale: Live At Maxwell's 1986 (2017) [MPEG-4 AAC (CBR 256kbps)]/13 Nowhere Man (Live At Maxwell's, Hoboken, Nj, 2/4/86).m4a

Track gain : -9.97 dB
Peak : 1.000000
CRC32 hash (test run) : E7A02F34
CRC32 hash : E7A02F34
CRC32 hash (skip zero) : 01A2B930
AccurateRip v1 signature : 3898AF44
AccurateRip v2 signature : 584BCE00
->Track not present in AccurateRip database.
Statistics
Read error : 0
Jitter error (maybe fixed) : 0
Retry sector count : 0
Damaged sector count : 0

Track 14
Filename : /Volumes/Seagate/The Replacements - For Sale: Live At Maxwell's 1986 (2017) [FLAC (level 8)]/14 Go (Live At Maxwell's, Hoboken, Nj, 2/4/86).flac
/Volumes/Seagate/The Replacements - For Sale: Live At Maxwell's 1986 (2017) [MPEG-4 AAC (CBR 256kbps)]/14 Go (Live At Maxwell's, Hoboken, Nj, 2/4/86).m4a

Track gain : -10.94 dB
Peak : 1.000000
CRC32 hash (test run) : D096FF0D
CRC32 hash : D096FF0D
CRC32 hash (skip zero) : F85A86D9
AccurateRip v1 signature : D9E9A810
AccurateRip v2 signature : 8996E9B2
->Track not present in AccurateRip database.
Statistics
Read error : 0
Jitter error (maybe fixed) : 0
Retry sector count : 0
Damaged sector count : 0

Track 15
Filename : /Volumes/Seagate/The Replacements - For Sale: Live At Maxwell's 1986 (2017) [FLAC (level 8)]/15 Fuck School (Live At Maxwell's, Hoboken, Nj, 2/4/86).flac
/Volumes/Seagate/The Replacements - For Sale: Live At Maxwell's 1986 (2017) [MPEG-4 AAC (CBR 256kbps)]/15 Fuck School (Live At Maxwell's, Hoboken, Nj, 2/4/86).m4a

Track gain : -12.37 dB
Peak : 1.000000
CRC32 hash (test run) : 823B0695
CRC32 hash : 823B0695
CRC32 hash (skip zero) : 364A6F56
AccurateRip v1 signature : AD776BF0
AccurateRip v2 signature : C041EA8C
->Track not present in AccurateRip database.
Statistics
Read error : 0
Jitter error (maybe fixed) : 0
Retry sector count : 0
Damaged sector count : 0

No errors occurred

End of status report

––-BEGIN XLD SIGNATURE––-
0mtbRNXzyM3txxqts5QhA8FWIytMkEaZk08cSpumkrxk3dhV1poURBa6GZWvHXtnBPrrANg08wXDA9AsZv8CML1BJu5x286Ig8JD4cW
––-END XLD SIGNATURE––-

Thanks to the Original ripper Vuvuzela !