The Struts - Everybody Wants (2016) {Interscope Records U.S. reissue}

Posted By: ruskaval
The Struts - Everybody Wants (2016) {Interscope Records U.S. reissue}

The Struts - Everybody Wants (2016) {Interscope Records U.S. reissue}
EAC rip (secure mode) | FLAC (tracks)+CUE+LOG -> 353 Mb | MP3 @320 -> 103 Mb
Full Artwork @ 600 dpi (jpg) -> 135 Mb | 5% repair rar
© 2014, 2016 The Struts / Interscope Records / Universal
Rock / Alternative/Indie Rock / Neo-Glam / Hard Rock

Originally released in 2014, the debut long player from the Derbyshire-based rockers is an unapologetic blast of earworm-heavy, modern rock/punk-pop in a neo-glam wrapper, and as cocksure as it is calculated. Imagine a Slade-crazed, real life version of Russell Brand's Infant Sorrow (the band from Get Him to the Greek) fronted by a man who delivers each and every "R" with a brazen alveolar trill in a voice that's an amalgam of Freddie Mercury, Dee Snider, Noddy Holder, and David Johansen. Everybody Wants is not a subtle album. It's all pomp, circumstance, bluster, and nasty, sugary goodness; an 11-track set (13 on the 2016 U.S. reissue) of hook-laden, radio-ready party songs that embrace both sleaze and cheese.
The Struts - Everybody Wants (2016) {Interscope Records U.S. reissue}

Luke Spiller is a born frontman. He's got the Jagger swagger, but where Mick's antics invoked the American south, Spiller is a purely East Midlands creation, and like the Darkness' Justin Hawkins, his flamboyant English delivery will likely be the barometer listeners use to gauge the duration of their stay. The songs themselves are largely formulaic, but delivered with such gusto that it's easy to forgive the chicanery behind them. Bawdy, ballsy, silly, and sweet, standouts like "Could Have Been Me," "Roll Up," and "Kiss This," not to mention a couple of new gems on the 2016 reissue – "These Times Are Changing" and "Ol' Switcheroo" – will likely appeal to a wide range of pop enthusiasts. From the Buckcherry fan to the One Direction fan, there's a little bit of something for everyone on the aptly named Everybody Wants.
The Struts - Everybody Wants (2016) {Interscope Records U.S. reissue}


tracklist:
01 - Roll Up
02 - Could Have Been Me
03 - Kiss This
04 - Put Your Money On Me
05 - Mary Go Round
06 - Dirty Sexy Money
07 - The Ol' Switcheroo
08 - She Makes Me Feel Like
09 - Young Stars
10 - Black Swan
11 - These Times Are Changing
12 - Only Just A Call Away
13 - Where Did She Go

Exact Audio Copy V1.0 beta 3 from 29. August 2011

EAC extraction logfile from 25. March 2016, 0:25

The Struts / Everybody Wants

Used drive : PLEXTOR DVDR PX-L890SA Adapter: 5 ID: 1

Read mode : Secure
Utilize accurate stream : Yes
Defeat audio cache : Yes
Make use of C2 pointers : No

Read offset correction : 6
Overread into Lead-In and Lead-Out : No
Fill up missing offset samples with silence : Yes
Delete leading and trailing silent blocks : No
Null samples used in CRC calculations : Yes
Used interface : Native Win32 interface for Win NT & 2000
Gap handling : Appended to previous track

Used output format : User Defined Encoder
Selected bitrate : 128 kBit/s
Quality : High
Add ID3 tag : No
Command line compressor : C:\Program Files (x86)\Exact Audio Copy\FLAC\FLAC.EXE
Additional command line options : -8 -V -T "ARTIST=%artist%" -T "TITLE=%title%" -T "ALBUM=%albumtitle%" -T "DATE=%year%" -T "TRACKNUMBER=%tracknr%" -T "TOTALTRACKS=%numtracks%" -T "GENRE=%genre%" -T "ALBUMARTIST=%albumartist%" -T "ALBUM ARTIST=%albumartist%" -T "COMMENT=EAC Secure Mode, Test & Copy, AccurateRip, FLAC -8" %source%


TOC of the extracted CD

Track | Start | Length | Start sector | End sector
––––––––––––––––––––––––––––-
1 | 0:00.00 | 3:07.51 | 0 | 14075
2 | 3:07.51 | 3:07.49 | 14076 | 28149
3 | 6:15.25 | 2:57.63 | 28150 | 41487
4 | 9:13.13 | 3:33.64 | 41488 | 57526
5 | 12:47.02 | 3:19.16 | 57527 | 72467
6 | 16:06.18 | 3:57.33 | 72468 | 90275
7 | 20:03.51 | 3:42.29 | 90276 | 106954
8 | 23:46.05 | 2:38.44 | 106955 | 118848
9 | 26:24.49 | 3:23.57 | 118849 | 134130
10 | 29:48.31 | 3:24.68 | 134131 | 149498
11 | 33:13.24 | 3:26.64 | 149499 | 165012
12 | 36:40.13 | 3:04.30 | 165013 | 178842
13 | 39:44.43 | 3:54.17 | 178843 | 196409


Track 1

Filename E:\01 - Roll Up.wav

Pre-gap length 0:00:02.00

Peak level 99.8 %
Extraction speed 1.7 X
Track quality 100.0 %
Test CRC EC3B78C0
Copy CRC EC3B78C0
Track not present in AccurateRip database
Copy OK

Track 2

Filename E:\02 - Could Have Been Me.wav

Peak level 99.9 %
Extraction speed 1.9 X
Track quality 100.0 %
Test CRC C2BD0E8A
Copy CRC C2BD0E8A
Track not present in AccurateRip database
Copy OK

Track 3

Filename E:\03 - Kiss This.wav

Peak level 97.8 %
Extraction speed 2.0 X
Track quality 100.0 %
Test CRC AAA2B76D
Copy CRC AAA2B76D
Track not present in AccurateRip database
Copy OK

Track 4

Filename E:\04 - Put Your Money On Me.wav

Peak level 99.8 %
Extraction speed 2.2 X
Track quality 100.0 %
Test CRC 693C8ABB
Copy CRC 693C8ABB
Track not present in AccurateRip database
Copy OK

Track 5

Filename E:\05 - Mary Go Round.wav

Peak level 99.9 %
Extraction speed 1.6 X
Track quality 99.9 %
Test CRC A6CFFFEA
Copy CRC A6CFFFEA
Track not present in AccurateRip database
Copy OK

Track 6

Filename E:\06 - Dirty Sexy Money.wav

Peak level 99.9 %
Extraction speed 2.6 X
Track quality 100.0 %
Test CRC 90524F23
Copy CRC 90524F23
Track not present in AccurateRip database
Copy OK

Track 7

Filename E:\07 - The Ol' Switcheroo.wav

Peak level 99.9 %
Extraction speed 2.6 X
Track quality 100.0 %
Test CRC 8C02C9F7
Copy CRC 8C02C9F7
Track not present in AccurateRip database
Copy OK

Track 8

Filename E:\08 - She Makes Me Feel Like.wav

Peak level 99.9 %
Extraction speed 2.6 X
Track quality 100.0 %
Test CRC 24013252
Copy CRC 24013252
Track not present in AccurateRip database
Copy OK

Track 9

Filename E:\09 - Young Stars.wav

Peak level 99.9 %
Extraction speed 2.8 X
Track quality 100.0 %
Test CRC 03757ABB
Copy CRC 03757ABB
Track not present in AccurateRip database
Copy OK

Track 10

Filename E:\10 - Black Swan.wav

Peak level 99.9 %
Extraction speed 3.0 X
Track quality 100.0 %
Test CRC A96544F0
Copy CRC A96544F0
Track not present in AccurateRip database
Copy OK

Track 11

Filename E:\11 - These Times Are Changing.wav

Peak level 99.9 %
Extraction speed 3.0 X
Track quality 100.0 %
Test CRC C37551E8
Copy CRC C37551E8
Track not present in AccurateRip database
Copy OK

Track 12

Filename E:\12 - Only Just A Call Away.wav

Peak level 99.9 %
Extraction speed 3.1 X
Track quality 100.0 %
Test CRC 8FA7A34A
Copy CRC 8FA7A34A
Track not present in AccurateRip database
Copy OK

Track 13

Filename E:\13 - Where Did She Go.wav

Peak level 99.8 %
Extraction speed 3.3 X
Track quality 100.0 %
Test CRC F1DA59F7
Copy CRC F1DA59F7
Track not present in AccurateRip database
Copy OK


None of the tracks are present in the AccurateRip database

No errors occurred

End of status report

==== Log checksum 36A0F3D05F9D27B890B436B575F3381073427F9EAB2F69DFE6E80BE5FF27C1CD ====


The Struts - Everybody Wants (2016) {Interscope Records U.S. reissue}

The Struts - Everybody Wants (2016) {Interscope Records U.S. reissue}


All thanks goes to the original releaser!