Subcategories

The Trashmen - Bird Call! - The Twin City Stomp Of The Trashmen [4CD Box Set] (1998)

Posted By: thingska
The Trashmen - Bird Call! - The Twin City Stomp Of The Trashmen [4CD Box Set] (1998)

The Trashmen - Bird Call! - The Twin City Stomp Of The Trashmen [4CD Box Set] (1998)
4CD | EAC-Rip | FLAC-image +cue +log +COVERS | March 17, 1998 | 709 Mb
Genre: Rock, Pop, Oldies | RAR 3% Rec. | Label: Sundazed | Hotfile, Fileserve

Over half of this collector's four-CD box set is previously unissued studio, demo, rehearsal, or live recordings. Nothing is duplicated in this material originally recorded from 1961-1967. The Trashmen are an amazing summary of contradictions when looked at from afar. In pictures, even live ones, they are four clean-cut chaps in suits. Their nationwide 1963 hit "Bird," the 1965 version of which is included here, is a deliriously silly, primitively noisy, and utterly infectious gem. It's like playing a Black Sabbath album and showing pictures of the Bee Gees and trying to get someone to believe they are one and the same. The Trashmen's arrangements are two guitars of clarion twang and garage crunch with harmony with lead vocals often moving from one member to another. While some of their covers are saccharine (for example, Buddy Holly's "Tell Me How"), they offer such glorious trash rock as the cartoonish analysis of Bo Diddley's signature sound in "Bird Diddley Beat." The Trashmen tap straight into a democratic and transforming American spirit that celebrates the Universal Goof, a sort of holy fool spreading pure joy through music. There you have the entertainment recipe of the Trashmen: surf, doo-wop, blues, and rock & roll motifs swirled together for either devastating hilarity or smooth, slow dancing ballads.

~ Tom Schulte
The Trashmen - Bird Call! - The Twin City Stomp Of The Trashmen [4CD Box Set] (1998)

Tracklist:

CD 1
01. Cyclon (2’36”)
02. Sally Jo (2’32”)
03. Johnny B. Goode (2’45”)
04. Malaguena (# 1) (2’56”)
05. Susie-Q (2’10”)
06. Sweet Little Sixteen (3’01”)
07. A Million Reasons (3’15”)
08. Malaguena (# 2) (2’31”)
09. Guitar Boogie (1’38”)
10. Surfin' Bird (2’24”)
11. King of the Surf (2’31”)
12. This Should Go on Forever (1’59”)
13. Yellow Jacket (2’31”)
14. Rumble (2’23”)
15. Let's Go Trippin' (3’35”)
16. My Woodie (1’56”)
17. Bird Bath (2’38”)
18. Tube City (2’23”)
19. Farmer Louie (3’52”)
20. Goofy Foot (4’02”)

The Trashmen - Bird Call! - The Twin City Stomp Of The Trashmen [4CD Box Set] (1998)

Tracklist:

CD 2
01. Church Key (2’45”)
02. Raw-Hide (2’11”)
03. Bird Dance Beat (2’11”)
04. A-Bone (2’09”)
05. Stick Shift (2’53”)
06. Ghost Riders in the Sky (2’47”)
07. Think It Over (2’06”)
08. Be True to Your School (2’12”)
09. Too Young (2’07”)
10. Greensleeves (1’49”)
11. Wild Cat Loose in Town (2’00”)
12. Green Onions (2’25”)
13. Walk, Don't Run (1’59”)
14. We Belong Together (2’09”)
15. True True Lovin' (2’02”)
16. Roll over Beethoven (2’23”)
17. Congratulations (To Me) (3’20”)
18. Hava Nagila (2’06”)
19. Drive-In (1’51”)
20. Walking the Dog (5’52”)

The Trashmen - Bird Call! - The Twin City Stomp Of The Trashmen [4CD Box Set] (1998)

Tracklist:

CD 3
01. Break Up (3’23”)
02. Bad News (2’18”)
03. On the Move (2’36”)
04. New Generation (2’02”)
05. Whoa Dad! (2’48”)
06. Peppermint Man (2’43”)
07. Baja (2’12”)
08. Long Tall Texan (2’39”)
09. Blue Feeling (4’15”)
10. Great Balls of Fire (3’00”)
11. Lost Angel (2’52”)
12. Bye Bye Johnny (4’25”)
13. Slow Down (3’16”)
14. Walkin' My Baby (2’29”)
15. Keep Your Hands off My Baby (2’32”)
16. Hi-Heel Sneakers (4’42”)
17. Summertime (4’19”)
18. Long Tall Sally (4’29”)
19. Real Live Doll (2’37”)
20. Dancin' With Santa (2’31”)

The Trashmen - Bird Call! - The Twin City Stomp Of The Trashmen [4CD Box Set] (1998)

Tracklist:

CD 4
01. Bird '65 (2’48”)
02. Ubangi Stomp (2’28”)
03. That I Love You (2’36”)
04. Love's Made a Fool of You (2’10”)
05. Same Lines (2’11”)
06. Hanging on Me (2’32”)
07. Pretty Country Girl (3’05”)
08. Mind Your Own Business (2’17”)
09. Talk About Love (2’03”)
10. Gloria (3’42”)
11. Tell Me How (2’23”)
12. Bird Diddley Beat (2’09”)
13. It Takes Two (2’22”)
14. Heartbeat (1’46”)
15. Well…All Right (2’15”)
16. Talk About Love (#2)(2’07”)
17. (I'm Not Your) Steppin' Stone (2’39”)
18. Breathless (2’58”)
19. What'd I Say (4’34”)
20. Money (That's What I Want) (6’03”)

Отчёт EAC об извлечении, выполненном 23. августа 2009, 15:23

The Trashmen / Bird Call! (disc 1)

Дисковод: PIONEER DVD-RW DVR-216R Adapter: 1 ID: 1

Режим чтения : Достоверность
Использование точного потока : Да
Отключение кэша аудио : Да
Использование указателей C2 : Нет

Коррекция смещения при чтении : 96
Способность читать области Lead-in и Lead-out : Нет
Заполнение пропущенных сэмплов тишиной : Да
Удаление блоков с тишиной в начале и конце : Нет
При вычислениях CRC использовались нулевые сэмплы : Да
Интерфейс : Установленный внешний ASPI-интерфейс

Выходной формат : Пользовательский кодировщик
Выбранный битрейт : 1024 kBit/s
Качество : Высокий
Добавление ID3-тэга : Нет
Утилита сжатия : C:\Program Files\Exact Audio Copy\FLAC\FLAC.EXE
Дополнительные параметры : -6 -V -T "ARTIST=%a" -T "TITLE=%t" -T "ALBUM=%g" -T "DATE=%y" -T "TRACKNUMBER=%n" -T "GENRE=%m" -T "COMMENT=%e" %s -o %d

TOC извлечённого CD

Трек | Старт | Длительность | Начальный сектор | Конечный сектор
––––––––––––––––––––––––––––––––––-
1 | 0:00.00 | 2:36.25 | 0 | 11724
2 | 2:36.25 | 2:32.00 | 11725 | 23124
3 | 5:08.25 | 2:45.45 | 23125 | 35544
4 | 7:53.70 | 2:56.69 | 35545 | 48813
5 | 10:50.64 | 2:10.68 | 48814 | 58631
6 | 13:01.57 | 3:01.65 | 58632 | 72271
7 | 16:03.47 | 3:15.68 | 72272 | 86964
8 | 19:19.40 | 2:31.67 | 86965 | 98356
9 | 21:51.32 | 1:38.00 | 98357 | 105706
10 | 23:29.32 | 2:24.53 | 105707 | 116559
11 | 25:54.10 | 2:31.32 | 116560 | 127916
12 | 28:25.42 | 1:59.30 | 127917 | 136871
13 | 30:24.72 | 2:31.43 | 136872 | 148239
14 | 32:56.40 | 2:23.15 | 148240 | 158979
15 | 35:19.55 | 3:35.27 | 158980 | 175131
16 | 38:55.07 | 1:56.18 | 175132 | 183849
17 | 40:51.25 | 2:38.17 | 183850 | 195716
18 | 43:29.42 | 3:23.55 | 195717 | 210996
19 | 46:53.22 | 3:52.50 | 210997 | 228446
20 | 50:45.72 | 4:03.10 | 228447 | 246681

Характеристики диапазона извлечения и сообщения об ошибках

Выбранный диапазон

Имя файла I:\BitComet\The Trashmen-Bird Call!\CD 1\The Trashmen - Bird Call! (disc 1).wav

Пиковый уровень 98.8 %
Качество диапазона 99.9 %
CRC копии 74ADA086
Копирование… OK

Ошибок не произошло

AccurateRip: сводка

Трек 1 точность не определена (достоверность 1) [8323AFC9], AccurateRip вернул [98200691]
Трек 2 точность не определена (достоверность 1) [4F60B9DB], AccurateRip вернул [2A2E8343]
Трек 3 точность не определена (достоверность 1) [A4D49070], AccurateRip вернул [CC4565A4]
Трек 4 точность не определена (достоверность 1) [51AA3E56], AccurateRip вернул [8F132A82]
Трек 5 точность не определена (достоверность 1) [E65A993D], AccurateRip вернул [2A5F0A1F]
Трек 6 точность не определена (достоверность 1) [173E77A9], AccurateRip вернул [9CF5D49D]
Трек 7 точность не определена (достоверность 1) [02442AEB], AccurateRip вернул [D7AD019F]
Трек 8 точность не определена (достоверность 1) [F48DC3C5], AccurateRip вернул [CB2478AB]
Трек 9 точность не определена (достоверность 1) [1F77AB83], AccurateRip вернул [5097C63B]
Трек 10 точность не определена (достоверность 1) [FAAD6424], AccurateRip вернул [1158C176]
Трек 11 точность не определена (достоверность 1) [4CCC8A99], AccurateRip вернул [20C26F3B]
Трек 12 точность не определена (достоверность 1) [B40CB982], AccurateRip вернул [26EED9AE]
Трек 13 точность не определена (достоверность 1) [D413D2F8], AccurateRip вернул [D860A20C]
Трек 14 точность не определена (достоверность 1) [749DD249], AccurateRip вернул [893527B9]
Трек 15 точность не определена (достоверность 1) [0ADF3E1E], AccurateRip вернул [CE0AA836]
Трек 16 точность не определена (достоверность 1) [EBD00EEA], AccurateRip вернул [B3BCE340]
Трек 17 точность не определена (достоверность 1) [68DE3E39], AccurateRip вернул [4BBB7259]
Трек 18 точность не определена (достоверность 1) [E0DAFB13], AccurateRip вернул [79BC628F]
Трек 19 точность не определена (достоверность 1) [CD8CDAA8], AccurateRip вернул [E4D6EB3A]
Трек 20 точность не определена (достоверность 1) [7C6F570E], AccurateRip вернул [76E6D614]

Ни один трек не прошёл проверки на точность
В вашей базе может быть иной вариант штамповки диска

Конец отчёта

Отчёт EAC об извлечении, выполненном 23. августа 2009, 14:00

The Trashmen / Bird Call! (disc 2)

Дисковод: PIONEER DVD-RW DVR-216R Adapter: 1 ID: 1

Режим чтения : Достоверность
Использование точного потока : Да
Отключение кэша аудио : Да
Использование указателей C2 : Нет

Коррекция смещения при чтении : 96
Способность читать области Lead-in и Lead-out : Нет
Заполнение пропущенных сэмплов тишиной : Да
Удаление блоков с тишиной в начале и конце : Нет
При вычислениях CRC использовались нулевые сэмплы : Да
Интерфейс : Установленный внешний ASPI-интерфейс

Выходной формат : Пользовательский кодировщик
Выбранный битрейт : 1024 kBit/s
Качество : Высокий
Добавление ID3-тэга : Нет
Утилита сжатия : C:\Program Files\Exact Audio Copy\FLAC\FLAC.EXE
Дополнительные параметры : -6 -V -T "ARTIST=%a" -T "TITLE=%t" -T "ALBUM=%g" -T "DATE=%y" -T "TRACKNUMBER=%n" -T "GENRE=%m" -T "COMMENT=%e" %s -o %d

TOC извлечённого CD

Трек | Старт | Длительность | Начальный сектор | Конечный сектор
––––––––––––––––––––––––––––––––––-
1 | 0:00.00 | 2:45.20 | 0 | 12394
2 | 2:45.20 | 2:11.49 | 12395 | 22268
3 | 4:56.69 | 2:11.46 | 22269 | 32139
4 | 7:08.40 | 2:09.30 | 32140 | 41844
5 | 9:17.70 | 2:53.60 | 41845 | 54879
6 | 12:11.55 | 2:47.32 | 54880 | 67436
7 | 14:59.12 | 2:06.45 | 67437 | 76931
8 | 17:05.57 | 2:12.50 | 76932 | 86881
9 | 19:18.32 | 2:07.33 | 86882 | 96439
10 | 21:25.65 | 1:49.30 | 96440 | 104644
11 | 23:15.20 | 2:00.34 | 104645 | 113678
12 | 25:15.54 | 2:25.23 | 113679 | 124576
13 | 27:41.02 | 1:59.70 | 124577 | 133571
14 | 29:40.72 | 2:09.10 | 133572 | 143256
15 | 31:50.07 | 2:02.13 | 143257 | 152419
16 | 33:52.20 | 2:23.72 | 152420 | 163216
17 | 36:16.17 | 3:20.28 | 163217 | 178244
18 | 39:36.45 | 2:06.60 | 178245 | 187754
19 | 41:43.30 | 1:51.60 | 187755 | 196139
20 | 43:35.15 | 5:52.12 | 196140 | 222551

Характеристики диапазона извлечения и сообщения об ошибках

Выбранный диапазон

Имя файла I:\BitComet\The Trashmen-Bird Call!\CD 2\The Trashmen - Bird Call! (disc 2).wav

Пиковый уровень 98.8 %
Качество диапазона 100.0 %
CRC копии 1883C962
Копирование… OK

Ошибок не произошло

AccurateRip: сводка

Трек 1 точность не определена (достоверность 1) [58DA4F2C], AccurateRip вернул [1038503E]
Трек 2 точность не определена (достоверность 1) [FD78F291], AccurateRip вернул [D6C5D3AB]
Трек 3 точность не определена (достоверность 1) [8016B6CF], AccurateRip вернул [C15FE831]
Трек 4 точность не определена (достоверность 1) [903F47DD], AccurateRip вернул [59B6790F]
Трек 5 точность не определена (достоверность 1) [09701C05], AccurateRip вернул [26A24905]
Трек 6 точность не определена (достоверность 1) [9150F81C], AccurateRip вернул [76E32DD0]
Трек 7 точность не определена (достоверность 1) [2B3D0742], AccurateRip вернул [CC6E5F60]
Трек 8 точность не определена (достоверность 1) [B4700EA5], AccurateRip вернул [3EC5EBBF]
Трек 9 точность не определена (достоверность 1) [D3D4D355], AccurateRip вернул [71F9FB13]
Трек 10 точность не определена (достоверность 1) [A63C4867], AccurateRip вернул [BC363FE1]
Трек 11 точность не определена (достоверность 1) [E3F5BD83], AccurateRip вернул [C37FBD4D]
Трек 12 точность не определена (достоверность 1) [D753DF3C], AccurateRip вернул [A15E6ACA]
Трек 13 точность не определена (достоверность 1) [8B76935C], AccurateRip вернул [67F12F18]
Трек 14 точность не определена (достоверность 1) [40E8AFB4], AccurateRip вернул [D86AFD6E]
Трек 15 точность не определена (достоверность 1) [0AEC7255], AccurateRip вернул [C385DAB5]
Трек 16 точность не определена (достоверность 1) [0D5516CB], AccurateRip вернул [174F0FA7]
Трек 17 точность не определена (достоверность 1) [D6EBC6E3], AccurateRip вернул [D916565F]
Трек 18 точность не определена (достоверность 1) [3B7DC215], AccurateRip вернул [A5E24E79]
Трек 19 точность не определена (достоверность 1) [06F96E65], AccurateRip вернул [7C91048D]
Трек 20 точность не определена (достоверность 1) [2D71528C], AccurateRip вернул [786CE5B6]

Ни один трек не прошёл проверки на точность
В вашей базе может быть иной вариант штамповки диска

Конец отчёта

Отчёт EAC об извлечении, выполненном 23. августа 2009, 14:52

The Trashmen / Bird Call! (disc 3)

Дисковод: PIONEER DVD-RW DVR-216R Adapter: 1 ID: 1

Режим чтения : Достоверность
Использование точного потока : Да
Отключение кэша аудио : Да
Использование указателей C2 : Нет

Коррекция смещения при чтении : 96
Способность читать области Lead-in и Lead-out : Нет
Заполнение пропущенных сэмплов тишиной : Да
Удаление блоков с тишиной в начале и конце : Нет
При вычислениях CRC использовались нулевые сэмплы : Да
Интерфейс : Установленный внешний ASPI-интерфейс

Выходной формат : Пользовательский кодировщик
Выбранный битрейт : 1024 kBit/s
Качество : Высокий
Добавление ID3-тэга : Нет
Утилита сжатия : C:\Program Files\Exact Audio Copy\FLAC\FLAC.EXE
Дополнительные параметры : -6 -V -T "ARTIST=%a" -T "TITLE=%t" -T "ALBUM=%g" -T "DATE=%y" -T "TRACKNUMBER=%n" -T "GENRE=%m" -T "COMMENT=%e" %s -o %d

TOC извлечённого CD

Трек | Старт | Длительность | Начальный сектор | Конечный сектор
––––––––––––––––––––––––––––––––––-
1 | 0:00.00 | 3:23.32 | 0 | 15256
2 | 3:23.32 | 2:18.60 | 15257 | 25666
3 | 5:42.17 | 2:36.10 | 25667 | 37376
4 | 8:18.27 | 2:02.63 | 37377 | 46589
5 | 10:21.15 | 2:48.42 | 46590 | 59231
6 | 13:09.57 | 2:43.25 | 59232 | 71481
7 | 15:53.07 | 2:12.63 | 71482 | 81444
8 | 18:05.70 | 2:39.05 | 81445 | 93374
9 | 20:45.00 | 4:15.30 | 93375 | 112529
10 | 25:00.30 | 3:00.17 | 112530 | 126046
11 | 28:00.47 | 2:52.73 | 126047 | 139019
12 | 30:53.45 | 4:25.57 | 139020 | 158951
13 | 35:19.27 | 3:16.10 | 158952 | 173661
14 | 38:35.37 | 2:29.05 | 173662 | 184841
15 | 41:04.42 | 2:32.73 | 184842 | 196314
16 | 43:37.40 | 4:42.05 | 196315 | 217469
17 | 48:19.45 | 4:19.10 | 217470 | 236904
18 | 52:38.55 | 4:29.17 | 236905 | 257096
19 | 57:07.72 | 2:37.35 | 257097 | 268906
20 | 59:45.32 | 2:31.20 | 268907 | 280251

Характеристики диапазона извлечения и сообщения об ошибках

Выбранный диапазон

Имя файла I:\BitComet\The Trashmen-Bird Call!\CD 3\The Trashmen - Bird Call! (disc 3).wav

Пиковый уровень 98.8 %
Качество диапазона 100.0 %
CRC копии CA48536E
Копирование… OK

Ошибок не произошло

AccurateRip: сводка

Трек 1 точность не определена (достоверность 1) [1054C9B1], AccurateRip вернул [00A34B15]
Трек 2 точность не определена (достоверность 1) [6E9CBAE8], AccurateRip вернул [844A59BE]
Трек 3 точность не определена (достоверность 1) [D277B318], AccurateRip вернул [3443FFCC]
Трек 4 точность не определена (достоверность 1) [8E991A9C], AccurateRip вернул [6DAE7F82]
Трек 5 точность не определена (достоверность 1) [2130EE05], AccurateRip вернул [0A7E2301]
Трек 6 точность не определена (достоверность 1) [C3F11BEA], AccurateRip вернул [40030430]
Трек 7 точность не определена (достоверность 1) [D47EF529], AccurateRip вернул [0CF4DF33]
Трек 8 точность не определена (достоверность 1) [996B7DDC], AccurateRip вернул [EE156336]
Трек 9 точность не определена (достоверность 1) [B4DE0E63], AccurateRip вернул [9F6D14DB]
Трек 10 точность не определена (достоверность 1) [EF94B1C9], AccurateRip вернул [8DA85F1B]
Трек 11 точность не определена (достоверность 1) [C66FDF83], AccurateRip вернул [EF00C08B]
Трек 12 точность не определена (достоверность 1) [DB05789C], AccurateRip вернул [2B654F48]
Трек 13 точность не определена (достоверность 1) [1A36D4F2], AccurateRip вернул [83629212]
Трек 14 точность не определена (достоверность 1) [CB79EAAA], AccurateRip вернул [4285E5A6]
Трек 15 точность не определена (достоверность 1) [69CFD6F0], AccurateRip вернул [83657C1A]
Трек 16 точность не определена (достоверность 1) [E4C9F87C], AccurateRip вернул [CE44425A]
Трек 17 точность не определена (достоверность 1) [78B35182], AccurateRip вернул [4370CB22]
Трек 18 точность не определена (достоверность 1) [BE42577B], AccurateRip вернул [322DED29]
Трек 19 точность не определена (достоверность 1) [7CC1B856], AccurateRip вернул [71809644]
Трек 20 точность не определена (достоверность 1) [16ADF06A], AccurateRip вернул [DF2BD80A]

Ни один трек не прошёл проверки на точность
В вашей базе может быть иной вариант штамповки диска

Конец отчёта

Отчёт EAC об извлечении, выполненном 23. августа 2009, 15:12

The Trashmen / Bird Call! (disc 4)

Дисковод: PIONEER DVD-RW DVR-216R Adapter: 1 ID: 1

Режим чтения : Достоверность
Использование точного потока : Да
Отключение кэша аудио : Да
Использование указателей C2 : Нет

Коррекция смещения при чтении : 96
Способность читать области Lead-in и Lead-out : Нет
Заполнение пропущенных сэмплов тишиной : Да
Удаление блоков с тишиной в начале и конце : Нет
При вычислениях CRC использовались нулевые сэмплы : Да
Интерфейс : Установленный внешний ASPI-интерфейс

Выходной формат : Пользовательский кодировщик
Выбранный битрейт : 1024 kBit/s
Качество : Высокий
Добавление ID3-тэга : Нет
Утилита сжатия : C:\Program Files\Exact Audio Copy\FLAC\FLAC.EXE
Дополнительные параметры : -6 -V -T "ARTIST=%a" -T "TITLE=%t" -T "ALBUM=%g" -T "DATE=%y" -T "TRACKNUMBER=%n" -T "GENRE=%m" -T "COMMENT=%e" %s -o %d

TOC извлечённого CD

Трек | Старт | Длительность | Начальный сектор | Конечный сектор
––––––––––––––––––––––––––––––––––-
1 | 0:00.00 | 2:48.70 | 0 | 12669
2 | 2:48.70 | 2:28.55 | 12670 | 23824
3 | 5:17.50 | 2:36.50 | 23825 | 35574
4 | 7:54.25 | 2:10.55 | 35575 | 45379
5 | 10:05.05 | 2:11.72 | 45380 | 55276
6 | 12:17.02 | 2:32.25 | 55277 | 66701
7 | 14:49.27 | 3:05.65 | 66702 | 80641
8 | 17:55.17 | 2:17.55 | 80642 | 90971
9 | 20:12.72 | 2:03.23 | 90972 | 100219
10 | 22:16.20 | 3:42.34 | 100220 | 116903
11 | 25:58.54 | 2:23.56 | 116904 | 127684
12 | 28:22.35 | 2:09.02 | 127685 | 137361
13 | 30:31.37 | 2:22.03 | 137362 | 148014
14 | 32:53.40 | 1:46.47 | 148015 | 156011
15 | 34:40.12 | 2:15.53 | 156012 | 166189
16 | 36:55.65 | 2:07.07 | 166190 | 175721
17 | 39:02.72 | 2:39.37 | 175722 | 187683
18 | 41:42.34 | 2:58.16 | 187684 | 201049
19 | 44:40.50 | 4:34.32 | 201050 | 221631
20 | 49:15.07 | 6:03.73 | 221632 | 248929

Характеристики диапазона извлечения и сообщения об ошибках

Выбранный диапазон

Имя файла I:\BitComet\The Trashmen-Bird Call!\CD 4\The Trashmen - Bird Call! (disc 4).wav

Пиковый уровень 98.8 %
Качество диапазона 100.0 %
CRC копии CE1033A9
Копирование… OK

Ошибок не произошло

AccurateRip: сводка

Трек 1 точность не определена (достоверность 1) [43CEF0FD], AccurateRip вернул [7A5CC403]
Трек 2 точность не определена (достоверность 1) [DB4F4664], AccurateRip вернул [3E6CF6F4]
Трек 3 точность не определена (достоверность 1) [26383412], AccurateRip вернул [68896A96]
Трек 4 точность не определена (достоверность 1) [8735AA4A], AccurateRip вернул [6868659E]
Трек 5 точность не определена (достоверность 1) [CD856F95], AccurateRip вернул [8A52444B]
Трек 6 точность не определена (достоверность 1) [42B5D246], AccurateRip вернул [CC9071AC]
Трек 7 точность не определена (достоверность 1) [C51E5BF6], AccurateRip вернул [6A0AC71C]
Трек 8 точность не определена (достоверность 1) [1EDE2C5A], AccurateRip вернул [F18AD46A]
Трек 9 точность не определена (достоверность 1) [ABA166B4], AccurateRip вернул [6527DBD8]
Трек 10 точность не определена (достоверность 1) [A37D7F21], AccurateRip вернул [E9C80419]
Трек 11 точность не определена (достоверность 1) [C1CE9FD8], AccurateRip вернул [CC45494A]
Трек 12 точность не определена (достоверность 1) [A70B63DB], AccurateRip вернул [9D168F13]
Трек 13 точность не определена (достоверность 1) [47B11D90], AccurateRip вернул [CCA8F0B0]
Трек 14 точность не определена (достоверность 1) [1E568F37], AccurateRip вернул [D9391BC1]
Трек 15 точность не определена (достоверность 1) [A93DE987], AccurateRip вернул [BC1B459F]
Трек 16 точность не определена (достоверность 1) [0F73AC4A], AccurateRip вернул [D9D1C6EE]
Трек 17 точность не определена (достоверность 1) [4F712D04], AccurateRip вернул [418A4F3E]
Трек 18 точность не определена (достоверность 1) [5FB87376], AccurateRip вернул [7A3A6742]
Трек 19 точность не определена (достоверность 1) [CC224433], AccurateRip вернул [0A3F8C45]
Трек 20 точность не определена (достоверность 1) [F21DD866], AccurateRip вернул [EE953F78]

Ни один трек не прошёл проверки на точность
В вашей базе может быть иной вариант штамповки диска

Конец отчёта

Download The Trashmen - Bird Call! - The Twin City Stomp Of The Trashmen [4CD Box Set] (1998):


Thanks to the original Publicist "izia1956"

If you'll find that my links are dead please let me know through the Private Messages.

Please DO NOT MIRROR