Tags
Language
Tags

The Waterboys - Good Luck, Seeker (Deluxe Edition) (2020)

Posted By: delpotro
The Waterboys - Good Luck, Seeker (Deluxe Edition) (2020)

The Waterboys - Good Luck, Seeker (Deluxe Edition) (2020)
EAC Rip | FLAC (tracks+log+.cue) - 573 Mb | MP3 CBR 320 kbps - 195 Mb | 01:23:30
Indie Rock, Psychedelic, Electronic, Spoken Word | Label: Cooking Vinyl

The Waterboys, one of the most creative, loved and literate bands of the last four decades, return this summer with their 14th studio album Good Luck, Seeker. Comprising dramatic spoken-word over wild, relentless genre-busting music (is it psychedelic soul? Is it trance? punk?), My Wanderings In The Weary Land might just be the greatest rock’n’roll record ever made – and one that is darkly appropriate to our weird, wired times.
Tracklist:
Disc 1 (48:47)
1. The Soul Singer (04:43)
2. (You've Got To) Kiss A Frog Or Two (03:49)
3. Low Down In The Broom (03:05)
4. Dennis Hopper (03:10)
5. Freak Street (02:36)
6. Sticky Fingers (00:46)
7. Why Should I Love You? (05:44)
8. The Golden Work (03:02)
9. My Wanderings In The Weary Land (06:48)
10. Postcard From The Celtic Dreamtime (04:11)
11. Good Luck, Seeker (02:46)
12. Beauty In Repetition (01:48)
13. Everchanging (01:51)
14. The Land Of Sunset (04:28)

Disc 2 (34:40)
1. The Soul Singer (Instrumental) (04:40)
2. (You've Got To) Kiss A Frog Or Two (Instrumental) (02:47)
3. Low Down In The Broom (Guitar And Vocal Only) (02:58)
4. Dennis Hopper (Demo) (01:53)
5. Why Should I Love You? (Instrumental) (05:44)
6. My Wanderings In The Weary Land (Vocal Only) (02:37)
7. Postcard From The Celtic Dreamtime (Instrumental) (04:11)
8. Beauty In Repetition (Instrumental) (01:57)
9. The Soul Singer (Demo) (03:28)
10. The Land Of Sunset (Instrumental) (04:25)

Exact Audio Copy V1.3 from 2. September 2016

EAC extraction logfile from 6. December 2020, 18:04

The Waterboys / Good Luck, Seeker

Used drive : PLEXTOR PX-891SAF Adapter: 1 ID: 0

Read mode : Secure
Utilize accurate stream : Yes
Defeat audio cache : Yes
Make use of C2 pointers : No

Read offset correction : 6
Overread into Lead-In and Lead-Out : No
Fill up missing offset samples with silence : Yes
Delete leading and trailing silent blocks : No
Null samples used in CRC calculations : Yes
Used interface : Native Win32 interface for Win NT & 2000
Gap handling : Appended to previous track

Used output format : User Defined Encoder
Selected bitrate : 1024 kBit/s
Quality : High
Add ID3 tag : No
Command line compressor : C:\Program Files (x86)\Exact Audio Copy\Flac\flac.exe
Additional command line options : -8 -V -T "ARTIST=%artist%" -T "TITLE=%title%" -T "ALBUM=%albumtitle%" -T "DATE=%year%" -T "TRACKNUMBER=%tracknr%" -T "GENRE=%genre%" -T "PERFORMER=%albuminterpret%" -T "COMPOSER=%composer%" %haslyrics%–tag-from-file=LYRICS="%lyricsfile%"%haslyrics% -T "ALBUMARTIST=%albumartist%" -T "DISCNUMBER=%cdnumber%" -T "TOTALDISCS=%totalcds%" -T "TOTALTRACKS=%numtracks%" -T "COMMENT=%comment%" %source% -o %dest%


TOC of the extracted CD

Track | Start | Length | Start sector | End sector
––––––––––––––––––––––––––––-
1 | 0:00.00 | 4:43.41 | 0 | 21265
2 | 4:43.41 | 3:48.65 | 21266 | 38430
3 | 8:32.31 | 3:05.11 | 38431 | 52316
4 | 11:37.42 | 3:09.63 | 52317 | 66554
5 | 14:47.30 | 2:35.60 | 66555 | 78239
6 | 17:23.15 | 0:45.71 | 78240 | 81685
7 | 18:09.11 | 5:44.08 | 81686 | 107493
8 | 23:53.19 | 3:02.20 | 107494 | 121163
9 | 26:55.39 | 6:47.64 | 121164 | 151752
10 | 33:43.28 | 4:11.08 | 151753 | 170585
11 | 37:54.36 | 2:46.17 | 170586 | 183052
12 | 40:40.53 | 1:47.67 | 183053 | 191144
13 | 42:28.45 | 1:50.37 | 191145 | 199431
14 | 44:19.07 | 4:28.02 | 199432 | 219533


Track 1

Filename D:\#EAC new\#wav+flac\#Add\The Waterboys - Good Luck, Seeker\cd 1\01. The Waterboys - The Soul Singer.wav

Pre-gap length 0:00:02.00

Peak level 99.9 %
Extraction speed 4.5 X
Track quality 99.9 %
Test CRC B87AAB6A
Copy CRC B87AAB6A
Accurately ripped (confidence 16) [DFCD015F] (AR v2)
Copy OK

Track 2

Filename D:\#EAC new\#wav+flac\#Add\The Waterboys - Good Luck, Seeker\cd 1\02. The Waterboys - (You've Got To) Kiss A Frog Or Two.wav

Peak level 99.9 %
Extraction speed 5.7 X
Track quality 100.0 %
Test CRC BF12A102
Copy CRC BF12A102
Accurately ripped (confidence 16) [1CB019DC] (AR v2)
Copy OK

Track 3

Filename D:\#EAC new\#wav+flac\#Add\The Waterboys - Good Luck, Seeker\cd 1\03. The Waterboys - Low Down In The Broom.wav

Peak level 100.0 %
Extraction speed 6.0 X
Track quality 100.0 %
Test CRC 2DA862A0
Copy CRC 2DA862A0
Accurately ripped (confidence 16) [1464BB9E] (AR v2)
Copy OK

Track 4

Filename D:\#EAC new\#wav+flac\#Add\The Waterboys - Good Luck, Seeker\cd 1\04. The Waterboys - Dennis Hopper.wav

Peak level 99.9 %
Extraction speed 6.4 X
Track quality 100.0 %
Test CRC 4DB82DCA
Copy CRC 4DB82DCA
Accurately ripped (confidence 16) [8CA6B8F7] (AR v2)
Copy OK

Track 5

Filename D:\#EAC new\#wav+flac\#Add\The Waterboys - Good Luck, Seeker\cd 1\05. The Waterboys - Freak Street.wav

Peak level 99.9 %
Extraction speed 6.4 X
Track quality 100.0 %
Test CRC 77668D6D
Copy CRC 77668D6D
Accurately ripped (confidence 16) [9FEFF66C] (AR v2)
Copy OK

Track 6

Filename D:\#EAC new\#wav+flac\#Add\The Waterboys - Good Luck, Seeker\cd 1\06. The Waterboys - Sticky Fingers.wav

Peak level 97.6 %
Extraction speed 4.5 X
Track quality 100.0 %
Test CRC F9751CE7
Copy CRC F9751CE7
Accurately ripped (confidence 16) [45FF2BA6] (AR v2)
Copy OK

Track 7

Filename D:\#EAC new\#wav+flac\#Add\The Waterboys - Good Luck, Seeker\cd 1\07. The Waterboys - Why Should I Love You.wav

Peak level 100.0 %
Extraction speed 7.7 X
Track quality 100.0 %
Test CRC 43B046F5
Copy CRC 43B046F5
Accurately ripped (confidence 16) [058AF1B4] (AR v2)
Copy OK

Track 8

Filename D:\#EAC new\#wav+flac\#Add\The Waterboys - Good Luck, Seeker\cd 1\08. The Waterboys - The Golden Work.wav

Peak level 99.9 %
Extraction speed 5.9 X
Track quality 99.9 %
Test CRC F124598B
Copy CRC F124598B
Accurately ripped (confidence 16) [6AE572E3] (AR v2)
Copy OK

Track 9

Filename D:\#EAC new\#wav+flac\#Add\The Waterboys - Good Luck, Seeker\cd 1\09. The Waterboys - My Wanderings In The Weary Land.wav

Peak level 100.0 %
Extraction speed 8.7 X
Track quality 100.0 %
Test CRC 0C1BF342
Copy CRC 0C1BF342
Accurately ripped (confidence 16) [C017162C] (AR v2)
Copy OK

Track 10

Filename D:\#EAC new\#wav+flac\#Add\The Waterboys - Good Luck, Seeker\cd 1\10. The Waterboys - Postcard From The Celtic Dreamtime.wav

Peak level 99.9 %
Extraction speed 8.8 X
Track quality 100.0 %
Test CRC 2581213C
Copy CRC 2581213C
Accurately ripped (confidence 16) [0934D43E] (AR v2)
Copy OK

Track 11

Filename D:\#EAC new\#wav+flac\#Add\The Waterboys - Good Luck, Seeker\cd 1\11. The Waterboys - Good Luck, Seeker.wav

Peak level 99.9 %
Extraction speed 8.6 X
Track quality 100.0 %
Test CRC 7CA73BEF
Copy CRC 7CA73BEF
Accurately ripped (confidence 16) [2AC537A6] (AR v2)
Copy OK

Track 12

Filename D:\#EAC new\#wav+flac\#Add\The Waterboys - Good Luck, Seeker\cd 1\12. The Waterboys - Beauty In Repetition.wav

Peak level 99.4 %
Extraction speed 5.5 X
Track quality 99.9 %
Test CRC 17CFD10C
Copy CRC 17CFD10C
Accurately ripped (confidence 16) [E553F83A] (AR v2)
Copy OK

Track 13

Filename D:\#EAC new\#wav+flac\#Add\The Waterboys - Good Luck, Seeker\cd 1\13. The Waterboys - Everchanging.wav

Peak level 100.0 %
Extraction speed 8.1 X
Track quality 100.0 %
Test CRC 93B62013
Copy CRC 93B62013
Accurately ripped (confidence 16) [ED610EBD] (AR v2)
Copy OK

Track 14

Filename D:\#EAC new\#wav+flac\#Add\The Waterboys - Good Luck, Seeker\cd 1\14. The Waterboys - The Land Of Sunset.wav

Peak level 99.7 %
Extraction speed 9.6 X
Track quality 100.0 %
Test CRC 35316918
Copy CRC 35316918
Accurately ripped (confidence 16) [366C8DDF] (AR v2)
Copy OK


All tracks accurately ripped

No errors occurred

End of status report

–– CUETools DB Plugin V2.1.6

[CTDB TOCID: Ha43WfcGzJMv8stZBGqtydJ9q_U-] found
Submit result: already submitted
Track | CTDB Status
1 | (60/60) Accurately ripped
2 | (60/60) Accurately ripped
3 | (60/60) Accurately ripped
4 | (60/60) Accurately ripped
5 | (60/60) Accurately ripped
6 | (60/60) Accurately ripped
7 | (60/60) Accurately ripped
8 | (60/60) Accurately ripped
9 | (60/60) Accurately ripped
10 | (60/60) Accurately ripped
11 | (60/60) Accurately ripped
12 | (60/60) Accurately ripped
13 | (60/60) Accurately ripped
14 | (60/60) Accurately ripped


==== Log checksum A624B3466757CACC5360E0DC735CD5307A99DDD1E52FBB896F207E4A1874DBA5 ====

––––––––––––––––––––––––––––––

Exact Audio Copy V1.3 from 2. September 2016

EAC extraction logfile from 6. December 2020, 18:04

The Waterboys / Good Luck, Seeker

Used drive : PLEXTOR PX-891SAF Adapter: 1 ID: 0

Read mode : Secure
Utilize accurate stream : Yes
Defeat audio cache : Yes
Make use of C2 pointers : No

Read offset correction : 6
Overread into Lead-In and Lead-Out : No
Fill up missing offset samples with silence : Yes
Delete leading and trailing silent blocks : No
Null samples used in CRC calculations : Yes
Used interface : Native Win32 interface for Win NT & 2000
Gap handling : Appended to previous track

Used output format : User Defined Encoder
Selected bitrate : 1024 kBit/s
Quality : High
Add ID3 tag : No
Command line compressor : C:\Program Files (x86)\Exact Audio Copy\Flac\flac.exe
Additional command line options : -8 -V -T "ARTIST=%artist%" -T "TITLE=%title%" -T "ALBUM=%albumtitle%" -T "DATE=%year%" -T "TRACKNUMBER=%tracknr%" -T "GENRE=%genre%" -T "PERFORMER=%albuminterpret%" -T "COMPOSER=%composer%" %haslyrics%–tag-from-file=LYRICS="%lyricsfile%"%haslyrics% -T "ALBUMARTIST=%albumartist%" -T "DISCNUMBER=%cdnumber%" -T "TOTALDISCS=%totalcds%" -T "TOTALTRACKS=%numtracks%" -T "COMMENT=%comment%" %source% -o %dest%


TOC of the extracted CD

Track | Start | Length | Start sector | End sector
––––––––––––––––––––––––––––-
1 | 0:00.00 | 4:43.41 | 0 | 21265
2 | 4:43.41 | 3:48.65 | 21266 | 38430
3 | 8:32.31 | 3:05.11 | 38431 | 52316
4 | 11:37.42 | 3:09.63 | 52317 | 66554
5 | 14:47.30 | 2:35.60 | 66555 | 78239
6 | 17:23.15 | 0:45.71 | 78240 | 81685
7 | 18:09.11 | 5:44.08 | 81686 | 107493
8 | 23:53.19 | 3:02.20 | 107494 | 121163
9 | 26:55.39 | 6:47.64 | 121164 | 151752
10 | 33:43.28 | 4:11.08 | 151753 | 170585
11 | 37:54.36 | 2:46.17 | 170586 | 183052
12 | 40:40.53 | 1:47.67 | 183053 | 191144
13 | 42:28.45 | 1:50.37 | 191145 | 199431
14 | 44:19.07 | 4:28.02 | 199432 | 219533


Track 1

Filename D:\#EAC new\#wav+flac\#Add\The Waterboys - Good Luck, Seeker\cd 1\01. The Waterboys - The Soul Singer.wav

Pre-gap length 0:00:02.00

Peak level 99.9 %
Extraction speed 4.5 X
Track quality 99.9 %
Test CRC B87AAB6A
Copy CRC B87AAB6A
Accurately ripped (confidence 16) [DFCD015F] (AR v2)
Copy OK

Track 2

Filename D:\#EAC new\#wav+flac\#Add\The Waterboys - Good Luck, Seeker\cd 1\02. The Waterboys - (You've Got To) Kiss A Frog Or Two.wav

Peak level 99.9 %
Extraction speed 5.7 X
Track quality 100.0 %
Test CRC BF12A102
Copy CRC BF12A102
Accurately ripped (confidence 16) [1CB019DC] (AR v2)
Copy OK

Track 3

Filename D:\#EAC new\#wav+flac\#Add\The Waterboys - Good Luck, Seeker\cd 1\03. The Waterboys - Low Down In The Broom.wav

Peak level 100.0 %
Extraction speed 6.0 X
Track quality 100.0 %
Test CRC 2DA862A0
Copy CRC 2DA862A0
Accurately ripped (confidence 16) [1464BB9E] (AR v2)
Copy OK

Track 4

Filename D:\#EAC new\#wav+flac\#Add\The Waterboys - Good Luck, Seeker\cd 1\04. The Waterboys - Dennis Hopper.wav

Peak level 99.9 %
Extraction speed 6.4 X
Track quality 100.0 %
Test CRC 4DB82DCA
Copy CRC 4DB82DCA
Accurately ripped (confidence 16) [8CA6B8F7] (AR v2)
Copy OK

Track 5

Filename D:\#EAC new\#wav+flac\#Add\The Waterboys - Good Luck, Seeker\cd 1\05. The Waterboys - Freak Street.wav

Peak level 99.9 %
Extraction speed 6.4 X
Track quality 100.0 %
Test CRC 77668D6D
Copy CRC 77668D6D
Accurately ripped (confidence 16) [9FEFF66C] (AR v2)
Copy OK

Track 6

Filename D:\#EAC new\#wav+flac\#Add\The Waterboys - Good Luck, Seeker\cd 1\06. The Waterboys - Sticky Fingers.wav

Peak level 97.6 %
Extraction speed 4.5 X
Track quality 100.0 %
Test CRC F9751CE7
Copy CRC F9751CE7
Accurately ripped (confidence 16) [45FF2BA6] (AR v2)
Copy OK

Track 7

Filename D:\#EAC new\#wav+flac\#Add\The Waterboys - Good Luck, Seeker\cd 1\07. The Waterboys - Why Should I Love You.wav

Peak level 100.0 %
Extraction speed 7.7 X
Track quality 100.0 %
Test CRC 43B046F5
Copy CRC 43B046F5
Accurately ripped (confidence 16) [058AF1B4] (AR v2)
Copy OK

Track 8

Filename D:\#EAC new\#wav+flac\#Add\The Waterboys - Good Luck, Seeker\cd 1\08. The Waterboys - The Golden Work.wav

Peak level 99.9 %
Extraction speed 5.9 X
Track quality 99.9 %
Test CRC F124598B
Copy CRC F124598B
Accurately ripped (confidence 16) [6AE572E3] (AR v2)
Copy OK

Track 9

Filename D:\#EAC new\#wav+flac\#Add\The Waterboys - Good Luck, Seeker\cd 1\09. The Waterboys - My Wanderings In The Weary Land.wav

Peak level 100.0 %
Extraction speed 8.7 X
Track quality 100.0 %
Test CRC 0C1BF342
Copy CRC 0C1BF342
Accurately ripped (confidence 16) [C017162C] (AR v2)
Copy OK

Track 10

Filename D:\#EAC new\#wav+flac\#Add\The Waterboys - Good Luck, Seeker\cd 1\10. The Waterboys - Postcard From The Celtic Dreamtime.wav

Peak level 99.9 %
Extraction speed 8.8 X
Track quality 100.0 %
Test CRC 2581213C
Copy CRC 2581213C
Accurately ripped (confidence 16) [0934D43E] (AR v2)
Copy OK

Track 11

Filename D:\#EAC new\#wav+flac\#Add\The Waterboys - Good Luck, Seeker\cd 1\11. The Waterboys - Good Luck, Seeker.wav

Peak level 99.9 %
Extraction speed 8.6 X
Track quality 100.0 %
Test CRC 7CA73BEF
Copy CRC 7CA73BEF
Accurately ripped (confidence 16) [2AC537A6] (AR v2)
Copy OK

Track 12

Filename D:\#EAC new\#wav+flac\#Add\The Waterboys - Good Luck, Seeker\cd 1\12. The Waterboys - Beauty In Repetition.wav

Peak level 99.4 %
Extraction speed 5.5 X
Track quality 99.9 %
Test CRC 17CFD10C
Copy CRC 17CFD10C
Accurately ripped (confidence 16) [E553F83A] (AR v2)
Copy OK

Track 13

Filename D:\#EAC new\#wav+flac\#Add\The Waterboys - Good Luck, Seeker\cd 1\13. The Waterboys - Everchanging.wav

Peak level 100.0 %
Extraction speed 8.1 X
Track quality 100.0 %
Test CRC 93B62013
Copy CRC 93B62013
Accurately ripped (confidence 16) [ED610EBD] (AR v2)
Copy OK

Track 14

Filename D:\#EAC new\#wav+flac\#Add\The Waterboys - Good Luck, Seeker\cd 1\14. The Waterboys - The Land Of Sunset.wav

Peak level 99.7 %
Extraction speed 9.6 X
Track quality 100.0 %
Test CRC 35316918
Copy CRC 35316918
Accurately ripped (confidence 16) [366C8DDF] (AR v2)
Copy OK


All tracks accurately ripped

No errors occurred

End of status report

–– CUETools DB Plugin V2.1.6

[CTDB TOCID: Ha43WfcGzJMv8stZBGqtydJ9q_U-] found
Submit result: already submitted
Track | CTDB Status
1 | (60/60) Accurately ripped
2 | (60/60) Accurately ripped
3 | (60/60) Accurately ripped
4 | (60/60) Accurately ripped
5 | (60/60) Accurately ripped
6 | (60/60) Accurately ripped
7 | (60/60) Accurately ripped
8 | (60/60) Accurately ripped
9 | (60/60) Accurately ripped
10 | (60/60) Accurately ripped
11 | (60/60) Accurately ripped
12 | (60/60) Accurately ripped
13 | (60/60) Accurately ripped
14 | (60/60) Accurately ripped


==== Log checksum A624B3466757CACC5360E0DC735CD5307A99DDD1E52FBB896F207E4A1874DBA5 ====
Exact Audio Copy V1.3 from 2. September 2016

EAC extraction logfile from 6. December 2020, 17:46

The Waterboys / Good Luck, Seeker

Used drive : PLEXTOR PX-891SAF Adapter: 1 ID: 0

Read mode : Secure
Utilize accurate stream : Yes
Defeat audio cache : Yes
Make use of C2 pointers : No

Read offset correction : 6
Overread into Lead-In and Lead-Out : No
Fill up missing offset samples with silence : Yes
Delete leading and trailing silent blocks : No
Null samples used in CRC calculations : Yes
Used interface : Native Win32 interface for Win NT & 2000
Gap handling : Appended to previous track

Used output format : User Defined Encoder
Selected bitrate : 1024 kBit/s
Quality : High
Add ID3 tag : No
Command line compressor : C:\Program Files (x86)\Exact Audio Copy\Flac\flac.exe
Additional command line options : -8 -V -T "ARTIST=%artist%" -T "TITLE=%title%" -T "ALBUM=%albumtitle%" -T "DATE=%year%" -T "TRACKNUMBER=%tracknr%" -T "GENRE=%genre%" -T "PERFORMER=%albuminterpret%" -T "COMPOSER=%composer%" %haslyrics%–tag-from-file=LYRICS="%lyricsfile%"%haslyrics% -T "ALBUMARTIST=%albumartist%" -T "DISCNUMBER=%cdnumber%" -T "TOTALDISCS=%totalcds%" -T "TOTALTRACKS=%numtracks%" -T "COMMENT=%comment%" %source% -o %dest%


TOC of the extracted CD

Track | Start | Length | Start sector | End sector
––––––––––––––––––––––––––––-
1 | 0:00.00 | 4:40.41 | 0 | 21040
2 | 4:40.41 | 2:46.40 | 21041 | 33530
3 | 7:27.06 | 2:58.07 | 33531 | 46887
4 | 10:25.13 | 1:53.24 | 46888 | 55386
5 | 12:18.37 | 5:44.23 | 55387 | 81209
6 | 18:02.60 | 2:37.26 | 81210 | 93010
7 | 20:40.11 | 4:11.21 | 93011 | 111856
8 | 24:51.32 | 1:57.16 | 111857 | 120647
9 | 26:48.48 | 3:27.39 | 120648 | 136211
10 | 30:16.12 | 4:26.72 | 136212 | 156233


Track 1

Filename D:\#EAC new\#wav+flac\#Add\The Waterboys - Good Luck, Seeker\cd 2\01. The Waterboys - The Soul Singer (Instrumental).wav

Pre-gap length 0:00:02.00

Peak level 98.6 %
Extraction speed 4.4 X
Track quality 99.9 %
Test CRC 1F97DBDC
Copy CRC 1F97DBDC
Accurately ripped (confidence 10) [97DB7A3F] (AR v2)
Copy OK

Track 2

Filename D:\#EAC new\#wav+flac\#Add\The Waterboys - Good Luck, Seeker\cd 2\02. The Waterboys - (You've Got To) Kiss a Frog or Two (Instrumental).wav

Peak level 98.6 %
Extraction speed 5.3 X
Track quality 100.0 %
Test CRC E5FB9D10
Copy CRC E5FB9D10
Accurately ripped (confidence 10) [7B2A59AB] (AR v2)
Copy OK

Track 3

Filename D:\#EAC new\#wav+flac\#Add\The Waterboys - Good Luck, Seeker\cd 2\03. The Waterboys - Low Down in the Broom (Guitar,Vocal Version).wav

Peak level 98.6 %
Extraction speed 5.7 X
Track quality 100.0 %
Test CRC 98699C2D
Copy CRC 98699C2D
Accurately ripped (confidence 10) [75893447] (AR v2)
Copy OK

Track 4

Filename D:\#EAC new\#wav+flac\#Add\The Waterboys - Good Luck, Seeker\cd 2\04. The Waterboys - Dennis Hopper (Demo).wav

Peak level 98.6 %
Extraction speed 5.5 X
Track quality 100.0 %
Test CRC 2F7EC9D9
Copy CRC 2F7EC9D9
Accurately ripped (confidence 10) [7A5728C9] (AR v2)
Copy OK

Track 5

Filename D:\#EAC new\#wav+flac\#Add\The Waterboys - Good Luck, Seeker\cd 2\05. The Waterboys - Why Should I Love You (Instrumental).wav

Peak level 98.6 %
Extraction speed 5.8 X
Track quality 99.9 %
Test CRC DA51A932
Copy CRC DA51A932
Accurately ripped (confidence 10) [D9F9872B] (AR v2)
Copy OK

Track 6

Filename D:\#EAC new\#wav+flac\#Add\The Waterboys - Good Luck, Seeker\cd 2\06. The Waterboys - My Wanderings in the Weary Land (Vocal Version).wav

Peak level 98.6 %
Extraction speed 5.0 X
Track quality 99.9 %
Test CRC 96D2C0BD
Copy CRC 96D2C0BD
Accurately ripped (confidence 10) [362F1F97] (AR v2)
Copy OK

Track 7

Filename D:\#EAC new\#wav+flac\#Add\The Waterboys - Good Luck, Seeker\cd 2\07. The Waterboys - Postcard from the Celtic Dreamtime (Instrumental).wav

Peak level 98.6 %
Extraction speed 7.4 X
Track quality 100.0 %
Test CRC 36A5124B
Copy CRC 36A5124B
Accurately ripped (confidence 10) [7097F055] (AR v2)
Copy OK

Track 8

Filename D:\#EAC new\#wav+flac\#Add\The Waterboys - Good Luck, Seeker\cd 2\08. The Waterboys - Beauty in Repetition (Instrumental).wav

Peak level 98.6 %
Extraction speed 4.8 X
Track quality 99.9 %
Test CRC 25D5C9A7
Copy CRC 25D5C9A7
Accurately ripped (confidence 10) [E30E1BEC] (AR v2)
Copy OK

Track 9

Filename D:\#EAC new\#wav+flac\#Add\The Waterboys - Good Luck, Seeker\cd 2\09. The Waterboys - The Soul Singer (Demo).wav

Peak level 98.6 %
Extraction speed 7.6 X
Track quality 100.0 %
Test CRC FD345831
Copy CRC FD345831
Accurately ripped (confidence 10) [EE82A7FC] (AR v2)
Copy OK

Track 10

Filename D:\#EAC new\#wav+flac\#Add\The Waterboys - Good Luck, Seeker\cd 2\10. The Waterboys - The Land of Sunset (Instrumental).wav

Peak level 98.6 %
Extraction speed 8.3 X
Track quality 100.0 %
Test CRC 1C512836
Copy CRC 1C512836
Accurately ripped (confidence 10) [25D0193D] (AR v2)
Copy OK


All tracks accurately ripped

No errors occurred

End of status report

–– CUETools DB Plugin V2.1.6

[CTDB TOCID: 3Rv8JRinTkZqNHvdcR49sCrzYyc-] found
Submit result: 3Rv8JRinTkZqNHvdcR49sCrzYyc- has been confirmed
Track | CTDB Status
1 | (33/33) Accurately ripped
2 | (33/33) Accurately ripped
3 | (33/33) Accurately ripped
4 | (33/33) Accurately ripped
5 | (33/33) Accurately ripped
6 | (33/33) Accurately ripped
7 | (33/33) Accurately ripped
8 | (33/33) Accurately ripped
9 | (33/33) Accurately ripped
10 | (33/33) Accurately ripped


==== Log checksum 0591E08B5BEC9748309B521D894F88DABED077C31597A246D49D2B683791C52A ====

––––––––––––––––––––––––––––––

Exact Audio Copy V1.3 from 2. September 2016

EAC extraction logfile from 6. December 2020, 17:46

The Waterboys / Good Luck, Seeker

Used drive : PLEXTOR PX-891SAF Adapter: 1 ID: 0

Read mode : Secure
Utilize accurate stream : Yes
Defeat audio cache : Yes
Make use of C2 pointers : No

Read offset correction : 6
Overread into Lead-In and Lead-Out : No
Fill up missing offset samples with silence : Yes
Delete leading and trailing silent blocks : No
Null samples used in CRC calculations : Yes
Used interface : Native Win32 interface for Win NT & 2000
Gap handling : Appended to previous track

Used output format : User Defined Encoder
Selected bitrate : 1024 kBit/s
Quality : High
Add ID3 tag : No
Command line compressor : C:\Program Files (x86)\Exact Audio Copy\Flac\flac.exe
Additional command line options : -8 -V -T "ARTIST=%artist%" -T "TITLE=%title%" -T "ALBUM=%albumtitle%" -T "DATE=%year%" -T "TRACKNUMBER=%tracknr%" -T "GENRE=%genre%" -T "PERFORMER=%albuminterpret%" -T "COMPOSER=%composer%" %haslyrics%–tag-from-file=LYRICS="%lyricsfile%"%haslyrics% -T "ALBUMARTIST=%albumartist%" -T "DISCNUMBER=%cdnumber%" -T "TOTALDISCS=%totalcds%" -T "TOTALTRACKS=%numtracks%" -T "COMMENT=%comment%" %source% -o %dest%


TOC of the extracted CD

Track | Start | Length | Start sector | End sector
––––––––––––––––––––––––––––-
1 | 0:00.00 | 4:40.41 | 0 | 21040
2 | 4:40.41 | 2:46.40 | 21041 | 33530
3 | 7:27.06 | 2:58.07 | 33531 | 46887
4 | 10:25.13 | 1:53.24 | 46888 | 55386
5 | 12:18.37 | 5:44.23 | 55387 | 81209
6 | 18:02.60 | 2:37.26 | 81210 | 93010
7 | 20:40.11 | 4:11.21 | 93011 | 111856
8 | 24:51.32 | 1:57.16 | 111857 | 120647
9 | 26:48.48 | 3:27.39 | 120648 | 136211
10 | 30:16.12 | 4:26.72 | 136212 | 156233


Track 1

Filename D:\#EAC new\#wav+flac\#Add\The Waterboys - Good Luck, Seeker\cd 2\01. The Waterboys - The Soul Singer (Instrumental).wav

Pre-gap length 0:00:02.00

Peak level 98.6 %
Extraction speed 4.4 X
Track quality 99.9 %
Test CRC 1F97DBDC
Copy CRC 1F97DBDC
Accurately ripped (confidence 10) [97DB7A3F] (AR v2)
Copy OK

Track 2

Filename D:\#EAC new\#wav+flac\#Add\The Waterboys - Good Luck, Seeker\cd 2\02. The Waterboys - (You've Got To) Kiss a Frog or Two (Instrumental).wav

Peak level 98.6 %
Extraction speed 5.3 X
Track quality 100.0 %
Test CRC E5FB9D10
Copy CRC E5FB9D10
Accurately ripped (confidence 10) [7B2A59AB] (AR v2)
Copy OK

Track 3

Filename D:\#EAC new\#wav+flac\#Add\The Waterboys - Good Luck, Seeker\cd 2\03. The Waterboys - Low Down in the Broom (Guitar,Vocal Version).wav

Peak level 98.6 %
Extraction speed 5.7 X
Track quality 100.0 %
Test CRC 98699C2D
Copy CRC 98699C2D
Accurately ripped (confidence 10) [75893447] (AR v2)
Copy OK

Track 4

Filename D:\#EAC new\#wav+flac\#Add\The Waterboys - Good Luck, Seeker\cd 2\04. The Waterboys - Dennis Hopper (Demo).wav

Peak level 98.6 %
Extraction speed 5.5 X
Track quality 100.0 %
Test CRC 2F7EC9D9
Copy CRC 2F7EC9D9
Accurately ripped (confidence 10) [7A5728C9] (AR v2)
Copy OK

Track 5

Filename D:\#EAC new\#wav+flac\#Add\The Waterboys - Good Luck, Seeker\cd 2\05. The Waterboys - Why Should I Love You (Instrumental).wav

Peak level 98.6 %
Extraction speed 5.8 X
Track quality 99.9 %
Test CRC DA51A932
Copy CRC DA51A932
Accurately ripped (confidence 10) [D9F9872B] (AR v2)
Copy OK

Track 6

Filename D:\#EAC new\#wav+flac\#Add\The Waterboys - Good Luck, Seeker\cd 2\06. The Waterboys - My Wanderings in the Weary Land (Vocal Version).wav

Peak level 98.6 %
Extraction speed 5.0 X
Track quality 99.9 %
Test CRC 96D2C0BD
Copy CRC 96D2C0BD
Accurately ripped (confidence 10) [362F1F97] (AR v2)
Copy OK

Track 7

Filename D:\#EAC new\#wav+flac\#Add\The Waterboys - Good Luck, Seeker\cd 2\07. The Waterboys - Postcard from the Celtic Dreamtime (Instrumental).wav

Peak level 98.6 %
Extraction speed 7.4 X
Track quality 100.0 %
Test CRC 36A5124B
Copy CRC 36A5124B
Accurately ripped (confidence 10) [7097F055] (AR v2)
Copy OK

Track 8

Filename D:\#EAC new\#wav+flac\#Add\The Waterboys - Good Luck, Seeker\cd 2\08. The Waterboys - Beauty in Repetition (Instrumental).wav

Peak level 98.6 %
Extraction speed 4.8 X
Track quality 99.9 %
Test CRC 25D5C9A7
Copy CRC 25D5C9A7
Accurately ripped (confidence 10) [E30E1BEC] (AR v2)
Copy OK

Track 9

Filename D:\#EAC new\#wav+flac\#Add\The Waterboys - Good Luck, Seeker\cd 2\09. The Waterboys - The Soul Singer (Demo).wav

Peak level 98.6 %
Extraction speed 7.6 X
Track quality 100.0 %
Test CRC FD345831
Copy CRC FD345831
Accurately ripped (confidence 10) [EE82A7FC] (AR v2)
Copy OK

Track 10

Filename D:\#EAC new\#wav+flac\#Add\The Waterboys - Good Luck, Seeker\cd 2\10. The Waterboys - The Land of Sunset (Instrumental).wav

Peak level 98.6 %
Extraction speed 8.3 X
Track quality 100.0 %
Test CRC 1C512836
Copy CRC 1C512836
Accurately ripped (confidence 10) [25D0193D] (AR v2)
Copy OK


All tracks accurately ripped

No errors occurred

End of status report

–– CUETools DB Plugin V2.1.6

[CTDB TOCID: 3Rv8JRinTkZqNHvdcR49sCrzYyc-] found
Submit result: 3Rv8JRinTkZqNHvdcR49sCrzYyc- has been confirmed
Track | CTDB Status
1 | (33/33) Accurately ripped
2 | (33/33) Accurately ripped
3 | (33/33) Accurately ripped
4 | (33/33) Accurately ripped
5 | (33/33) Accurately ripped
6 | (33/33) Accurately ripped
7 | (33/33) Accurately ripped
8 | (33/33) Accurately ripped
9 | (33/33) Accurately ripped
10 | (33/33) Accurately ripped


==== Log checksum 0591E08B5BEC9748309B521D894F88DABED077C31597A246D49D2B683791C52A ====

Thanks to the Original ripper !