Subcategories

The Flying Klassenfeind - The Flying Klassenfeind EP {1982, CD ReIssue 2001}

Posted By: luckburz
The Flying Klassenfeind - The Flying Klassenfeind EP {1982, CD ReIssue 2001}

The Flying Klassenfeind - The Flying Klassenfeind EP
EAC+LOG+CUE | FLAC: 128 MB | Full Artwork | 5% Recovery Info
Label/Cat#: Sireena # 2005 | Country/Year: Germany 2001, 1982
Genre: Rock | Style: Alternative Rock, Post Punk

MD5 [X] CUE [X] LOG [X] INFO TEXT [X] ARTWORK [X]

selfrip [X] not my rip []

The Flying Klassenfeind - The Flying Klassenfeind EP {1982, CD ReIssue 2001}


Exact Audio Copy V1.0 beta 3 from 29. August 2011

EAC extraction logfile from 19. September 2012, 21:20

The Flying Klassenfeind / The Flying Klassenfeind EP

Used drive : PIONEER BD-RW BDR-206 Adapter: 0 ID: 2

Read mode : Secure
Utilize accurate stream : Yes
Defeat audio cache : Yes
Make use of C2 pointers : No

Read offset correction : 667
Overread into Lead-In and Lead-Out : No
Fill up missing offset samples with silence : Yes
Delete leading and trailing silent blocks : No
Null samples used in CRC calculations : Yes
Used interface : Native Win32 interface for Win NT & 2000

Used output format : User Defined Encoder
Selected bitrate : 1024 kBit/s
Quality : High
Add ID3 tag : Yes
Command line compressor : C:\Program Files\FLAC\flac.exe
Additional command line options : -5 -T "Artist=%artist%" -T "Title=%title%" -T "Album=%albumtitle%" -T "Date=%year%" -T "Tracknumber=%tracknr%" -T "Genre=%genre%" %source% -o %dest%


TOC of the extracted CD

Track | Start | Length | Start sector | End sector
––––––––––––––––––––––––––––-
1 | 0:00.00 | 4:31.00 | 0 | 20324
2 | 4:31.00 | 4:53.05 | 20325 | 42304
3 | 9:24.05 | 3:59.14 | 42305 | 60243
4 | 13:23.19 | 6:19.61 | 60244 | 88729


Range status and errors

Selected range

Filename F:\=== VINYL RIPS ===\=== EAC===\X FRESH RIP\The Flying Klassenfeind - The Flying Klassenfeind EP.wav

Peak level 96.6 %
Extraction speed 5.7 X
Range quality 100.0 %
Test CRC 93944292
Copy CRC 93944292
Copy OK

No errors occurred


AccurateRip summary

Track 1 not present in database
Track 2 not present in database
Track 3 not present in database
Track 4 not present in database

None of the tracks are present in the AccurateRip database

End of status report

–– CUETools DB Plugin V2.1.3

[CTDB TOCID: 78kSWlM.61uC_srG5YZWT6TPQxU-] disk not present in database, Submit result: 78kSWlM.61uC_srG5YZWT6TPQxU- has been uploaded


==== Log checksum 997E47D8783BA5EDDD9C9D07E4A8C9D4B15287C5FAED8B1E44213952D1898384 ====

foobar2000 1.1.14a / Dynamic Range Meter 1.1.1
log date: 2012-09-20 12:50:04

––––––––––––––––––––––––––––––––––––––––
Analyzed: The Flying Klassenfeind / The Flying Klassenfeind EP
––––––––––––––––––––––––––––––––––––––––

DR Peak RMS Duration Track
––––––––––––––––––––––––––––––––––––––––
DR11 -0.30 dB -12.60 dB 4:31 01-Sin City
DR11 -0.30 dB -13.17 dB 4:53 02-Venus In Furs
DR10 -0.30 dB -12.67 dB 3:59 03-Ulan Bator
DR10 -0.30 dB -12.11 dB 6:20 04-Out Demons Out
––––––––––––––––––––––––––––––––––––––––

Number of tracks: 4
Official DR value: DR11

Samplerate: 44100 Hz
Channels: 2
Bits per sample: 16
Bitrate: 908 kbps
Codec: FLAC
================================================================================



CD Info:

The Flying Klassenfeind - The Flying Klassenfeind EP

Label: Line Music, Sireena
Catalog#: Sireena 2005
Format: CD, EP
Country: Germany
Released: 2001, 1982
Genre: Rock
Style: Alternative Rock, Punk

Tracklist:

01. Sin City (Parsons/Hillman) 4:31
02. Venus In Furs (Reed) 4:53
03. Ulan Bator (Flying Klassenfeind) 3:59
04. Out Demons Out (Flying Klassenfeind) 6:19

The Flying Klassenfeind - The Flying Klassenfeind EP {1982, CD ReIssue 2001}


Info: Das 82er Minialbum mit Mitgliedern der damaligen SOUNDS - Redaktion feat. JÖRG GÜLDEN, DETLEF & DIEDRICH DIEDERICHSEN, MICHAEL RUFF (Die Geisterfahrer) und MARUS OEHLEN ist jetzt wieder erhältlich und bereichert die umfangreiche NDW- und Indie-Sammlung um ein schräg eigensinniges Stück aus dem Raritäten-Kabinett!

Dabei handelt es sich um Coverversionen und um eigene Stücke mit langsamem Tempo und Gitarrengeschrammel dazu. Man könnte sagen, mit diesem quasi Statement nahmen sie sich als Musikredakteure und Musikkritiker selbst auf den Arm, da sie sich in ihrem bewussten Dilletantismus selbst eine Steilvorlage geboten haben dafür, in der sie sich hörbar wohl fühlen. Und darauf kam es damals wohl an…

Begleittext von Punk-Fanzine-Legende HOLLOW SKAI…! amoebenklang
The Flying Klassenfeind - The Flying Klassenfeind EP {1982, CD ReIssue 2001}

// classical music \\
// all of my uploads \\
________________

Download:

Filepost FLAC
Filepost Artwork
________________