Subcategories

Thelonious Monk Quartet plus Two - At The Blackhawk (1960) [Remastered 1987]

Posted By: Bezz
Thelonious Monk Quartet plus Two - At The Blackhawk (1960) [Remastered 1987]

Thelonious Monk Quartet plus Two - At The Blackhawk (1960) [Remastered 1987]
EAC rip | FLAC + CUE + LOG | Full Scans | 360 Mb (Incl. Recovery)
Genre ~ Post-Bop, Piano Jazz | Label ~ Riverside Records/OJCCD 305-2

The sextet sessions from which this one sprung started out as a collaboration between Monk and drummer Shelly Manne. The chemistry between the two was deemed uninspired after two days of playing, at which point tenorman Harold Land and trumpeter Joe Gordon were added for a new project. The result, culled from this one-night-only quartet+2's spot at San Francisco's Blackhawk, is high-energy bop. ~ CDUniverse


Tracklist

01 Let's Call This
02 Four In One
03 I'm Getting Sentimental Over You
04 Epistrophy (Complete)
05 Evidence
06 Worry Later
07 'Round Midnight
08 Epistrophy (Closing Theme)


Personel

Thelonious Monk – piano
John Ore - bass
Harold Land - tenor saxophone
Charlie Rouse - tenor saxophone
Billy Higgins - drums
John Gordon - trumpet
Orrin Keepnews - producer


Exact Audio Copy V0.99 prebeta 5 from 4. May 2009

EAC extraction logfile from 9. January 2010, 21:53

Thelonious Monk / At The Blackhawk

Used drive : PLEXTOR CD-R PREMIUM2 Adapter: 1 ID: 1

Read mode : Secure
Utilize accurate stream : Yes
Defeat audio cache : Yes
Make use of C2 pointers : No

Read offset correction : 30
Overread into Lead-In and Lead-Out : No
Fill up missing offset samples with silence : Yes
Delete leading and trailing silent blocks : No
Null samples used in CRC calculations : Yes
Used interface : Installed external ASPI interface
Gap handling : Appended to previous track

Used output format : User Defined Encoder
Selected bitrate : 32 kBit/s
Quality : High
Add ID3 tag : No
Command line compressor : C:\Programmi\FLAC\flac.exe
Additional command line options : -8 -V -T "ARTIST=%a" -T "TITLE=%t" -T "ALBUM=%g" -T "DATE=%y" -T "TRACKNUMBER=%n" -T "GENRE=%m" -T "COMMENT=EAC FLAC -8" %s


TOC of the extracted CD

Track | Start | Length | Start sector | End sector
––––––––––––––––––––––––––––-
1 | 0:00.00 | 8:33.47 | 0 | 38521
2 | 8:33.47 | 8:41.65 | 38522 | 77661
3 | 17:15.37 | 6:14.40 | 77662 | 105751
4 | 23:30.02 | 6:41.23 | 105752 | 135849
5 | 30:11.25 | 7:09.12 | 135850 | 168036
6 | 37:20.37 | 9:10.05 | 168037 | 209291
7 | 46:30.42 | 12:07.63 | 209292 | 263879
8 | 58:38.30 | 0:59.67 | 263880 | 268371


Track 1

Filename D:\My Rip\01 - Let's Call This.wav

Pre-gap length 0:00:02.00

Peak level 70.6 %
Track quality 100.0 %
Test CRC A2F387CD
Copy CRC A2F387CD
Cannot be verified as accurate (confidence 10) [6AA9DE8D], AccurateRip returned [42F6B893]
Copy OK

Track 2

Filename D:\My Rip\02 - Four In One.wav

Peak level 69.8 %
Track quality 100.0 %
Test CRC 8871851B
Copy CRC 8871851B
Cannot be verified as accurate (confidence 10) [EF690F75], AccurateRip returned [76A8F6FF]
Copy OK

Track 3

Filename D:\My Rip\03 - I'm Getting Sentimental Over You.wav

Peak level 72.4 %
Track quality 100.0 %
Test CRC 67E0778E
Copy CRC 67E0778E
Cannot be verified as accurate (confidence 10) [114733BD], AccurateRip returned [51ACCF91]
Copy OK

Track 4

Filename D:\My Rip\04 - Epistrophy (Complete).wav

Pre-gap length 0:00:02.22

Peak level 67.9 %
Track quality 100.0 %
Test CRC EB10E913
Copy CRC EB10E913
Cannot be verified as accurate (confidence 10) [7053D04B], AccurateRip returned [F4BC6FBB]
Copy OK

Track 5

Filename D:\My Rip\05 - Evidence.wav

Pre-gap length 0:00:01.93

Peak level 80.5 %
Track quality 100.0 %
Test CRC 26E4AC0B
Copy CRC 26E4AC0B
Cannot be verified as accurate (confidence 10) [3D1E9C55], AccurateRip returned [91AD9858]
Copy OK

Track 6

Filename D:\My Rip\06 - Worry Later.wav

Pre-gap length 0:00:02.20

Peak level 71.8 %
Track quality 100.0 %
Test CRC 5EC9F844
Copy CRC 5EC9F844
Cannot be verified as accurate (confidence 10) [5994CF24], AccurateRip returned [7EE49C74]
Copy OK

Track 7

Filename D:\My Rip\07 - 'Round Midnight.wav

Peak level 67.0 %
Track quality 100.0 %
Test CRC 772FEFA1
Copy CRC 772FEFA1
Cannot be verified as accurate (confidence 10) [5E173DA9], AccurateRip returned [0CF515DB]
Copy OK

Track 8

Filename D:\My Rip\08 - Epistrophy (Closing Theme).wav

Peak level 60.6 %
Track quality 100.0 %
Test CRC 23DA9A17
Copy CRC 23DA9A17
Cannot be verified as accurate (confidence 9) [3ABEA0B3], AccurateRip returned [C71C10DF]
Copy OK


No tracks could be verified as accurate
You may have a different pressing from the one(s) in the database

No errors occurred

End of status report



Thelonious Monk Quartet 			  		  		  		 	    	 			   		  	   		  		  		 			  	 			   		 	 	  		   	  	 			   		  		  		 	 				 plus Two - At The Blackhawk (1960) [Remastered 1987]


Thelonious Monk Quartet plus Two - At The Blackhawk (1960) [Remastered 1987]



Special thanks to the original uploader, stones2621!