Subcategories

Thelonious Monk - The Complete Riverside Recordings (1988) {15CD Riverside Victor Japan VDJ-25010~24 rec 1955-1961}

Posted By: ruskaval
Thelonious Monk - The Complete Riverside Recordings (1988) {15CD Riverside Victor Japan VDJ-25010~24 rec 1955-1961}

Thelonious Monk - The Complete Riverside Recordings (1988) {15CD Riverside Victor Japan VDJ-25010~24 rec 1955-1961}
EAC rip (secure mode) | FLAC (tracks)+CUE+LOG -> 4.97 Gb | MP3 @320 -> 2.24 Gb
Full Artwork @ 600 dpi (png) -> 1.71 Gb | 5% repair rar
© 1955-61, 1988 Riverside / Fantasy / Victor Japan | VDJ-25010~24
Jazz / Bop / Hard Bop / Piano

The studio and live recording sessions that Thelonious Monk cut during his six-year stay at the Riverside label are compiled over the 15 discs in the Complete Riverside Recordings. This middle era – between his early sides for Prestige and the final ones for Columbia – is generally considered Monk's most ingenious and creative period. The sessions are presented in chronological order, accurately charting the progression and diversions of one of the most genuinely enigmatic figures in popular music. The Complete Riverside Recordings explores Monk's genius with a certain degree of real-time analysis that simply listening to each of the individual albums from this era lacks.
Thelonious Monk - The Complete Riverside Recordings (1988) {15CD Riverside Victor Japan VDJ-25010~24 rec 1955-1961}

This is due in part to the 14 additional performances exclusive to this collection. However, a more satisfying level of assessing Monk's indelible marks of extemporaneous perfection can be heard within his prankster-like sense of timing or innate penchant for sophisticated arrangements. Among the sessions captured on this exhaustive set are the Duke Ellington sides and the Sonny Rollins era (which yielded the genre-defining Brilliant Corners), as well as meetings with Coleman Hawkins, John Coltrane, and Gerry Mulligan. Additionally, the entire Thelonious Monk Orchestra at Town Hall performance is presented just as it went down – with solo and quartet sets intact.

Thelonious Monk - The Complete Riverside Recordings (1988) {15CD Riverside Victor Japan VDJ-25010~24 rec 1955-1961}


Accompanying the discs is the booklet that is indispensable in dispelling myths and making sense of the convoluted and seemingly random order in which many of these recordings have been previously issued. It also contains a complete sessionography annotated by Monk's producer during this era, Orrin Keepnews. This is a convenient, albeit pricey way to obtain all of this remarkable music.
Thelonious Monk - The Complete Riverside Recordings (1988) {15CD Riverside Victor Japan VDJ-25010~24 rec 1955-1961}


Personnel
{Disc 3: Tracks 1-9}
{Disc 4: Tracks 1-3}
{Disc 11: Tracks 8-10}
{Disc 12: Tracks 1-8}
•Thelonious Monk - piano

{Disc 1: Tracks 1-8}
•Thelonious Monk - piano
•Oscar Pettiford - bass
•Kenny Clarke - drums

{Disc 1: Tracks 9-13}
{Disc 2: Tracks 1 & 2}
•Thelonious Monk - piano
•Oscar Pettiford - bass
•Art Blakey - drums

{Disc 2: Tracks 3-6}
•Ernie Henry - alto
•Sonny Rollins - tenor
•Thelonious Monk - piano & celeste
•Oscar Pettiford - bass
•Max Roach - drums

{Disc 2: Tracks 7 & 8}
•Clark Terry - trumpet
•Sonny Rollins - tenor
•Thelonious Monk - piano
•Paul Chambers - bass
•Max Roach - drums

{Disc 3: Tracks 10 & 11}
{Disc 5: Tracks 6-8}
•John Coltrane - tenor
•Thelonious Monk - piano
•Wilbur Ware - bass
•Shadow Wilson - drums

{Disc 4: Tracks 4-11}
{Disc 5: Tracks 1-5}
•Ray Copeland - trumpet
•Gigi Gryce - alto
•Coleman Hawkins - tenor
•John Coltrane - tenor
•Thelonious Monk - piano
•Wilbur Ware - bass
•Art Blakey - drums

{Disc 5: Tracks 9-11}
{Disc 6: Tracks 1-7}
•Gerry Mulligan - baritone
•Thelonious Monk - piano
•Wilbur Ware - bass
•Shadow Wilson - drums

{Disc 6: Track 8}
•Donald Byrd - trumpet
•Johnny Griffin - tenor
•Pepper Adams - baritone
•Thelonious Monk - piano
•Wilbur Ware - bass
•Philly Joe Jones - drums

{Disc 6: Tracks 10}
{Disc 7: Tracks 1-8}
•Clark Terry - flugelhorn
•Thelonious Monk - piano
•Sam Jones - bass
•Philly Joe Jones - drums

{Disc 7: Tracks 9-11}
{Disc 8: Tracks 1 & 2, 4-10}
{Disc 9: Tracks 1-6}
•Johnny Griffin - tenor
•Thelonious Monk - piano
•Ahmed Abdul-Malik - bass
•Roy Haynes - drums

{Disc 8: Tracks 3}
•Johnny Griffin - tenor
•Thelonious Monk - piano
•Ahmed Abdul-Malik - bass
•Art Blakey - drums

{Disc 9: Tracks 7 & 8}
{Disc 10: Track 1}
•Charlie Rouse - tenor
•Thelonious Monk - piano
•Sam Jones - bass
•Art Taylor - drums

{Disc 10: Tracks 2-8}
•Donald Byrd - trumpet
•Eddie Bert - trombone
•Phil Woods - alto
•Charlie Rouse - tenor
•Pepper Adams - baritone
•Robert Northern - french-horn
•Jay McAllister - tuba
T•helonious Monk - piano
•Sam Jones - bass
•Art Taylor - drums
•Hall Overton - arranger

{Disc 11: Tracks 1-7}
•Thad Jones - cornet
•Charlie Rouse - tenor
•Thelonious Monk - piano
•Sam Jones - bass
•Art Taylor - drums

{Disc 12: Tracks 9-11}
•Joe Gordon - trumpet
•Harold Land - tenor
•Charlie Rouse - tenor
•Thelonious Monk - piano
•John Ore - bass
•Shelly Manne - drums

{Disc 12: Track 12}
{Disc 13: Tracks 1-10}
•Joe Gordon - trumpet
•Harold Land - tenor
•Charlie Rouse - tenor
•Thelonious Monk - piano
•John Ore - bass
•Billy Higgins - drums

{Disc 14: Tracks 1-9}
{Disc 15: Tracks 1-11}
•Charlie Rouse - tenor
•Thelonious Monk - piano
•John Ore - bass
•Frankie Dunlop - drums

Thelonious Monk - The Complete Riverside Recordings (1988) {15CD Riverside Victor Japan VDJ-25010~24 rec 1955-1961}


17 original records, they are:

RLP 12-201 Thelonious Monk Plays Duke Ellington
RLP 12-209 The Unique Thelonious Monk
RLP 12-226 Brilliant Corners
RLP 12-235 Thelonious Himself
RLP 12-242 Monk's Music
RLP 12-247 Mulligan Meets Monk
RLP 12-262 Thelonious In Action
RLP 12-271 In Orbit
RLP 12-279 Misterioso
RLP 12-300 At Town Hall
RLP 12-305 5 By Monk By 5
RLP 12-312 Thelonious Alone In San Francisco
RLP 12-323 At The Blackhawk
RS 9460-9461 Two Hours With Thelonious (also see RS 9443 Monk In Italy and RS 9491 Monk in France)
JLP-46 9 Thelonious Monk With John Coltrane
M-9115 Evidence
M-9124 Blues Five Spot


Thelonious Monk - The Complete Riverside Recordings (1988) {15CD Riverside Victor Japan VDJ-25010~24 rec 1955-1961}


Track LIsting

Disc 1

01 - It Don't Mean A Thing (If It Ain't Got That Swing)
02 - Sophisticated Lady
03 - I Got It Bad (And That Ain't Good)
04 - Black & Tan Fantasy
05 - Mood Indigo
06 - I Let A Song Go Out Of My Heart
07 - Solitude
08 - Caravan
09 - Liza (All The Clouds'll Roll Away)
10 - Memories Of You
11 - Honeysuckle Rose
12 - Darn That Dream
13 - Tea For Two

Thelonious Monk - The Complete Riverside Recordings (1988) {15CD Riverside Victor Japan VDJ-25010~24 rec 1955-1961}


Disc 2
01 - You Are Too Beautiful
02 - Just You, Just Me
03 - Ba-Lue Bolivar Ba-Lues-Are
04 - Pannonica (Opening)
05 - Pannonica
06 - Brilliant Corners
07 - Bemsha Swing
08 - I Surrender, Dear

Disc 3
01 - I Don't Stand A Ghost Of A Chance With You (Take 5) (Previously Issued Only In Italy)
02 - I Don't Stand A Ghost Of A Chance With You (Take 7) (Originally Issued)
03 - I Should Care (Take 1) (Previously Unissued)
04 - I Should Care (Take 2) (Previously Issued Only In Italy)
05 - I Should Care (Take 3) (Originally Issued)
06 - 'Round Midnight –in progress
07 - 'Round Midnight (Take 7) (Originally Issued)
08 - April In Paris
09 - I'm Getting Sentimental Over You
10 - Monk's Mood –false start (Previously Unissued)
11 - Monk's Mood

Disc 4
01 - Functional (Take 1) (Alternate)
02 - Functional (Take 2) (Originally Issued)
03 - All Alone
04 - Crepuscule With Nellie (Take 1 On June 25) (Previously Unissued)
05 - Crepuscule With Nellie –breakdown (Previously Unissued)
06 - Blues For Tomorrow
07 - Off Minor (Take 4) (Alternate)
08 - Off Minor (Take 5) (Originally Issued)
09 - Abide With Me
10 - Crepuscule With Nellie (Takes 4 & 5) (Previously Unissued)
11 - Crepuscule With Nellie (Take 6) (Originally Issued)

Disc 5
01 - Epistrophy –fragment
02 - Epistrophy
03 - Well, You Needn't –opening (Previously Unissued)
04 - Well, You Needn't
05 - Ruby, My Dear with Coleman Hawkins
06 - Ruby, My Dear with John Coltrane
07 - Nutty
08 - Trinkle, Tinkle
09 - Straight, No Chaser (Take 1) (Alternate)
10 - Straight, No Chaser (Take 3) (Originally Issued)
11 - Rhythm-A-Ning

Thelonious Monk - The Complete Riverside Recordings (1988) {15CD Riverside Victor Japan VDJ-25010~24 rec 1955-1961}


Disc 6
01 - I Mean You (Take 1) (Alternate)
02 - I Mean You (Take 2) (Alternate)
03 - I Mean You (Take 4) (Originally Issued)
04 - 'Round Midnight
05 - Decidedly (Take 4) (Originally Issued Stereo Take)
06 - Decidedly (Take 5) (Originally Issued Monaural Take)
07 - Sweet & Lovely
08 - Coming On The Hudson
09 - In Orbit
10 - One Foot In The Gutter

Disc 7
01 - Trust In Me
02 - Let's Cool One
03 - Pea-Eye
04 - Argentia
05 - Moonlight Fiesta
06 - Buck's Business
07 - Flugelin' The Blues
08 - Very Near Bllue
09 - Evidence (Previously Unissued)
10 - Blues Five Spot
11 - In Walked Bud_Epistrophy (Theme)

Disc 8
01 - unidentified solo piano
02 - 'Round Midnight
03 - Bye-Ya_Epistrophy (Theme) (Previously Unissued)
04 - Light Blue
05 - Coming On The Hudson
06 - Rhythm-A-Ning
07 - Just A Gigolo
08 - Blue Monk
09 - Evidence
10 - Epistrophy (Theme)

Disc 9
01 - Nutty
02 - Blues Five Spot
03 - Let's Cool One
04 - In Walked Bud
05 - Misterioso
06 - Epistrophy (Theme #2)
07 - In Walked Bud
08 - Blue Monk

Thelonious Monk - The Complete Riverside Recordings (1988) {15CD Riverside Victor Japan VDJ-25010~24 rec 1955-1961}


Disc 10
01 - Rhythm-A-Ning
02 - Monk's Mood
03 - Friday The 13th
04 - Little Rootie Tootie
05 - Off Minor
06 - Thelonious
07 - Crepuscule With Nellie
08 - Little Rootie Tootie –encore

Disc 11
01 - Played Twice (Take 1) (2nd Alternate)
02 - Played Twice (Take ) (Alternate)
03 - Played Twice (Take 3) (Originally Issued)
04 - Straight, No Chaser
05 - Ask Me Now
06 - I Mean You
07 - Jackie-Ing
08 - Round Lights
09 - Pannonica
10 - Blue Monk

Disc 12
01 - Ruby, My Dear
02 - There's Danger In Your Eyes, Cherie (Take 1) (Alternate)
03 - There's Danger In Your Eyes, Cherie (Take 2) (Originally Issued)
04 - Everything Happens To Me
05 - Reflections
06 - Remember
07 - Bluehawk
08 - You Took The Words Right Out Of My Heart
09 - San Francisco Holiday (Previously Unissued)
10 - Just You, Just Me (Previously Unissued)
11 - 'Round Midnight (Previously Unissued)
12 - San Francisco Holiday (Take 2) (Alternate)

Thelonious Monk - The Complete Riverside Recordings (1988) {15CD Riverside Victor Japan VDJ-25010~24 rec 1955-1961}


Disc 13
01 - I'm Getting Sentimental Over You
02 - Evidence
03 - Epistrophy (Theme)
04 - Epistrophy
05 - Four In One (Take 1) (Previously Unissued)
06 - Let's Call This
07 - 'Round Midnight
08 - San Francisco Holiday (Worry Later) (Take 3) (Originally Issued)
09 - Four In One (Take 2) (Originally Issued)
10 - Epistrophy (Theme) (Previously Unissued)

Disc 14
01 - Well, You Needn't
02 - Crepuscule With Nellie
03 - Jackie-Ing
04 - Body & Soul
05 - Off Minor
06 - April In Paris
07 - I Mean You
08 - Rhythm-A-Ning
09 - Just A Gigolo

Disc 15
01 - Hackensack
02 - Epistrophy
03 - I'm Getting Sentimental Over You
04 - Jackie-Ing
05 - Body & Soul
06 - Straight, No Chaser
07 - Crepuscule With Nellie
08 - Bemsha Swing
09 - San Francisco Holiday
10 - Rhythm-A-Ning
11 - Epistrophy

Thelonious Monk - The Complete Riverside Recordings (1988) {15CD Riverside Victor Japan VDJ-25010~24 rec 1955-1961}


Exact Audio Copy V1.0 beta 3 from 29. August 2011

EAC extraction logfile from 11. January 2017, 10:54

Thelonious Monk / The Complete Riverside Recordings (Disc 1)

Used drive : HL-DT-STDVDRAM GU70N Adapter: 0 ID: 0

Read mode : Secure
Utilize accurate stream : Yes
Defeat audio cache : Yes
Make use of C2 pointers : No

Read offset correction : 48
Overread into Lead-In and Lead-Out : No
Fill up missing offset samples with silence : Yes
Delete leading and trailing silent blocks : No
Null samples used in CRC calculations : Yes
Used interface : Native Win32 interface for Win NT & 2000
Gap handling : Appended to previous track

Used output format : User Defined Encoder
Selected bitrate : 128 kBit/s
Quality : High
Add ID3 tag : No
Command line compressor : C:\Program Files (x86)\Exact Audio Copy\Flac\flac.exe
Additional command line options : -8 -V -T "ARTIST=%artist%" -T "TITLE=%title%" -T "ALBUM=%albumtitle%" -T "DATE=%year%" -T "TRACKNUMBER=%tracknr%" -T "TOTALTRACKS=%numtracks%" -T "GENRE=%genre%" -T "ALBUMARTIST=%albumartist%" -T "ALBUM ARTIST=%albumartist%" -T "COMMENT=EAC Secure Mode, Test & Copy, AccurateRip, FLAC -8" %source%


TOC of the extracted CD

Track | Start | Length | Start sector | End sector
––––––––––––––––––––––––––––-
1 | 0:00.37 | 4:39.25 | 37 | 20986
2 | 4:39.62 | 4:28.58 | 20987 | 41144
3 | 9:08.45 | 5:53.55 | 41145 | 67674
4 | 15:02.25 | 3:26.50 | 67675 | 83174
5 | 18:29.00 | 3:14.25 | 83175 | 97749
6 | 21:43.25 | 5:41.05 | 97750 | 123329
7 | 27:24.30 | 3:43.57 | 123330 | 140111
8 | 31:08.12 | 5:57.33 | 140112 | 166919
9 | 37:05.45 | 3:12.17 | 166920 | 181336
10 | 40:17.62 | 4:17.38 | 181337 | 200649
11 | 44:35.25 | 5:33.27 | 200650 | 225651
12 | 50:08.52 | 6:31.25 | 225652 | 255001
13 | 56:40.02 | 5:55.05 | 255002 | 281631


Track 1

Filename F:\EAC\Thelonious Monk - The Complete Riverside Recordings (1988) [FLAC] {Riverside, VDJ-25010~24, 15CD}\Disc1\01 - It Don't Mean a Thing (If It Ain't Got That Swing).wav

Pre-gap length 0:00:02.37

Peak level 100.0 %
Extraction speed 1.3 X
Track quality 100.0 %
Test CRC 2AA641D0
Copy CRC 2AA641D0
Track not present in AccurateRip database
Copy OK

Track 2

Filename F:\EAC\Thelonious Monk - The Complete Riverside Recordings (1988) [FLAC] {Riverside, VDJ-25010~24, 15CD}\Disc1\02 - Sophisticated Lady.wav

Pre-gap length 0:00:00.17

Peak level 92.2 %
Extraction speed 1.4 X
Track quality 100.0 %
Test CRC 48DF26E0
Copy CRC 48DF26E0
Track not present in AccurateRip database
Copy OK

Track 3

Filename F:\EAC\Thelonious Monk - The Complete Riverside Recordings (1988) [FLAC] {Riverside, VDJ-25010~24, 15CD}\Disc1\03 - I Got It Bad (And That Ain't Good).wav

Pre-gap length 0:00:00.27

Peak level 96.8 %
Extraction speed 1.6 X
Track quality 100.0 %
Test CRC 89660679
Copy CRC 89660679
Track not present in AccurateRip database
Copy OK

Track 4

Filename F:\EAC\Thelonious Monk - The Complete Riverside Recordings (1988) [FLAC] {Riverside, VDJ-25010~24, 15CD}\Disc1\04 - Black and Tan Fantasy.wav

Peak level 92.2 %
Extraction speed 1.6 X
Track quality 100.0 %
Test CRC 2B01A013
Copy CRC 2B01A013
Track not present in AccurateRip database
Copy OK

Track 5

Filename F:\EAC\Thelonious Monk - The Complete Riverside Recordings (1988) [FLAC] {Riverside, VDJ-25010~24, 15CD}\Disc1\05 - Mood Indigo.wav

Pre-gap length 0:00:01.37

Peak level 78.5 %
Extraction speed 1.7 X
Track quality 100.0 %
Test CRC A818BEC1
Copy CRC A818BEC1
Track not present in AccurateRip database
Copy OK

Track 6

Filename F:\EAC\Thelonious Monk - The Complete Riverside Recordings (1988) [FLAC] {Riverside, VDJ-25010~24, 15CD}\Disc1\06 - I Let a Song Go Out of My Heart.wav

Peak level 78.5 %
Extraction speed 1.9 X
Track quality 100.0 %
Test CRC 9550392B
Copy CRC 9550392B
Track not present in AccurateRip database
Copy OK

Track 7

Filename F:\EAC\Thelonious Monk - The Complete Riverside Recordings (1988) [FLAC] {Riverside, VDJ-25010~24, 15CD}\Disc1\07 - Solitude.wav

Peak level 75.1 %
Extraction speed 1.7 X
Track quality 99.9 %
Test CRC 6080D2B1
Copy CRC 6080D2B1
Track not present in AccurateRip database
Copy OK

Track 8

Filename F:\EAC\Thelonious Monk - The Complete Riverside Recordings (1988) [FLAC] {Riverside, VDJ-25010~24, 15CD}\Disc1\08 - Caravan.wav

Pre-gap length 0:00:00.27

Peak level 80.6 %
Extraction speed 2.2 X
Track quality 100.0 %
Test CRC 5D2ABAB2
Copy CRC 5D2ABAB2
Track not present in AccurateRip database
Copy OK

Track 9

Filename F:\EAC\Thelonious Monk - The Complete Riverside Recordings (1988) [FLAC] {Riverside, VDJ-25010~24, 15CD}\Disc1\09 - Liza.wav

Pre-gap length 0:00:01.37

Peak level 100.0 %
Extraction speed 1.8 X
Track quality 99.9 %
Test CRC DD0D5538
Copy CRC DD0D5538
Track not present in AccurateRip database
Copy OK

Track 10

Filename F:\EAC\Thelonious Monk - The Complete Riverside Recordings (1988) [FLAC] {Riverside, VDJ-25010~24, 15CD}\Disc1\10 - Memories of You.wav

Pre-gap length 0:00:00.39

Peak level 99.4 %
Extraction speed 2.3 X
Track quality 100.0 %
Test CRC EF4C100E
Copy CRC EF4C100E
Track not present in AccurateRip database
Copy OK

Track 11

Filename F:\EAC\Thelonious Monk - The Complete Riverside Recordings (1988) [FLAC] {Riverside, VDJ-25010~24, 15CD}\Disc1\11 - Honeysuckle Rose.wav

Pre-gap length 0:00:00.10

Peak level 94.5 %
Extraction speed 2.4 X
Track quality 100.0 %
Test CRC FF545AD7
Copy CRC FF545AD7
Track not present in AccurateRip database
Copy OK

Track 12

Filename F:\EAC\Thelonious Monk - The Complete Riverside Recordings (1988) [FLAC] {Riverside, VDJ-25010~24, 15CD}\Disc1\12 - Darn That Dream.wav

Pre-gap length 0:00:01.32

Peak level 100.0 %
Extraction speed 2.6 X
Track quality 100.0 %
Test CRC 64BBBDFD
Copy CRC 64BBBDFD
Track not present in AccurateRip database
Copy OK

Track 13

Filename F:\EAC\Thelonious Monk - The Complete Riverside Recordings (1988) [FLAC] {Riverside, VDJ-25010~24, 15CD}\Disc1\13 - Tea for Two.wav

Pre-gap length 0:00:01.37

Peak level 81.4 %
Extraction speed 2.7 X
Track quality 100.0 %
Test CRC 57601DAB
Copy CRC 57601DAB
Track not present in AccurateRip database
Copy OK


None of the tracks are present in the AccurateRip database

No errors occurred

End of status report

==== Log checksum A51C1C50569BA9B6BD5F43E5C8D9EB0CDA2F76B6589B22202E7A03985DBC12EC ====
Exact Audio Copy V1.0 beta 3 from 29. August 2011

EAC extraction logfile from 11. January 2017, 14:20

Thelonious Monk / The Complete Riverside Recordings (Disc 2)

Used drive : HL-DT-STDVDRAM GU70N Adapter: 0 ID: 0

Read mode : Secure
Utilize accurate stream : Yes
Defeat audio cache : Yes
Make use of C2 pointers : No

Read offset correction : 48
Overread into Lead-In and Lead-Out : No
Fill up missing offset samples with silence : Yes
Delete leading and trailing silent blocks : No
Null samples used in CRC calculations : Yes
Used interface : Native Win32 interface for Win NT & 2000
Gap handling : Appended to previous track

Used output format : User Defined Encoder
Selected bitrate : 128 kBit/s
Quality : High
Add ID3 tag : No
Command line compressor : C:\Program Files (x86)\Exact Audio Copy\Flac\flac.exe
Additional command line options : -8 -V -T "ARTIST=%artist%" -T "TITLE=%title%" -T "ALBUM=%albumtitle%" -T "DATE=%year%" -T "TRACKNUMBER=%tracknr%" -T "TOTALTRACKS=%numtracks%" -T "GENRE=%genre%" -T "ALBUMARTIST=%albumartist%" -T "ALBUM ARTIST=%albumartist%" -T "COMMENT=EAC Secure Mode, Test & Copy, AccurateRip, FLAC -8" %source%


TOC of the extracted CD

Track | Start | Length | Start sector | End sector
––––––––––––––––––––––––––––-
1 | 0:00.37 | 4:56.53 | 37 | 22289
2 | 4:57.15 | 8:00.27 | 22290 | 58316
3 | 12:57.42 | 13:25.63 | 58317 | 118754
4 | 26:23.30 | 2:36.52 | 118755 | 130506
5 | 29:00.07 | 8:52.10 | 130507 | 170416
6 | 37:52.17 | 7:49.03 | 170417 | 205594
7 | 45:41.20 | 7:53.30 | 205595 | 241099
8 | 53:34.50 | 5:31.70 | 241100 | 265994


Track 1

Filename F:\EAC\Thelonious Monk - The Complete Riverside Recordings (1988) [FLAC] {Riverside, VDJ-25010~24, 15CD}\Disc2\01 - Thelonious Monk Trio - You Are Too Beautiful.wav

Pre-gap length 0:00:02.37

Peak level 88.3 %
Extraction speed 1.3 X
Track quality 100.0 %
Test CRC 674878CF
Copy CRC 674878CF
Track not present in AccurateRip database
Copy OK

Track 2

Filename F:\EAC\Thelonious Monk - The Complete Riverside Recordings (1988) [FLAC] {Riverside, VDJ-25010~24, 15CD}\Disc2\02 - Thelonious Monk Trio - Just You, Just Me.wav

Pre-gap length 0:00:00.65

Peak level 100.0 %
Extraction speed 1.5 X
Track quality 99.9 %
Test CRC D170C378
Copy CRC D170C378
Track not present in AccurateRip database
Copy OK

Track 3

Filename F:\EAC\Thelonious Monk - The Complete Riverside Recordings (1988) [FLAC] {Riverside, VDJ-25010~24, 15CD}\Disc2\03 - Thelonious Monk Quintet - Ba-Lue Bolivar Ba-Lues-Are.wav

Pre-gap length 0:00:01.37

Peak level 80.5 %
Extraction speed 1.9 X
Track quality 100.0 %
Test CRC A867238E
Copy CRC A867238E
Track not present in AccurateRip database
Copy OK

Track 4

Filename F:\EAC\Thelonious Monk - The Complete Riverside Recordings (1988) [FLAC] {Riverside, VDJ-25010~24, 15CD}\Disc2\04 - Thelonious Monk Quintet - Pannonica (Opening).wav

Pre-gap length 0:00:01.38

Peak level 79.1 %
Extraction speed 1.5 X
Track quality 99.9 %
Test CRC F343DEAE
Copy CRC F343DEAE
Track not present in AccurateRip database
Copy OK

Track 5

Filename F:\EAC\Thelonious Monk - The Complete Riverside Recordings (1988) [FLAC] {Riverside, VDJ-25010~24, 15CD}\Disc2\05 - Thelonious Monk Quintet - Pannonica.wav

Pre-gap length 0:00:01.15

Peak level 79.7 %
Extraction speed 2.2 X
Track quality 100.0 %
Test CRC 06FF3FED
Copy CRC 06FF3FED
Track not present in AccurateRip database
Copy OK

Track 6

Filename F:\EAC\Thelonious Monk - The Complete Riverside Recordings (1988) [FLAC] {Riverside, VDJ-25010~24, 15CD}\Disc2\06 - Thelonious Monk Quintet - Brilliant Corners.wav

Pre-gap length 0:00:01.37

Peak level 96.4 %
Extraction speed 2.4 X
Track quality 100.0 %
Test CRC 359680ED
Copy CRC 359680ED
Track not present in AccurateRip database
Copy OK

Track 7

Filename F:\EAC\Thelonious Monk - The Complete Riverside Recordings (1988) [FLAC] {Riverside, VDJ-25010~24, 15CD}\Disc2\07 - Thelonious Monk Quintet - Bemsha Swing.wav

Pre-gap length 0:00:02.38

Peak level 100.0 %
Extraction speed 2.4 X
Track quality 99.9 %
Test CRC 4DE1FE01
Copy CRC 4DE1FE01
Track not present in AccurateRip database
Copy OK

Track 8

Filename F:\EAC\Thelonious Monk - The Complete Riverside Recordings (1988) [FLAC] {Riverside, VDJ-25010~24, 15CD}\Disc2\08 - Thelonious Monk Quintet - I Surrender, Dear.wav

Pre-gap length 0:00:02.38

Peak level 88.0 %
Extraction speed 2.6 X
Track quality 100.0 %
Test CRC 6E2F7FE1
Copy CRC 6E2F7FE1
Track not present in AccurateRip database
Copy OK


None of the tracks are present in the AccurateRip database

No errors occurred

End of status report

==== Log checksum 6271185DB5DCAA3CF28522B6157C1FFFDA8423BF78D1CC11044C1E951B361A7E ====
Exact Audio Copy V1.0 beta 3 from 29. August 2011

EAC extraction logfile from 11. January 2017, 15:30

Thelonious Monk / The Complete Riverside Recordings (Disc 3)

Used drive : HL-DT-STDVDRAM GU70N Adapter: 0 ID: 0

Read mode : Secure
Utilize accurate stream : Yes
Defeat audio cache : Yes
Make use of C2 pointers : No

Read offset correction : 48
Overread into Lead-In and Lead-Out : No
Fill up missing offset samples with silence : Yes
Delete leading and trailing silent blocks : No
Null samples used in CRC calculations : Yes
Used interface : Native Win32 interface for Win NT & 2000
Gap handling : Appended to previous track

Used output format : User Defined Encoder
Selected bitrate : 128 kBit/s
Quality : High
Add ID3 tag : No
Command line compressor : C:\Program Files (x86)\Exact Audio Copy\Flac\flac.exe
Additional command line options : -8 -V -T "ARTIST=%artist%" -T "TITLE=%title%" -T "ALBUM=%albumtitle%" -T "DATE=%year%" -T "TRACKNUMBER=%tracknr%" -T "TOTALTRACKS=%numtracks%" -T "GENRE=%genre%" -T "ALBUMARTIST=%albumartist%" -T "ALBUM ARTIST=%albumartist%" -T "COMMENT=EAC Secure Mode, Test & Copy, AccurateRip, FLAC -8" %source%


TOC of the extracted CD

Track | Start | Length | Start sector | End sector
––––––––––––––––––––––––––––-
1 | 0:00.37 | 4:14.43 | 37 | 19129
2 | 4:15.05 | 4:23.32 | 19130 | 38886
3 | 8:38.37 | 3:30.55 | 38887 | 54691
4 | 12:09.17 | 3:21.73 | 54692 | 69839
5 | 15:31.15 | 3:15.60 | 69840 | 84524
6 | 18:47.00 | 21:57.00 | 84525 | 183299
7 | 40:44.00 | 6:42.55 | 183300 | 213504
8 | 47:26.55 | 3:53.42 | 213505 | 231021
9 | 51:20.22 | 4:06.10 | 231022 | 249481
10 | 55:26.32 | 0:59.68 | 249482 | 253974
11 | 56:26.25 | 7:52.57 | 253975 | 289431


Track 1

Filename F:\EAC\Thelonious Monk - The Complete Riverside Recordings (1988) [FLAC] {Riverside, VDJ-25010~24, 15CD}\Disc3\01 - I Don't Stand a Ghost of a Chance With You (take 5).wav

Pre-gap length 0:00:02.37

Peak level 56.7 %
Extraction speed 1.3 X
Track quality 100.0 %
Test CRC AB2B4719
Copy CRC AB2B4719
Track not present in AccurateRip database
Copy OK

Track 2

Filename F:\EAC\Thelonious Monk - The Complete Riverside Recordings (1988) [FLAC] {Riverside, VDJ-25010~24, 15CD}\Disc3\02 - I Don't Stand a Ghost of a Chance With You (take 7).wav

Pre-gap length 0:00:01.50

Peak level 48.1 %
Extraction speed 1.4 X
Track quality 100.0 %
Test CRC 2BD38EE8
Copy CRC 2BD38EE8
Track not present in AccurateRip database
Copy OK

Track 3

Filename F:\EAC\Thelonious Monk - The Complete Riverside Recordings (1988) [FLAC] {Riverside, VDJ-25010~24, 15CD}\Disc3\03 - I Should Care (take 1).wav

Pre-gap length 0:00:01.34

Peak level 84.2 %
Extraction speed 1.5 X
Track quality 100.0 %
Test CRC 5E07ADED
Copy CRC 5E07ADED
Track not present in AccurateRip database
Copy OK

Track 4

Filename F:\EAC\Thelonious Monk - The Complete Riverside Recordings (1988) [FLAC] {Riverside, VDJ-25010~24, 15CD}\Disc3\04 - I Should Care (take 2).wav

Pre-gap length 0:00:01.59

Peak level 68.1 %
Extraction speed 1.6 X
Track quality 100.0 %
Test CRC 17259448
Copy CRC 17259448
Track not present in AccurateRip database
Copy OK

Track 5

Filename F:\EAC\Thelonious Monk - The Complete Riverside Recordings (1988) [FLAC] {Riverside, VDJ-25010~24, 15CD}\Disc3\05 - I Should Care (take 3).wav

Pre-gap length 0:00:02.05

Peak level 68.6 %
Extraction speed 1.6 X
Track quality 100.0 %
Test CRC C281E070
Copy CRC C281E070
Track not present in AccurateRip database
Copy OK

Track 6

Filename F:\EAC\Thelonious Monk - The Complete Riverside Recordings (1988) [FLAC] {Riverside, VDJ-25010~24, 15CD}\Disc3\06 - 'Round Midnight (in progress).wav

Pre-gap length 0:00:02.17

Peak level 100.0 %
Extraction speed 2.2 X
Track quality 99.9 %
Test CRC 92E52DC3
Copy CRC 92E52DC3
Track not present in AccurateRip database
Copy OK

Track 7

Filename F:\EAC\Thelonious Monk - The Complete Riverside Recordings (1988) [FLAC] {Riverside, VDJ-25010~24, 15CD}\Disc3\07 - 'Round Midnight (take 7).wav

Pre-gap length 0:00:01.35

Peak level 99.6 %
Extraction speed 2.2 X
Track quality 99.9 %
Test CRC 9E437855
Copy CRC 9E437855
Track not present in AccurateRip database
Copy OK

Track 8

Filename F:\EAC\Thelonious Monk - The Complete Riverside Recordings (1988) [FLAC] {Riverside, VDJ-25010~24, 15CD}\Disc3\08 - April in Paris.wav

Pre-gap length 0:00:01.37

Peak level 86.4 %
Extraction speed 2.3 X
Track quality 100.0 %
Test CRC 0364C4B8
Copy CRC 0364C4B8
Track not present in AccurateRip database
Copy OK

Track 9

Filename F:\EAC\Thelonious Monk - The Complete Riverside Recordings (1988) [FLAC] {Riverside, VDJ-25010~24, 15CD}\Disc3\09 - I'm Getting Sentimental over You.wav

Pre-gap length 0:00:01.32

Peak level 68.0 %
Extraction speed 2.4 X
Track quality 100.0 %
Test CRC 643507CF
Copy CRC 643507CF
Track not present in AccurateRip database
Copy OK

Track 10

Filename F:\EAC\Thelonious Monk - The Complete Riverside Recordings (1988) [FLAC] {Riverside, VDJ-25010~24, 15CD}\Disc3\10 - Monk's Mood (false start).wav

Pre-gap length 0:00:01.64

Peak level 66.2 %
Extraction speed 1.8 X
Track quality 100.0 %
Test CRC DF431443
Copy CRC DF431443
Track not present in AccurateRip database
Copy OK

Track 11

Filename F:\EAC\Thelonious Monk - The Complete Riverside Recordings (1988) [FLAC] {Riverside, VDJ-25010~24, 15CD}\Disc3\11 - Monk's Mood.wav

Pre-gap length 0:00:02.67

Peak level 86.5 %
Extraction speed 2.5 X
Track quality 99.9 %
Test CRC 8F7F4083
Copy CRC 8F7F4083
Track not present in AccurateRip database
Copy OK


None of the tracks are present in the AccurateRip database

No errors occurred

End of status report

==== Log checksum 2C3127D423AAE87CD88294C54F0373BF7AAE66123D011255022CD03758258CF5 ====
Exact Audio Copy V1.0 beta 3 from 29. August 2011

EAC extraction logfile from 11. January 2017, 16:48

Thelonious Monk / The Complete Riverside Recordings (Disc 4)

Used drive : HL-DT-STDVDRAM GU70N Adapter: 0 ID: 0

Read mode : Secure
Utilize accurate stream : Yes
Defeat audio cache : Yes
Make use of C2 pointers : No

Read offset correction : 48
Overread into Lead-In and Lead-Out : No
Fill up missing offset samples with silence : Yes
Delete leading and trailing silent blocks : No
Null samples used in CRC calculations : Yes
Used interface : Native Win32 interface for Win NT & 2000
Gap handling : Appended to previous track

Used output format : User Defined Encoder
Selected bitrate : 128 kBit/s
Quality : High
Add ID3 tag : No
Command line compressor : C:\Program Files (x86)\Exact Audio Copy\Flac\flac.exe
Additional command line options : -8 -V -T "ARTIST=%artist%" -T "TITLE=%title%" -T "ALBUM=%albumtitle%" -T "DATE=%year%" -T "TRACKNUMBER=%tracknr%" -T "TOTALTRACKS=%numtracks%" -T "GENRE=%genre%" -T "ALBUMARTIST=%albumartist%" -T "ALBUM ARTIST=%albumartist%" -T "COMMENT=EAC Secure Mode, Test & Copy, AccurateRip, FLAC -8" %source%


TOC of the extracted CD

Track | Start | Length | Start sector | End sector
––––––––––––––––––––––––––––-
1 | 0:00.37 | 9:44.70 | 37 | 43906
2 | 9:45.32 | 9:20.30 | 43907 | 85936
3 | 19:05.62 | 4:53.05 | 85937 | 107916
4 | 23:58.67 | 4:34.68 | 107917 | 128534
5 | 28:33.60 | 1:02.45 | 128535 | 133229
6 | 29:36.30 | 13:33.55 | 133230 | 194259
7 | 43:10.10 | 5:15.40 | 194260 | 217924
8 | 48:25.50 | 5:09.70 | 217925 | 241169
9 | 53:35.45 | 0:55.00 | 241170 | 245294
10 | 54:30.45 | 4:47.47 | 245295 | 266866
11 | 59:18.17 | 4:39.63 | 266867 | 287854


Track 1

Filename F:\EAC\Thelonious Monk - The Complete Riverside Recordings (1988) [FLAC] {Riverside, VDJ-25010~24, 15CD}\Disc4\01 - Functional (take 1 - alternate).wav

Pre-gap length 0:00:02.37

Peak level 81.3 %
Extraction speed 1.4 X
Track quality 99.9 %
Test CRC AF230843
Copy CRC AF230843
Track not present in AccurateRip database
Copy OK

Track 2

Filename F:\EAC\Thelonious Monk - The Complete Riverside Recordings (1988) [FLAC] {Riverside, VDJ-25010~24, 15CD}\Disc4\02 - Functional (take 2).wav

Pre-gap length 0:00:01.37

Peak level 55.5 %
Extraction speed 1.7 X
Track quality 99.9 %
Test CRC 7D39A515
Copy CRC 7D39A515
Track not present in AccurateRip database
Copy OK

Track 3

Filename F:\EAC\Thelonious Monk - The Complete Riverside Recordings (1988) [FLAC] {Riverside, VDJ-25010~24, 15CD}\Disc4\03 - All Alone.wav

Pre-gap length 0:00:01.64

Peak level 65.9 %
Extraction speed 1.8 X
Track quality 100.0 %
Test CRC 0C427C28
Copy CRC 0C427C28
Track not present in AccurateRip database
Copy OK

Track 4

Filename F:\EAC\Thelonious Monk - The Complete Riverside Recordings (1988) [FLAC] {Riverside, VDJ-25010~24, 15CD}\Disc4\04 - Crepuscule With Nellie (take 1).wav

Pre-gap length 0:00:01.37

Peak level 96.4 %
Extraction speed 1.7 X
Track quality 99.9 %
Test CRC E86ECF45
Copy CRC E86ECF45
Track not present in AccurateRip database
Copy OK

Track 5

Filename F:\EAC\Thelonious Monk - The Complete Riverside Recordings (1988) [FLAC] {Riverside, VDJ-25010~24, 15CD}\Disc4\05 - Crepuscule With Nellie (breakdown).wav

Pre-gap length 0:00:00.35

Peak level 79.4 %
Extraction speed 1.4 X
Track quality 100.0 %
Test CRC 9DB8D9DF
Copy CRC 9DB8D9DF
Track not present in AccurateRip database
Copy OK

Track 6

Filename F:\EAC\Thelonious Monk - The Complete Riverside Recordings (1988) [FLAC] {Riverside, VDJ-25010~24, 15CD}\Disc4\06 - Blues for Tomorrow.wav

Pre-gap length 0:00:01.37

Peak level 100.0 %
Extraction speed 2.2 X
Track quality 99.9 %
Test CRC 91576BB9
Copy CRC 91576BB9
Track not present in AccurateRip database
Copy OK

Track 7

Filename F:\EAC\Thelonious Monk - The Complete Riverside Recordings (1988) [FLAC] {Riverside, VDJ-25010~24, 15CD}\Disc4\07 - Off Minor (take 4 - alternate).wav

Pre-gap length 0:00:01.38

Peak level 100.0 %
Extraction speed 2.4 X
Track quality 100.0 %
Test CRC 2B8C9F52
Copy CRC 2B8C9F52
Track not present in AccurateRip database
Copy OK

Track 8

Filename F:\EAC\Thelonious Monk - The Complete Riverside Recordings (1988) [FLAC] {Riverside, VDJ-25010~24, 15CD}\Disc4\08 - Off Minor (take 5).wav

Pre-gap length 0:00:01.37

Peak level 100.0 %
Extraction speed 2.5 X
Track quality 100.0 %
Test CRC D2800E16
Copy CRC D2800E16
Track not present in AccurateRip database
Copy OK

Track 9

Filename F:\EAC\Thelonious Monk - The Complete Riverside Recordings (1988) [FLAC] {Riverside, VDJ-25010~24, 15CD}\Disc4\09 - Abide with Me.wav

Pre-gap length 0:00:01.70

Peak level 83.7 %
Extraction speed 1.7 X
Track quality 100.0 %
Test CRC CBB4E87C
Copy CRC CBB4E87C
Track not present in AccurateRip database
Copy OK

Track 10

Filename F:\EAC\Thelonious Monk - The Complete Riverside Recordings (1988) [FLAC] {Riverside, VDJ-25010~24, 15CD}\Disc4\10 - Crepuscule With Nellie (take 4,5).wav

Pre-gap length 0:00:01.15

Peak level 100.0 %
Extraction speed 2.5 X
Track quality 100.0 %
Test CRC C0FA8A76
Copy CRC C0FA8A76
Track not present in AccurateRip database
Copy OK

Track 11

Filename F:\EAC\Thelonious Monk - The Complete Riverside Recordings (1988) [FLAC] {Riverside, VDJ-25010~24, 15CD}\Disc4\11 - Crepuscule With Nellie (take 6).wav

Pre-gap length 0:00:01.37

Peak level 65.1 %
Extraction speed 2.3 X
Track quality 99.9 %
Test CRC 0E655215
Copy CRC 0E655215
Track not present in AccurateRip database
Copy OK


None of the tracks are present in the AccurateRip database

No errors occurred

End of status report

==== Log checksum 32CA7D446B4A0091584D3FC051FB967B6AE71B6F11F64EFE47CA394795944F4F ====
Exact Audio Copy V1.0 beta 3 from 29. August 2011

EAC extraction logfile from 11. January 2017, 20:35

Telonious Monk / The Complete Riverside Recordings (Disc 5)

Used drive : HL-DT-STDVDRAM GU70N Adapter: 0 ID: 0

Read mode : Secure
Utilize accurate stream : Yes
Defeat audio cache : Yes
Make use of C2 pointers : No

Read offset correction : 48
Overread into Lead-In and Lead-Out : No
Fill up missing offset samples with silence : Yes
Delete leading and trailing silent blocks : No
Null samples used in CRC calculations : Yes
Used interface : Native Win32 interface for Win NT & 2000
Gap handling : Appended to previous track

Used output format : User Defined Encoder
Selected bitrate : 128 kBit/s
Quality : High
Add ID3 tag : No
Command line compressor : C:\Program Files (x86)\Exact Audio Copy\Flac\flac.exe
Additional command line options : -8 -V -T "ARTIST=%artist%" -T "TITLE=%title%" -T "ALBUM=%albumtitle%" -T "DATE=%year%" -T "TRACKNUMBER=%tracknr%" -T "TOTALTRACKS=%numtracks%" -T "GENRE=%genre%" -T "ALBUMARTIST=%albumartist%" -T "ALBUM ARTIST=%albumartist%" -T "COMMENT=EAC Secure Mode, Test & Copy, AccurateRip, FLAC -8" %source%


TOC of the extracted CD

Track | Start | Length | Start sector | End sector
––––––––––––––––––––––––––––-
1 | 0:00.37 | 1:46.73 | 37 | 8059
2 | 1:47.35 | 10:45.72 | 8060 | 56506
3 | 12:33.32 | 1:26.33 | 56507 | 62989
4 | 13:59.65 | 11:25.07 | 62990 | 114371
5 | 25:24.72 | 5:26.73 | 114372 | 138894
6 | 30:51.70 | 6:19.47 | 138895 | 167366
7 | 37:11.42 | 6:39.23 | 167367 | 197314
8 | 43:50.65 | 6:39.30 | 197315 | 227269
9 | 50:30.20 | 5:29.20 | 227270 | 251964
10 | 55:59.40 | 6:59.40 | 251965 | 283429
11 | 62:59.05 | 5:19.42 | 283430 | 307396


Track 1

Filename F:\EAC\Thelonious Monk - The Complete Riverside Recordings (1988) [FLAC] {Riverside, VDJ-25010~24, 15CD}\Disc5\01 - Epistrophy - fragment.wav

Pre-gap length 0:00:02.37

Peak level 74.6 %
Extraction speed 1.0 X
Track quality 100.0 %
Test CRC 11069CB5
Copy CRC 11069CB5
Track not present in AccurateRip database
Copy OK

Track 2

Filename F:\EAC\Thelonious Monk - The Complete Riverside Recordings (1988) [FLAC] {Riverside, VDJ-25010~24, 15CD}\Disc5\02 - Epistrophy.wav

Pre-gap length 0:00:00.57

Peak level 100.0 %
Extraction speed 1.5 X
Track quality 100.0 %
Test CRC 76CBF780
Copy CRC 76CBF780
Track not present in AccurateRip database
Copy OK

Track 3

Filename F:\EAC\Thelonious Monk - The Complete Riverside Recordings (1988) [FLAC] {Riverside, VDJ-25010~24, 15CD}\Disc5\03 - Well, you needn't - opening.wav

Pre-gap length 0:00:00.62

Peak level 100.0 %
Extraction speed 1.3 X
Track quality 100.0 %
Test CRC CC8FCFB5
Copy CRC CC8FCFB5
Track not present in AccurateRip database
Copy OK

Track 4

Filename F:\EAC\Thelonious Monk - The Complete Riverside Recordings (1988) [FLAC] {Riverside, VDJ-25010~24, 15CD}\Disc5\04 - Well, you needn't.wav

Pre-gap length 0:00:00.45

Peak level 100.0 %
Extraction speed 1.9 X
Track quality 100.0 %
Test CRC A94F6545
Copy CRC A94F6545
Track not present in AccurateRip database
Copy OK

Track 5

Filename F:\EAC\Thelonious Monk - The Complete Riverside Recordings (1988) [FLAC] {Riverside, VDJ-25010~24, 15CD}\Disc5\05 - Ruby, my dear.wav

Pre-gap length 0:00:01.47

Peak level 80.6 %
Extraction speed 1.8 X
Track quality 99.9 %
Test CRC 38B44C96
Copy CRC 38B44C96
Track not present in AccurateRip database
Copy OK

Track 6

Filename F:\EAC\Thelonious Monk - The Complete Riverside Recordings (1988) [FLAC] {Riverside, VDJ-25010~24, 15CD}\Disc5\06 - Ruby, my dear (with John Coltrane).wav

Pre-gap length 0:00:01.47

Peak level 73.2 %
Extraction speed 2.2 X
Track quality 100.0 %
Test CRC 06CD9692
Copy CRC 06CD9692
Track not present in AccurateRip database
Copy OK

Track 7

Filename F:\EAC\Thelonious Monk - The Complete Riverside Recordings (1988) [FLAC] {Riverside, VDJ-25010~24, 15CD}\Disc5\07 - Nutty.wav

Pre-gap length 0:00:00.09

Peak level 91.5 %
Extraction speed 2.3 X
Track quality 100.0 %
Test CRC FA3FD115
Copy CRC FA3FD115
Track not present in AccurateRip database
Copy OK

Track 8

Filename F:\EAC\Thelonious Monk - The Complete Riverside Recordings (1988) [FLAC] {Riverside, VDJ-25010~24, 15CD}\Disc5\08 - Trinkle, tinkle.wav

Pre-gap length 0:00:02.27

Peak level 88.0 %
Extraction speed 2.3 X
Track quality 99.9 %
Test CRC 82BE141B
Copy CRC 82BE141B
Track not present in AccurateRip database
Copy OK

Track 9

Filename F:\EAC\Thelonious Monk - The Complete Riverside Recordings (1988) [FLAC] {Riverside, VDJ-25010~24, 15CD}\Disc5\09 - Straight, no chaser (take 1, alternate).wav

Pre-gap length 0:00:00.30

Peak level 70.1 %
Extraction speed 2.5 X
Track quality 100.0 %
Test CRC 4E65D80E
Copy CRC 4E65D80E
Track not present in AccurateRip database
Copy OK

Track 10

Filename F:\EAC\Thelonious Monk - The Complete Riverside Recordings (1988) [FLAC] {Riverside, VDJ-25010~24, 15CD}\Disc5\10 - Straight, no chaser (take 3, originally issued).wav

Pre-gap length 0:00:01.35

Peak level 81.3 %
Extraction speed 2.7 X
Track quality 100.0 %
Test CRC 1C9A6EAD
Copy CRC 1C9A6EAD
Track not present in AccurateRip database
Copy OK

Track 11

Filename F:\EAC\Thelonious Monk - The Complete Riverside Recordings (1988) [FLAC] {Riverside, VDJ-25010~24, 15CD}\Disc5\11 - Rhythm-a-ning.wav

Pre-gap length 0:00:01.40

Peak level 98.8 %
Extraction speed 2.7 X
Track quality 100.0 %
Test CRC 5F9BDB89
Copy CRC 5F9BDB89
Track not present in AccurateRip database
Copy OK


None of the tracks are present in the AccurateRip database

No errors occurred

End of status report

==== Log checksum DF2D78E36CE470963C374836F4F2EB8A782C67937EFDC06859BD7810A6CCF19E ====
Exact Audio Copy V1.0 beta 3 from 29. August 2011

EAC extraction logfile from 11. January 2017, 21:53

Thelonious Monk / The Complete Riverside Recordings (Disc 6)

Used drive : HL-DT-STDVDRAM GU70N Adapter: 0 ID: 0

Read mode : Secure
Utilize accurate stream : Yes
Defeat audio cache : Yes
Make use of C2 pointers : No

Read offset correction : 48
Overread into Lead-In and Lead-Out : No
Fill up missing offset samples with silence : Yes
Delete leading and trailing silent blocks : No
Null samples used in CRC calculations : Yes
Used interface : Native Win32 interface for Win NT & 2000
Gap handling : Appended to previous track

Used output format : User Defined Encoder
Selected bitrate : 128 kBit/s
Quality : High
Add ID3 tag : No
Command line compressor : C:\Program Files (x86)\Exact Audio Copy\Flac\flac.exe
Additional command line options : -8 -V -T "ARTIST=%artist%" -T "TITLE=%title%" -T "ALBUM=%albumtitle%" -T "DATE=%year%" -T "TRACKNUMBER=%tracknr%" -T "TOTALTRACKS=%numtracks%" -T "GENRE=%genre%" -T "ALBUMARTIST=%albumartist%" -T "ALBUM ARTIST=%albumartist%" -T "COMMENT=EAC Secure Mode, Test & Copy, AccurateRip, FLAC -8" %source%


TOC of the extracted CD

Track | Start | Length | Start sector | End sector
––––––––––––––––––––––––––––-
1 | 0:00.37 | 6:22.55 | 37 | 28741
2 | 6:23.17 | 6:32.60 | 28742 | 58201
3 | 12:56.02 | 6:54.00 | 58202 | 89251
4 | 19:50.02 | 8:30.10 | 89252 | 127511
5 | 28:20.12 | 5:54.15 | 127512 | 154076
6 | 34:14.27 | 6:37.53 | 154077 | 183904
7 | 40:52.05 | 7:16.32 | 183905 | 216636
8 | 48:08.37 | 6:04.45 | 216637 | 243981
9 | 54:13.07 | 4:42.53 | 243982 | 265184
10 | 58:55.60 | 7:20.42 | 265185 | 298226


Track 1

Filename F:\EAC\Thelonious Monk - The Complete Riverside Recordings (1988) [FLAC] {Riverside, VDJ-25010~24, 15CD}\Disc6\01 - I Mean You (Take 1 - alternate).wav

Pre-gap length 0:00:02.37

Peak level 100.0 %
Extraction speed 1.4 X
Track quality 100.0 %
Test CRC EA0FB9AF
Copy CRC EA0FB9AF
Track not present in AccurateRip database
Copy OK

Track 2

Filename F:\EAC\Thelonious Monk - The Complete Riverside Recordings (1988) [FLAC] {Riverside, VDJ-25010~24, 15CD}\Disc6\02 - I Mean You (Take 2 - alternate).wav

Pre-gap length 0:00:00.35

Peak level 100.0 %
Extraction speed 1.6 X
Track quality 100.0 %
Test CRC 643FCD96
Copy CRC 643FCD96
Track not present in AccurateRip database
Copy OK

Track 3

Filename F:\EAC\Thelonious Monk - The Complete Riverside Recordings (1988) [FLAC] {Riverside, VDJ-25010~24, 15CD}\Disc6\03 - I Mean You (Take 4 - originally issued).wav

Pre-gap length 0:00:01.53

Peak level 100.0 %
Extraction speed 1.6 X
Track quality 99.9 %
Test CRC A31D9E21
Copy CRC A31D9E21
Track not present in AccurateRip database
Copy OK

Track 4

Filename F:\EAC\Thelonious Monk - The Complete Riverside Recordings (1988) [FLAC] {Riverside, VDJ-25010~24, 15CD}\Disc6\04 - 'Round Midnight.wav

Pre-gap length 0:00:02.48

Peak level 100.0 %
Extraction speed 2.0 X
Track quality 100.0 %
Test CRC FDD6BCD1
Copy CRC FDD6BCD1
Track not present in AccurateRip database
Copy OK

Track 5

Filename F:\EAC\Thelonious Monk - The Complete Riverside Recordings (1988) [FLAC] {Riverside, VDJ-25010~24, 15CD}\Disc6\05 - Decidedly (Take 4 - originally issued stereo take).wav

Pre-gap length 0:00:02.33

Peak level 87.2 %
Extraction speed 1.9 X
Track quality 99.9 %
Test CRC B3B70ED0
Copy CRC B3B70ED0
Track not present in AccurateRip database
Copy OK

Track 6

Filename F:\EAC\Thelonious Monk - The Complete Riverside Recordings (1988) [FLAC] {Riverside, VDJ-25010~24, 15CD}\Disc6\06 - Decidedly (Take 5 - originally issued monaural take).wav

Pre-gap length 0:00:02.10

Peak level 100.0 %
Extraction speed 2.1 X
Track quality 99.9 %
Test CRC 3C036A33
Copy CRC 3C036A33
Track not present in AccurateRip database
Copy OK

Track 7

Filename F:\EAC\Thelonious Monk - The Complete Riverside Recordings (1988) [FLAC] {Riverside, VDJ-25010~24, 15CD}\Disc6\07 - Sweet and Lovely.wav

Pre-gap length 0:00:02.33

Peak level 96.4 %
Extraction speed 2.4 X
Track quality 100.0 %
Test CRC 8FA69B5C
Copy CRC 8FA69B5C
Track not present in AccurateRip database
Copy OK

Track 8

Filename F:\EAC\Thelonious Monk - The Complete Riverside Recordings (1988) [FLAC] {Riverside, VDJ-25010~24, 15CD}\Disc6\08 - Coming On The Hudson.wav

Pre-gap length 0:00:01.23

Peak level 96.4 %
Extraction speed 2.5 X
Track quality 100.0 %
Test CRC 5E5EA16E
Copy CRC 5E5EA16E
Track not present in AccurateRip database
Copy OK

Track 9

Filename F:\EAC\Thelonious Monk - The Complete Riverside Recordings (1988) [FLAC] {Riverside, VDJ-25010~24, 15CD}\Disc6\09 - In Orbit.wav

Pre-gap length 0:00:01.28

Peak level 100.0 %
Extraction speed 2.5 X
Track quality 100.0 %
Test CRC 3A4F5DDC
Copy CRC 3A4F5DDC
Track not present in AccurateRip database
Copy OK

Track 10

Filename F:\EAC\Thelonious Monk - The Complete Riverside Recordings (1988) [FLAC] {Riverside, VDJ-25010~24, 15CD}\Disc6\10 - One Foot In The Gutter.wav

Pre-gap length 0:00:02.21

Peak level 100.0 %
Extraction speed 2.6 X
Track quality 99.9 %
Test CRC 7F7A0B85
Copy CRC 7F7A0B85
Track not present in AccurateRip database
Copy OK


None of the tracks are present in the AccurateRip database

No errors occurred

End of status report

==== Log checksum B4E0508566011A76203614C2FF90E1D8827CC4627CD56628C1795FA3679C4153 ====
Exact Audio Copy V1.0 beta 3 from 29. August 2011

EAC extraction logfile from 11. January 2017, 23:15

Thelonious Monk / The Complete Riverside Recordings (Disc 7)

Used drive : HL-DT-STDVDRAM GU70N Adapter: 0 ID: 0

Read mode : Secure
Utilize accurate stream : Yes
Defeat audio cache : Yes
Make use of C2 pointers : No

Read offset correction : 48
Overread into Lead-In and Lead-Out : No
Fill up missing offset samples with silence : Yes
Delete leading and trailing silent blocks : No
Null samples used in CRC calculations : Yes
Used interface : Native Win32 interface for Win NT & 2000
Gap handling : Appended to previous track

Used output format : User Defined Encoder
Selected bitrate : 128 kBit/s
Quality : High
Add ID3 tag : No
Command line compressor : C:\Program Files (x86)\Exact Audio Copy\Flac\flac.exe
Additional command line options : -8 -V -T "ARTIST=%artist%" -T "TITLE=%title%" -T "ALBUM=%albumtitle%" -T "DATE=%year%" -T "TRACKNUMBER=%tracknr%" -T "TOTALTRACKS=%numtracks%" -T "GENRE=%genre%" -T "ALBUMARTIST=%albumartist%" -T "ALBUM ARTIST=%albumartist%" -T "COMMENT=EAC Secure Mode, Test & Copy, AccurateRip, FLAC -8" %source%


TOC of the extracted CD

Track | Start | Length | Start sector | End sector
––––––––––––––––––––––––––––-
1 | 0:00.37 | 4:32.15 | 37 | 20451
2 | 4:32.52 | 4:56.65 | 20452 | 42716
3 | 9:29.42 | 4:30.38 | 42717 | 63004
4 | 14:00.05 | 6:14.05 | 63005 | 91059
5 | 20:14.10 | 2:36.15 | 91060 | 102774
6 | 22:50.25 | 3:23.70 | 102775 | 118069
7 | 26:14.20 | 7:02.67 | 118070 | 149786
8 | 33:17.12 | 3:05.43 | 149787 | 163704
9 | 36:22.55 | 10:16.40 | 163705 | 209944
10 | 46:39.20 | 9:56.20 | 209945 | 254664
11 | 56:35.40 | 10:57.15 | 254665 | 303954


Track 1

Filename F:\EAC\Thelonious Monk - The Complete Riverside Recordings (1988) [FLAC] {Riverside, VDJ-25010~24, 15CD}\Disc7\01 - Trust In Me.wav

Pre-gap length 0:00:02.37

Peak level 77.1 %
Extraction speed 1.3 X
Track quality 100.0 %
Test CRC 80C1E143
Copy CRC 80C1E143
Track not present in AccurateRip database
Copy OK

Track 2

Filename F:\EAC\Thelonious Monk - The Complete Riverside Recordings (1988) [FLAC] {Riverside, VDJ-25010~24, 15CD}\Disc7\02 - Let's Cool One.wav

Pre-gap length 0:00:01.15

Peak level 100.0 %
Extraction speed 1.4 X
Track quality 100.0 %
Test CRC BCD9CB02
Copy CRC BCD9CB02
Track not present in AccurateRip database
Copy OK

Track 3

Filename F:\EAC\Thelonious Monk - The Complete Riverside Recordings (1988) [FLAC] {Riverside, VDJ-25010~24, 15CD}\Disc7\03 - Pea Eye.wav

Pre-gap length 0:00:01.15

Peak level 100.0 %
Extraction speed 1.6 X
Track quality 100.0 %
Test CRC 3DB2FB99
Copy CRC 3DB2FB99
Track not present in AccurateRip database
Copy OK

Track 4

Filename F:\EAC\Thelonious Monk - The Complete Riverside Recordings (1988) [FLAC] {Riverside, VDJ-25010~24, 15CD}\Disc7\04 - Argentia.wav

Pre-gap length 0:00:01.38

Peak level 90.3 %
Extraction speed 1.8 X
Track quality 100.0 %
Test CRC E4D10459
Copy CRC E4D10459
Track not present in AccurateRip database
Copy OK

Track 5

Filename F:\EAC\Thelonious Monk - The Complete Riverside Recordings (1988) [FLAC] {Riverside, VDJ-25010~24, 15CD}\Disc7\05 - Moonlight Fiesta.wav

Pre-gap length 0:00:01.38

Peak level 90.2 %
Extraction speed 1.7 X
Track quality 100.0 %
Test CRC 0270F10C
Copy CRC 0270F10C
Track not present in AccurateRip database
Copy OK

Track 6

Filename F:\EAC\Thelonious Monk - The Complete Riverside Recordings (1988) [FLAC] {Riverside, VDJ-25010~24, 15CD}\Disc7\06 - Buck's Business.wav

Pre-gap length 0:00:01.38

Peak level 96.4 %
Extraction speed 1.8 X
Track quality 100.0 %
Test CRC C46F7FCC
Copy CRC C46F7FCC
Track not present in AccurateRip database
Copy OK

Track 7

Filename F:\EAC\Thelonious Monk - The Complete Riverside Recordings (1988) [FLAC] {Riverside, VDJ-25010~24, 15CD}\Disc7\07 - Flugelin' The Blues.wav

Pre-gap length 0:00:01.38

Peak level 96.4 %
Extraction speed 2.1 X
Track quality 100.0 %
Test CRC 10B03452
Copy CRC 10B03452
Track not present in AccurateRip database
Copy OK

Track 8

Filename F:\EAC\Thelonious Monk - The Complete Riverside Recordings (1988) [FLAC] {Riverside, VDJ-25010~24, 15CD}\Disc7\08 - Very Near Blue.wav

Pre-gap length 0:00:01.47

Peak level 73.5 %
Extraction speed 1.7 X
Track quality 99.9 %
Test CRC 7915DD51
Copy CRC 7915DD51
Track not present in AccurateRip database
Copy OK

Track 9

Filename F:\EAC\Thelonious Monk - The Complete Riverside Recordings (1988) [FLAC] {Riverside, VDJ-25010~24, 15CD}\Disc7\09 - Evidence (previously unissued).wav

Pre-gap length 0:00:01.28

Peak level 93.0 %
Extraction speed 2.3 X
Track quality 99.9 %
Test CRC 0AA246F4
Copy CRC 0AA246F4
Track not present in AccurateRip database
Copy OK

Track 10

Filename F:\EAC\Thelonious Monk - The Complete Riverside Recordings (1988) [FLAC] {Riverside, VDJ-25010~24, 15CD}\Disc7\10 - Blues Five Spot.wav

Pre-gap length 0:00:01.38

Peak level 96.4 %
Extraction speed 2.5 X
Track quality 99.9 %
Test CRC 42439071
Copy CRC 42439071
Track not present in AccurateRip database
Copy OK

Track 11

Filename F:\EAC\Thelonious Monk - The Complete Riverside Recordings (1988) [FLAC] {Riverside, VDJ-25010~24, 15CD}\Disc7\11 - In Walked Bud - Epistrophy (theme).wav

Pre-gap length 0:00:01.38

Peak level 100.0 %
Extraction speed 2.8 X
Track quality 100.0 %
Test CRC D7F4F9F2
Copy CRC D7F4F9F2
Track not present in AccurateRip database
Copy OK


None of the tracks are present in the AccurateRip database

No errors occurred

End of status report

==== Log checksum E916952C7A56B2FCE04593F94A740CD83CCD4688413F6F9F02E2B5A6F453E9BC ====
Exact Audio Copy V1.0 beta 3 from 29. August 2011

EAC extraction logfile from 12. January 2017, 0:27

Thelonious Monk / The Complete Riverside Recordings (Disc 8)

Used drive : HL-DT-STDVDRAM GU70N Adapter: 0 ID: 0

Read mode : Secure
Utilize accurate stream : Yes
Defeat audio cache : Yes
Make use of C2 pointers : No

Read offset correction : 48
Overread into Lead-In and Lead-Out : No
Fill up missing offset samples with silence : Yes
Delete leading and trailing silent blocks : No
Null samples used in CRC calculations : Yes
Used interface : Native Win32 interface for Win NT & 2000
Gap handling : Appended to previous track

Used output format : User Defined Encoder
Selected bitrate : 128 kBit/s
Quality : High
Add ID3 tag : No
Command line compressor : C:\Program Files (x86)\Exact Audio Copy\Flac\flac.exe
Additional command line options : -8 -V -T "ARTIST=%artist%" -T "TITLE=%title%" -T "ALBUM=%albumtitle%" -T "DATE=%year%" -T "TRACKNUMBER=%tracknr%" -T "TOTALTRACKS=%numtracks%" -T "GENRE=%genre%" -T "ALBUMARTIST=%albumartist%" -T "ALBUM ARTIST=%albumartist%" -T "COMMENT=EAC Secure Mode, Test & Copy, AccurateRip, FLAC -8" %source%


TOC of the extracted CD

Track | Start | Length | Start sector | End sector
––––––––––––––––––––––––––––-
1 | 0:00.37 | 1:56.33 | 37 | 8769
2 | 1:56.70 | 6:18.55 | 8770 | 37174
3 | 8:15.50 | 11:57.05 | 37175 | 90954
4 | 20:12.55 | 5:14.45 | 90955 | 114549
5 | 25:27.25 | 5:23.72 | 114550 | 138846
6 | 30:51.22 | 9:28.55 | 138847 | 181501
7 | 40:20.02 | 2:09.58 | 181502 | 191234
8 | 42:29.60 | 8:29.15 | 191235 | 229424
9 | 50:59.00 | 8:45.47 | 229425 | 268846
10 | 59:44.47 | 1:07.65 | 268847 | 273936


Track 1

Filename F:\EAC\Thelonious Monk - The Complete Riverside Recordings (1988) [FLAC] {Riverside, VDJ-25010~24, 15CD}\Disc8\01 - Unidentified Solo Piano.wav

Pre-gap length 0:00:02.37

Peak level 72.3 %
Extraction speed 1.1 X
Track quality 100.0 %
Test CRC 6610E302
Copy CRC 6610E302
Track not present in AccurateRip database
Copy OK

Track 2

Filename F:\EAC\Thelonious Monk - The Complete Riverside Recordings (1988) [FLAC] {Riverside, VDJ-25010~24, 15CD}\Disc8\02 - 'Round Midnight.wav

Pre-gap length 0:00:02.00

Peak level 100.0 %
Extraction speed 1.4 X
Track quality 100.0 %
Test CRC DCA1D6FE
Copy CRC DCA1D6FE
Track not present in AccurateRip database
Copy OK

Track 3

Filename F:\EAC\Thelonious Monk - The Complete Riverside Recordings (1988) [FLAC] {Riverside, VDJ-25010~24, 15CD}\Disc8\03 - Bye-Ya,Epistrophy (Theme).wav

Pre-gap length 0:00:03.00

Peak level 100.0 %
Extraction speed 1.8 X
Track quality 100.0 %
Test CRC C5035951
Copy CRC C5035951
Track not present in AccurateRip database
Copy OK

Track 4

Filename F:\EAC\Thelonious Monk - The Complete Riverside Recordings (1988) [FLAC] {Riverside, VDJ-25010~24, 15CD}\Disc8\04 - Light Blue.wav

Pre-gap length 0:00:02.40

Peak level 96.4 %
Extraction speed 1.9 X
Track quality 100.0 %
Test CRC 739E49B3
Copy CRC 739E49B3
Track not present in AccurateRip database
Copy OK

Track 5

Filename F:\EAC\Thelonious Monk - The Complete Riverside Recordings (1988) [FLAC] {Riverside, VDJ-25010~24, 15CD}\Disc8\05 - Coming on the Hudson.wav

Peak level 96.4 %
Extraction speed 2.0 X
Track quality 100.0 %
Test CRC B4A49F76
Copy CRC B4A49F76
Track not present in AccurateRip database
Copy OK

Track 6

Filename F:\EAC\Thelonious Monk - The Complete Riverside Recordings (1988) [FLAC] {Riverside, VDJ-25010~24, 15CD}\Disc8\06 - Rhythm-A-Ning.wav

Peak level 100.0 %
Extraction speed 2.2 X
Track quality 99.9 %
Test CRC 943C4728
Copy CRC 943C4728
Track not present in AccurateRip database
Copy OK

Track 7

Filename F:\EAC\Thelonious Monk - The Complete Riverside Recordings (1988) [FLAC] {Riverside, VDJ-25010~24, 15CD}\Disc8\07 - Just a Gigolo.wav

Pre-gap length 0:00:00.49

Peak level 92.0 %
Extraction speed 1.6 X
Track quality 99.9 %
Test CRC ED79C141
Copy CRC ED79C141
Track not present in AccurateRip database
Copy OK

Track 8

Filename F:\EAC\Thelonious Monk - The Complete Riverside Recordings (1988) [FLAC] {Riverside, VDJ-25010~24, 15CD}\Disc8\08 - Blue Monk.wav

Pre-gap length 0:00:01.40

Peak level 96.4 %
Extraction speed 2.5 X
Track quality 100.0 %
Test CRC BFC20D63
Copy CRC BFC20D63
Track not present in AccurateRip database
Copy OK

Track 9

Filename F:\EAC\Thelonious Monk - The Complete Riverside Recordings (1988) [FLAC] {Riverside, VDJ-25010~24, 15CD}\Disc8\09 - Evidence.wav

Peak level 96.4 %
Extraction speed 2.7 X
Track quality 100.0 %
Test CRC 68554BFD
Copy CRC 68554BFD
Track not present in AccurateRip database
Copy OK

Track 10

Filename F:\EAC\Thelonious Monk - The Complete Riverside Recordings (1988) [FLAC] {Riverside, VDJ-25010~24, 15CD}\Disc8\10 - Epistrophy (Theme).wav

Peak level 85.5 %
Extraction speed 1.8 X
Track quality 100.0 %
Test CRC 535B4E3C
Copy CRC 535B4E3C
Track not present in AccurateRip database
Copy OK


None of the tracks are present in the AccurateRip database

No errors occurred

End of status report

==== Log checksum 1F380A08AB7AE00E6623B7B6A6C9C91375A514E57A89D53B068948075E3F3CAD ====
Exact Audio Copy V1.0 beta 3 from 29. August 2011

EAC extraction logfile from 12. January 2017, 21:38

Thelonious Monk / The Complete Riverside Recordings (Disc 9)

Used drive : HL-DT-STDVDRAM GU70N Adapter: 0 ID: 0

Read mode : Secure
Utilize accurate stream : Yes
Defeat audio cache : Yes
Make use of C2 pointers : No

Read offset correction : 48
Overread into Lead-In and Lead-Out : No
Fill up missing offset samples with silence : Yes
Delete leading and trailing silent blocks : No
Null samples used in CRC calculations : Yes
Used interface : Native Win32 interface for Win NT & 2000
Gap handling : Appended to previous track

Used output format : User Defined Encoder
Selected bitrate : 128 kBit/s
Quality : High
Add ID3 tag : No
Command line compressor : C:\Program Files (x86)\Exact Audio Copy\Flac\flac.exe
Additional command line options : -8 -V -T "ARTIST=%artist%" -T "TITLE=%title%" -T "ALBUM=%albumtitle%" -T "DATE=%year%" -T "TRACKNUMBER=%tracknr%" -T "TOTALTRACKS=%numtracks%" -T "GENRE=%genre%" -T "ALBUMARTIST=%albumartist%" -T "ALBUM ARTIST=%albumartist%" -T "COMMENT=EAC Secure Mode, Test & Copy, AccurateRip, FLAC -8" %source%


TOC of the extracted CD

Track | Start | Length | Start sector | End sector
––––––––––––––––––––––––––––-
1 | 0:00.37 | 5:23.00 | 37 | 24261
2 | 5:23.37 | 8:12.65 | 24262 | 61226
3 | 13:36.27 | 9:15.20 | 61227 | 102871
4 | 22:51.47 | 11:20.28 | 102872 | 153899
5 | 34:12.00 | 10:47.50 | 153900 | 202474
6 | 44:59.50 | 1:04.17 | 202475 | 207291
7 | 46:03.67 | 7:08.15 | 207292 | 239406
8 | 53:12.07 | 8:21.25 | 239407 | 277006


Track 1

Filename F:\EAC\Thelonious Monk - The Complete Riverside Recordings (1988) [FLAC] {Riverside, VDJ-25010~24, 15CD}\Disc9\01 - Nutty.wav

Pre-gap length 0:00:02.37

Peak level 82.0 %
Extraction speed 1.2 X
Track quality 99.9 %
Test CRC 19426844
Copy CRC 19426844
Track not present in AccurateRip database
Copy OK

Track 2

Filename F:\EAC\Thelonious Monk - The Complete Riverside Recordings (1988) [FLAC] {Riverside, VDJ-25010~24, 15CD}\Disc9\02 - Blues Five Spot.wav

Peak level 100.0 %
Extraction speed 1.6 X
Track quality 100.0 %
Test CRC 290A6934
Copy CRC 290A6934
Track not present in AccurateRip database
Copy OK

Track 3

Filename F:\EAC\Thelonious Monk - The Complete Riverside Recordings (1988) [FLAC] {Riverside, VDJ-25010~24, 15CD}\Disc9\03 - Let's Cool One.wav

Peak level 97.4 %
Extraction speed 1.9 X
Track quality 100.0 %
Test CRC 9E615EA0
Copy CRC 9E615EA0
Track not present in AccurateRip database
Copy OK

Track 4

Filename F:\EAC\Thelonious Monk - The Complete Riverside Recordings (1988) [FLAC] {Riverside, VDJ-25010~24, 15CD}\Disc9\04 - In Walked Bud.wav

Peak level 100.0 %
Extraction speed 2.1 X
Track quality 100.0 %
Test CRC 826C768C
Copy CRC 826C768C
Track not present in AccurateRip database
Copy OK

Track 5

Filename F:\EAC\Thelonious Monk - The Complete Riverside Recordings (1988) [FLAC] {Riverside, VDJ-25010~24, 15CD}\Disc9\05 - Misterioso.wav

Peak level 76.1 %
Extraction speed 2.4 X
Track quality 100.0 %
Test CRC B90A770E
Copy CRC B90A770E
Track not present in AccurateRip database
Copy OK

Track 6

Filename F:\EAC\Thelonious Monk - The Complete Riverside Recordings (1988) [FLAC] {Riverside, VDJ-25010~24, 15CD}\Disc9\06 - Epistrophy.wav

Peak level 74.6 %
Extraction speed 1.7 X
Track quality 100.0 %
Test CRC 17B0A121
Copy CRC 17B0A121
Track not present in AccurateRip database
Copy OK

Track 7

Filename F:\EAC\Thelonious Monk - The Complete Riverside Recordings (1988) [FLAC] {Riverside, VDJ-25010~24, 15CD}\Disc9\07 - In Walked Bud.wav

Peak level 88.0 %
Extraction speed 2.5 X
Track quality 100.0 %
Test CRC 4FFB0CEA
Copy CRC 4FFB0CEA
Track not present in AccurateRip database
Copy OK

Track 8

Filename F:\EAC\Thelonious Monk - The Complete Riverside Recordings (1988) [FLAC] {Riverside, VDJ-25010~24, 15CD}\Disc9\08 - Blue Monk.wav

Peak level 87.8 %
Extraction speed 2.5 X
Track quality 99.9 %
Test CRC AC8744F6
Copy CRC AC8744F6
Track not present in AccurateRip database
Copy OK


None of the tracks are present in the AccurateRip database

No errors occurred

End of status report

==== Log checksum A366810FE5FA6C3C3813FD626311C4525D531CF08D11ECD9F75AD398E3B1163E ====
Exact Audio Copy V1.0 beta 3 from 29. August 2011

EAC extraction logfile from 12. January 2017, 23:00

Thelonious Monk / The Complete Riverside Recordings (Disc 10)

Used drive : HL-DT-STDVDRAM GU70N Adapter: 0 ID: 0

Read mode : Secure
Utilize accurate stream : Yes
Defeat audio cache : Yes
Make use of C2 pointers : No

Read offset correction : 48
Overread into Lead-In and Lead-Out : No
Fill up missing offset samples with silence : Yes
Delete leading and trailing silent blocks : No
Null samples used in CRC calculations : Yes
Used interface : Native Win32 interface for Win NT & 2000
Gap handling : Appended to previous track

Used output format : User Defined Encoder
Selected bitrate : 128 kBit/s
Quality : High
Add ID3 tag : No
Command line compressor : C:\Program Files (x86)\Exact Audio Copy\Flac\flac.exe
Additional command line options : -8 -V -T "ARTIST=%artist%" -T "TITLE=%title%" -T "ALBUM=%albumtitle%" -T "DATE=%year%" -T "TRACKNUMBER=%tracknr%" -T "TOTALTRACKS=%numtracks%" -T "GENRE=%genre%" -T "ALBUMARTIST=%albumartist%" -T "ALBUM ARTIST=%albumartist%" -T "COMMENT=EAC Secure Mode, Test & Copy, AccurateRip, FLAC -8" %source%


TOC of the extracted CD

Track | Start | Length | Start sector | End sector
––––––––––––––––––––––––––––-
1 | 0:00.37 | 6:53.10 | 37 | 31021
2 | 6:53.47 | 10:21.43 | 31022 | 77639
3 | 17:15.15 | 9:30.22 | 77640 | 120411
4 | 26:45.37 | 8:53.25 | 120412 | 160411
5 | 35:38.62 | 7:50.73 | 160412 | 195734
6 | 43:29.60 | 3:04.17 | 195735 | 209551
7 | 46:34.02 | 4:51.05 | 209552 | 231381
8 | 51:25.07 | 8:30.58 | 231382 | 269689


Track 1

Filename F:\EAC\Thelonious Monk - The Complete Riverside Recordings (1988) [FLAC] {Riverside, VDJ-25010~24, 15CD}\Disc10\01 - Rhythm-A-Ning.wav

Pre-gap length 0:00:02.37

Peak level 100.0 %
Extraction speed 1.4 X
Track quality 100.0 %
Test CRC 3AA09E00
Copy CRC 3AA09E00
Track not present in AccurateRip database
Copy OK

Track 2

Filename F:\EAC\Thelonious Monk - The Complete Riverside Recordings (1988) [FLAC] {Riverside, VDJ-25010~24, 15CD}\Disc10\02 - Monk's Mood.wav

Pre-gap length 0:00:00.57

Peak level 83.4 %
Extraction speed 1.7 X
Track quality 100.0 %
Test CRC 2F2E133E
Copy CRC 2F2E133E
Track not present in AccurateRip database
Copy OK

Track 3

Filename F:\EAC\Thelonious Monk - The Complete Riverside Recordings (1988) [FLAC] {Riverside, VDJ-25010~24, 15CD}\Disc10\03 - Friday The 13th.wav

Pre-gap length 0:00:00.30

Peak level 69.1 %
Extraction speed 1.9 X
Track quality 100.0 %
Test CRC 3AB93988
Copy CRC 3AB93988
Track not present in AccurateRip database
Copy OK

Track 4

Filename F:\EAC\Thelonious Monk - The Complete Riverside Recordings (1988) [FLAC] {Riverside, VDJ-25010~24, 15CD}\Disc10\04 - Little Rootie Tootie.wav

Peak level 83.1 %
Extraction speed 2.2 X
Track quality 100.0 %
Test CRC 018EF9F4
Copy CRC 018EF9F4
Track not present in AccurateRip database
Copy OK

Track 5

Filename F:\EAC\Thelonious Monk - The Complete Riverside Recordings (1988) [FLAC] {Riverside, VDJ-25010~24, 15CD}\Disc10\05 - Off Minor.wav

Pre-gap length 0:00:00.29

Peak level 96.4 %
Extraction speed 2.3 X
Track quality 100.0 %
Test CRC B59BA401
Copy CRC B59BA401
Track not present in AccurateRip database
Copy OK

Track 6

Filename F:\EAC\Thelonious Monk - The Complete Riverside Recordings (1988) [FLAC] {Riverside, VDJ-25010~24, 15CD}\Disc10\06 - Thelonious.wav

Pre-gap length 0:00:00.65

Peak level 81.1 %
Extraction speed 1.9 X
Track quality 99.9 %
Test CRC 331F43DB
Copy CRC 331F43DB
Track not present in AccurateRip database
Copy OK

Track 7

Filename F:\EAC\Thelonious Monk - The Complete Riverside Recordings (1988) [FLAC] {Riverside, VDJ-25010~24, 15CD}\Disc10\07 - Crepuscule with Nellie.wav

Pre-gap length 0:00:00.27

Peak level 88.6 %
Extraction speed 2.4 X
Track quality 100.0 %
Test CRC CE38B1B8
Copy CRC CE38B1B8
Track not present in AccurateRip database
Copy OK

Track 8

Filename F:\EAC\Thelonious Monk - The Complete Riverside Recordings (1988) [FLAC] {Riverside, VDJ-25010~24, 15CD}\Disc10\08 - Little Rootie Tootie - encore.wav

Pre-gap length 0:00:00.33

Peak level 84.0 %
Extraction speed 2.7 X
Track quality 100.0 %
Test CRC 447D4B16
Copy CRC 447D4B16
Track not present in AccurateRip database
Copy OK


None of the tracks are present in the AccurateRip database

No errors occurred

End of status report

==== Log checksum 528747BA6ACC8B1519716B76333621CBF95FD9282681CE7D18409B0BBB1196C5 ====
Exact Audio Copy V1.0 beta 3 from 29. August 2011

EAC extraction logfile from 13. January 2017, 1:26

Thelonious Monk / The Complete Riverside Recordings (Disc 11)

Used drive : HL-DT-STDVDRAM GU70N Adapter: 0 ID: 0

Read mode : Secure
Utilize accurate stream : Yes
Defeat audio cache : Yes
Make use of C2 pointers : No

Read offset correction : 48
Overread into Lead-In and Lead-Out : No
Fill up missing offset samples with silence : Yes
Delete leading and trailing silent blocks : No
Null samples used in CRC calculations : Yes
Used interface : Native Win32 interface for Win NT & 2000
Gap handling : Appended to previous track

Used output format : User Defined Encoder
Selected bitrate : 128 kBit/s
Quality : High
Add ID3 tag : No
Command line compressor : C:\Program Files (x86)\Exact Audio Copy\Flac\flac.exe
Additional command line options : -8 -V -T "ARTIST=%artist%" -T "TITLE=%title%" -T "ALBUM=%albumtitle%" -T "DATE=%year%" -T "TRACKNUMBER=%tracknr%" -T "TOTALTRACKS=%numtracks%" -T "GENRE=%genre%" -T "ALBUMARTIST=%albumartist%" -T "ALBUM ARTIST=%albumartist%" -T "COMMENT=EAC Secure Mode, Test & Copy, AccurateRip, FLAC -8" %source%


TOC of the extracted CD

Track | Start | Length | Start sector | End sector
––––––––––––––––––––––––––––-
1 | 0:00.37 | 6:59.08 | 37 | 31469
2 | 6:59.45 | 7:55.32 | 31470 | 67126
3 | 14:55.02 | 8:02.10 | 67127 | 103286
4 | 22:57.12 | 9:23.53 | 103287 | 145564
5 | 32:20.65 | 10:48.40 | 145565 | 194204
6 | 43:09.30 | 9:50.62 | 194205 | 238516
7 | 53:00.17 | 6:10.10 | 238517 | 266276
8 | 59:10.27 | 3:39.38 | 266277 | 282739
9 | 62:49.65 | 3:55.30 | 282740 | 300394
10 | 66:45.20 | 3:43.57 | 300395 | 317176


Track 1

Filename F:\EAC\Thelonious Monk - The Complete Riverside Recordings (1988) [FLAC] {Riverside, VDJ-25010~24, 15CD}\Disc11\01 - Played Twice (take 1 - 2nd alternate) (5 By Monk By 5, June 1-4, 1959).wav

Pre-gap length 0:00:02.37

Peak level 89.7 %
Extraction speed 1.4 X
Track quality 100.0 %
Test CRC FD3BBB32
Copy CRC FD3BBB32
Track not present in AccurateRip database
Copy OK

Track 2

Filename F:\EAC\Thelonious Monk - The Complete Riverside Recordings (1988) [FLAC] {Riverside, VDJ-25010~24, 15CD}\Disc11\02 - Played Twice (take 2 - alternate) (5 By Monk By 5, June 1-4, 1959).wav

Pre-gap length 0:00:01.12

Peak level 94.2 %
Extraction speed 1.6 X
Track quality 99.9 %
Test CRC 2A3FC229
Copy CRC 2A3FC229
Track not present in AccurateRip database
Copy OK

Track 3

Filename F:\EAC\Thelonious Monk - The Complete Riverside Recordings (1988) [FLAC] {Riverside, VDJ-25010~24, 15CD}\Disc11\03 - Played Twice (take 3) (5 By Monk By 5, June 1-4, 1959).wav

Pre-gap length 0:00:01.22

Peak level 100.0 %
Extraction speed 1.9 X
Track quality 100.0 %
Test CRC 9B3C04C5
Copy CRC 9B3C04C5
Track not present in AccurateRip database
Copy OK

Track 4

Filename F:\EAC\Thelonious Monk - The Complete Riverside Recordings (1988) [FLAC] {Riverside, VDJ-25010~24, 15CD}\Disc11\04 - Straight, No Chaser (5 By Monk By 5, June 1-4, 1959).wav

Pre-gap length 0:00:01.37

Peak level 94.6 %
Extraction speed 2.0 X
Track quality 99.9 %
Test CRC 4FF26EB5
Copy CRC 4FF26EB5
Track not present in AccurateRip database
Copy OK

Track 5

Filename F:\EAC\Thelonious Monk - The Complete Riverside Recordings (1988) [FLAC] {Riverside, VDJ-25010~24, 15CD}\Disc11\05 - Ask Me Now (5 By Monk By 5, June 1-4, 1959).wav

Pre-gap length 0:00:01.42

Peak level 100.0 %
Extraction speed 2.4 X
Track quality 100.0 %
Test CRC E1BE29E9
Copy CRC E1BE29E9
Track not present in AccurateRip database
Copy OK

Track 6

Filename F:\EAC\Thelonious Monk - The Complete Riverside Recordings (1988) [FLAC] {Riverside, VDJ-25010~24, 15CD}\Disc11\06 - I Mean You (5 By Monk By 5, June 1-4, 1959).wav

Pre-gap length 0:00:01.07

Peak level 100.0 %
Extraction speed 2.6 X
Track quality 100.0 %
Test CRC 81E6192E
Copy CRC 81E6192E
Track not present in AccurateRip database
Copy OK

Track 7

Filename F:\EAC\Thelonious Monk - The Complete Riverside Recordings (1988) [FLAC] {Riverside, VDJ-25010~24, 15CD}\Disc11\07 - Jackie-Ing (5 By Monk By 5, June 1-4, 1959).wav

Pre-gap length 0:00:01.39

Peak level 88.9 %
Extraction speed 2.7 X
Track quality 100.0 %
Test CRC 55F5502D
Copy CRC 55F5502D
Track not present in AccurateRip database
Copy OK

Track 8

Filename F:\EAC\Thelonious Monk - The Complete Riverside Recordings (1988) [FLAC] {Riverside, VDJ-25010~24, 15CD}\Disc11\08 - Round Lights (Thelonious Alone In San Francisco, Oct 20, 1959).wav

Pre-gap length 0:00:02.47

Peak level 99.8 %
Extraction speed 2.6 X
Track quality 100.0 %
Test CRC 848A76D6
Copy CRC 848A76D6
Track not present in AccurateRip database
Copy OK

Track 9

Filename F:\EAC\Thelonious Monk - The Complete Riverside Recordings (1988) [FLAC] {Riverside, VDJ-25010~24, 15CD}\Disc11\09 - Pannonica (Thelonious Alone In San Francisco, Oct 20, 1959).wav

Pre-gap length 0:00:02.45

Peak level 85.2 %
Extraction speed 2.3 X
Track quality 99.9 %
Test CRC 589A71F5
Copy CRC 589A71F5
Track not present in AccurateRip database
Copy OK

Track 10

Filename F:\EAC\Thelonious Monk - The Complete Riverside Recordings (1988) [FLAC] {Riverside, VDJ-25010~24, 15CD}\Disc11\10 - Blue Monk (Thelonious Alone In San Francisco, Oct 20, 1959).wav

Pre-gap length 0:00:02.37

Peak level 78.0 %
Extraction speed 2.4 X
Track quality 99.9 %
Test CRC FF4E62FA
Copy CRC FF4E62FA
Track not present in AccurateRip database
Copy OK


None of the tracks are present in the AccurateRip database

No errors occurred

End of status report

==== Log checksum 2A9B25E29C8C7FD8773FC822B96DE93A3F4B6F200347AA10C70A5F8114E0AE48 ====
Exact Audio Copy V1.0 beta 3 from 29. August 2011

EAC extraction logfile from 14. January 2017, 4:13

Thelonious Monk / The Complete Riverside Recordings (Disc 12)

Used drive : HL-DT-STDVDRAM GU70N Adapter: 0 ID: 0

Read mode : Secure
Utilize accurate stream : Yes
Defeat audio cache : Yes
Make use of C2 pointers : No

Read offset correction : 48
Overread into Lead-In and Lead-Out : No
Fill up missing offset samples with silence : Yes
Delete leading and trailing silent blocks : No
Null samples used in CRC calculations : Yes
Used interface : Native Win32 interface for Win NT & 2000
Gap handling : Appended to previous track

Used output format : User Defined Encoder
Selected bitrate : 128 kBit/s
Quality : High
Add ID3 tag : No
Command line compressor : C:\Program Files (x86)\Exact Audio Copy\Flac\flac.exe
Additional command line options : -8 -V -T "ARTIST=%artist%" -T "TITLE=%title%" -T "ALBUM=%albumtitle%" -T "DATE=%year%" -T "TRACKNUMBER=%tracknr%" -T "TOTALTRACKS=%numtracks%" -T "GENRE=%genre%" -T "ALBUMARTIST=%albumartist%" -T "ALBUM ARTIST=%albumartist%" -T "COMMENT=EAC Secure Mode, Test & Copy, AccurateRip, FLAC -8" %source%


TOC of the extracted CD

Track | Start | Length | Start sector | End sector
––––––––––––––––––––––––––––-
1 | 0:00.37 | 4:01.23 | 37 | 18134
2 | 4:01.60 | 4:07.07 | 18135 | 36666
3 | 8:08.67 | 4:23.08 | 36667 | 56399
4 | 12:32.00 | 5:40.60 | 56400 | 81959
5 | 18:12.60 | 5:07.52 | 81960 | 105036
6 | 23:20.37 | 2:45.73 | 105037 | 117484
7 | 26:06.35 | 3:41.02 | 117485 | 134061
8 | 29:47.37 | 4:05.50 | 134062 | 152486
9 | 33:53.12 | 8:52.23 | 152487 | 192409
10 | 42:45.35 | 7:10.60 | 192410 | 224719
11 | 49:56.20 | 7:56.05 | 224720 | 260424
12 | 57:52.25 | 8:31.42 | 260425 | 298791


Track 1

Filename F:\EAC\Thelonious Monk - The Complete Riverside Recordings (1988) [FLAC] {Riverside, VDJ-25010~24, 15CD}\Disc12\01 - Thelonious Monk Solo - Ruby, My Dear.wav

Pre-gap length 0:00:02.37

Peak level 98.2 %
Extraction speed 1.2 X
Track quality 100.0 %
Test CRC B171DEC9
Copy CRC B171DEC9
Track not present in AccurateRip database
Copy OK

Track 2

Filename F:\EAC\Thelonious Monk - The Complete Riverside Recordings (1988) [FLAC] {Riverside, VDJ-25010~24, 15CD}\Disc12\02 - Thelonious Monk Solo - There's Danger in Your Eyes, Cherie (take 1 - alternate).wav

Pre-gap length 0:00:01.55

Peak level 98.8 %
Extraction speed 1.4 X
Track quality 100.0 %
Test CRC 0F07046D
Copy CRC 0F07046D
Track not present in AccurateRip database
Copy OK

Track 3

Filename F:\EAC\Thelonious Monk - The Complete Riverside Recordings (1988) [FLAC] {Riverside, VDJ-25010~24, 15CD}\Disc12\03 - Thelonious Monk Solo - There's Danger in Your Eyes, Cherie (take 2).wav

Pre-gap length 0:00:01.14

Peak level 98.7 %
Extraction speed 1.5 X
Track quality 100.0 %
Test CRC 2DD9FB4A
Copy CRC 2DD9FB4A
Track not present in AccurateRip database
Copy OK

Track 4

Filename F:\EAC\Thelonious Monk - The Complete Riverside Recordings (1988) [FLAC] {Riverside, VDJ-25010~24, 15CD}\Disc12\04 - Thelonious Monk Solo - Everything Happens to Me.wav

Pre-gap length 0:00:02.70

Peak level 99.9 %
Extraction speed 1.7 X
Track quality 100.0 %
Test CRC FB86F651
Copy CRC FB86F651
Track not present in AccurateRip database
Copy OK

Track 5

Filename F:\EAC\Thelonious Monk - The Complete Riverside Recordings (1988) [FLAC] {Riverside, VDJ-25010~24, 15CD}\Disc12\05 - Thelonious Monk Solo - Reflections.wav

Pre-gap length 0:00:01.42

Peak level 100.0 %
Extraction speed 1.8 X
Track quality 100.0 %
Test CRC 3052E525
Copy CRC 3052E525
Track not present in AccurateRip database
Copy OK

Track 6

Filename F:\EAC\Thelonious Monk - The Complete Riverside Recordings (1988) [FLAC] {Riverside, VDJ-25010~24, 15CD}\Disc12\06 - Thelonious Monk Solo - Remember.wav

Peak level 77.8 %
Extraction speed 1.5 X
Track quality 99.9 %
Test CRC 6835D230
Copy CRC 6835D230
Track not present in AccurateRip database
Copy OK

Track 7

Filename F:\EAC\Thelonious Monk - The Complete Riverside Recordings (1988) [FLAC] {Riverside, VDJ-25010~24, 15CD}\Disc12\07 - Thelonious Monk Solo - Bluehawk.wav

Pre-gap length 0:00:02.32

Peak level 99.6 %
Extraction speed 1.9 X
Track quality 100.0 %
Test CRC C75A2B34
Copy CRC C75A2B34
Track not present in AccurateRip database
Copy OK

Track 8

Filename F:\EAC\Thelonious Monk - The Complete Riverside Recordings (1988) [FLAC] {Riverside, VDJ-25010~24, 15CD}\Disc12\08 - Thelonious Monk Solo - You Took the Words Right Out of My Heart.wav

Pre-gap length 0:00:02.27

Peak level 90.8 %
Extraction speed 1.8 X
Track quality 99.9 %
Test CRC BCA64222
Copy CRC BCA64222
Track not present in AccurateRip database
Copy OK

Track 9

Filename F:\EAC\Thelonious Monk - The Complete Riverside Recordings (1988) [FLAC] {Riverside, VDJ-25010~24, 15CD}\Disc12\09 - Thelonious Monk Sextet - San Francisco Holiday.wav

Pre-gap length 0:00:02.69

Peak level 100.0 %
Extraction speed 2.3 X
Track quality 100.0 %
Test CRC C7573B62
Copy CRC C7573B62
Track not present in AccurateRip database
Copy OK

Track 10

Filename F:\EAC\Thelonious Monk - The Complete Riverside Recordings (1988) [FLAC] {Riverside, VDJ-25010~24, 15CD}\Disc12\10 - Thelonious Monk Sextet - Just You, Just Me.wav

Pre-gap length 0:00:01.45

Peak level 100.0 %
Extraction speed 2.5 X
Track quality 100.0 %
Test CRC 78635DEC
Copy CRC 78635DEC
Track not present in AccurateRip database
Copy OK

Track 11

Filename F:\EAC\Thelonious Monk - The Complete Riverside Recordings (1988) [FLAC] {Riverside, VDJ-25010~24, 15CD}\Disc12\11 - Thelonious Monk Sextet - 'Round Midnight.wav

Pre-gap length 0:00:01.12

Peak level 100.0 %
Extraction speed 2.4 X
Track quality 99.9 %
Test CRC 0530290E
Copy CRC 0530290E
Track not present in AccurateRip database
Copy OK

Track 12

Filename F:\EAC\Thelonious Monk - The Complete Riverside Recordings (1988) [FLAC] {Riverside, VDJ-25010~24, 15CD}\Disc12\12 - Thelonious Monk Sextet - San Francisco Holiday (take 2 - alternate).wav

Pre-gap length 0:00:02.32

Peak level 100.0 %
Extraction speed 2.8 X
Track quality 100.0 %
Test CRC F0F8EA57
Copy CRC F0F8EA57
Track not present in AccurateRip database
Copy OK


None of the tracks are present in the AccurateRip database

No errors occurred

End of status report

==== Log checksum F27821D420F2C3F2C27B5C11E785146882D3BBE7F9D0529DDF15ADD197FE9A92 ====
Exact Audio Copy V1.0 beta 3 from 29. August 2011

EAC extraction logfile from 14. January 2017, 17:52

Thelonious Monk / The Complete Riverside Recordings (Disk 13)

Used drive : HL-DT-STDVDRAM GU70N Adapter: 0 ID: 0

Read mode : Secure
Utilize accurate stream : Yes
Defeat audio cache : Yes
Make use of C2 pointers : No

Read offset correction : 48
Overread into Lead-In and Lead-Out : No
Fill up missing offset samples with silence : Yes
Delete leading and trailing silent blocks : No
Null samples used in CRC calculations : Yes
Used interface : Native Win32 interface for Win NT & 2000
Gap handling : Appended to previous track

Used output format : User Defined Encoder
Selected bitrate : 128 kBit/s
Quality : High
Add ID3 tag : No
Command line compressor : C:\Program Files (x86)\Exact Audio Copy\Flac\flac.exe
Additional command line options : -8 -V -T "ARTIST=%artist%" -T "TITLE=%title%" -T "ALBUM=%albumtitle%" -T "DATE=%year%" -T "TRACKNUMBER=%tracknr%" -T "TOTALTRACKS=%numtracks%" -T "GENRE=%genre%" -T "ALBUMARTIST=%albumartist%" -T "ALBUM ARTIST=%albumartist%" -T "COMMENT=EAC Secure Mode, Test & Copy, AccurateRip, FLAC -8" %source%


TOC of the extracted CD

Track | Start | Length | Start sector | End sector
––––––––––––––––––––––––––––-
1 | 0:00.37 | 6:14.70 | 37 | 28156
2 | 6:15.32 | 7:10.23 | 28157 | 60429
3 | 13:25.55 | 1:04.55 | 60430 | 65284
4 | 14:30.35 | 6:42.10 | 65285 | 95444
5 | 21:12.45 | 7:36.12 | 95445 | 129656
6 | 28:48.57 | 8:36.45 | 129657 | 168401
7 | 37:25.27 | 12:05.60 | 168402 | 222836
8 | 49:31.12 | 9:11.65 | 222837 | 264226
9 | 58:43.02 | 8:44.35 | 264227 | 303561
10 | 67:27.37 | 1:15.63 | 303562 | 309249


Track 1

Filename F:\EAC\Thelonious Monk - The Complete Riverside Recordings (1988) [FLAC] {Riverside, VDJ-25010~24, 15CD}\Disc13\01 - I'm Getting Sentimental Over You.wav

Pre-gap length 0:00:02.37

Peak level 91.4 %
Extraction speed 1.3 X
Track quality 100.0 %
Test CRC ABA5FEA2
Copy CRC ABA5FEA2
Track not present in AccurateRip database
Copy OK

Track 2

Filename F:\EAC\Thelonious Monk - The Complete Riverside Recordings (1988) [FLAC] {Riverside, VDJ-25010~24, 15CD}\Disc13\02 - Evidence.wav

Pre-gap length 0:00:02.10

Peak level 85.8 %
Extraction speed 1.6 X
Track quality 100.0 %
Test CRC 370E68DC
Copy CRC 370E68DC
Track not present in AccurateRip database
Copy OK

Track 3

Filename F:\EAC\Thelonious Monk - The Complete Riverside Recordings (1988) [FLAC] {Riverside, VDJ-25010~24, 15CD}\Disc13\03 - Epistrophy (theme).wav

Pre-gap length 0:00:02.60

Peak level 68.9 %
Extraction speed 0.8 X
Track quality 99.8 %
Test CRC 7EF0AB3C
Copy CRC 7EF0AB3C
Track not present in AccurateRip database
Copy OK

Track 4

Filename F:\EAC\Thelonious Monk - The Complete Riverside Recordings (1988) [FLAC] {Riverside, VDJ-25010~24, 15CD}\Disc13\04 - Epistrophy.wav

Pre-gap length 0:00:02.38

Peak level 83.2 %
Extraction speed 1.8 X
Track quality 100.0 %
Test CRC 70F6A5E2
Copy CRC 70F6A5E2
Track not present in AccurateRip database
Copy OK

Track 5

Filename F:\EAC\Thelonious Monk - The Complete Riverside Recordings (1988) [FLAC] {Riverside, VDJ-25010~24, 15CD}\Disc13\05 - Four In One (take 1).wav

Pre-gap length 0:00:02.38

Peak level 80.1 %
Extraction speed 1.9 X
Track quality 99.9 %
Test CRC 53A2C2E2
Copy CRC 53A2C2E2
Track not present in AccurateRip database
Copy OK

Track 6

Filename F:\EAC\Thelonious Monk - The Complete Riverside Recordings (1988) [FLAC] {Riverside, VDJ-25010~24, 15CD}\Disc13\06 - Let's Call This.wav

Pre-gap length 0:00:01.15

Peak level 91.2 %
Extraction speed 2.1 X
Track quality 99.9 %
Test CRC 2F224FD8
Copy CRC 2F224FD8
Track not present in AccurateRip database
Copy OK

Track 7

Filename F:\EAC\Thelonious Monk - The Complete Riverside Recordings (1988) [FLAC] {Riverside, VDJ-25010~24, 15CD}\Disc13\07 - 'Round Midnight.wav

Pre-gap length 0:00:02.37

Peak level 93.2 %
Extraction speed 2.5 X
Track quality 100.0 %
Test CRC 5DD3ACEA
Copy CRC 5DD3ACEA
Track not present in AccurateRip database
Copy OK

Track 8

Filename F:\EAC\Thelonious Monk - The Complete Riverside Recordings (1988) [FLAC] {Riverside, VDJ-25010~24, 15CD}\Disc13\08 - San Francisco Holiday (Worry Later) (take 3).wav

Peak level 92.1 %
Extraction speed 2.6 X
Track quality 100.0 %
Test CRC 0125D7F9
Copy CRC 0125D7F9
Track not present in AccurateRip database
Copy OK

Track 9

Filename F:\EAC\Thelonious Monk - The Complete Riverside Recordings (1988) [FLAC] {Riverside, VDJ-25010~24, 15CD}\Disc13\09 - Four In One (take 2).wav

Pre-gap length 0:00:02.37

Peak level 84.8 %
Extraction speed 2.8 X
Track quality 100.0 %
Test CRC 6C3346DE
Copy CRC 6C3346DE
Track not present in AccurateRip database
Copy OK

Track 10

Filename F:\EAC\Thelonious Monk - The Complete Riverside Recordings (1988) [FLAC] {Riverside, VDJ-25010~24, 15CD}\Disc13\10 - Epistrophy (theme).wav

Pre-gap length 0:00:02.07

Peak level 64.4 %
Extraction speed 2.1 X
Track quality 100.0 %
Test CRC E31040E6
Copy CRC E31040E6
Track not present in AccurateRip database
Copy OK


None of the tracks are present in the AccurateRip database

No errors occurred

End of status report

==== Log checksum 679F2F9E1103CBDE240DF3049432C73A90B161DC261CE61E500A26BE81A318A8 ====


Exact Audio Copy V1.0 beta 3 from 29. August 2011

EAC extraction logfile from 14. January 2017, 20:13

Thelonious Monk / The Complete Riverside Recordings (Disc 14)

Used drive : HL-DT-STDVDRAM GU70N Adapter: 0 ID: 0

Read mode : Secure
Utilize accurate stream : Yes
Defeat audio cache : Yes
Make use of C2 pointers : No

Read offset correction : 48
Overread into Lead-In and Lead-Out : No
Fill up missing offset samples with silence : Yes
Delete leading and trailing silent blocks : No
Null samples used in CRC calculations : Yes
Used interface : Native Win32 interface for Win NT & 2000
Gap handling : Appended to previous track

Used output format : User Defined Encoder
Selected bitrate : 128 kBit/s
Quality : High
Add ID3 tag : No
Command line compressor : C:\Program Files (x86)\Exact Audio Copy\Flac\flac.exe
Additional command line options : -8 -V -T "ARTIST=%artist%" -T "TITLE=%title%" -T "ALBUM=%albumtitle%" -T "DATE=%year%" -T "TRACKNUMBER=%tracknr%" -T "TOTALTRACKS=%numtracks%" -T "GENRE=%genre%" -T "ALBUMARTIST=%albumartist%" -T "ALBUM ARTIST=%albumartist%" -T "COMMENT=EAC Secure Mode, Test & Copy, AccurateRip, FLAC -8" %source%


TOC of the extracted CD

Track | Start | Length | Start sector | End sector
––––––––––––––––––––––––––––-
1 | 0:00.37 | 11:30.63 | 37 | 51849
2 | 11:31.25 | 2:39.27 | 51850 | 63801
3 | 14:10.52 | 10:12.05 | 63802 | 109706
4 | 24:22.57 | 2:47.25 | 109707 | 122256
5 | 27:10.07 | 11:41.20 | 122257 | 174851
6 | 38:51.27 | 1:19.03 | 174852 | 180779
7 | 40:10.30 | 11:02.55 | 180780 | 230484
8 | 51:13.10 | 10:37.20 | 230485 | 278279
9 | 61:50.30 | 1:45.55 | 278280 | 286209


Track 1

Filename F:\EAC\Thelonious Monk - The Complete Riverside Recordings (1988) [FLAC] {Riverside, VDJ-25010~24, 15CD}\Disc14\01 - Well, You Needn't.wav

Pre-gap length 0:00:02.37

Peak level 100.0 %
Extraction speed 1.5 X
Track quality 100.0 %
Test CRC B0C87D6F
Copy CRC B0C87D6F
Track not present in AccurateRip database
Copy OK

Track 2

Filename F:\EAC\Thelonious Monk - The Complete Riverside Recordings (1988) [FLAC] {Riverside, VDJ-25010~24, 15CD}\Disc14\02 - Crepuscule With Nellie.wav

Peak level 100.0 %
Extraction speed 1.2 X
Track quality 99.9 %
Test CRC 0699CFA2
Copy CRC 0699CFA2
Track not present in AccurateRip database
Copy OK

Track 3

Filename F:\EAC\Thelonious Monk - The Complete Riverside Recordings (1988) [FLAC] {Riverside, VDJ-25010~24, 15CD}\Disc14\03 - Jackie-Ing.wav

Peak level 100.0 %
Extraction speed 1.9 X
Track quality 100.0 %
Test CRC 95630A50
Copy CRC 95630A50
Track not present in AccurateRip database
Copy OK

Track 4

Filename F:\EAC\Thelonious Monk - The Complete Riverside Recordings (1988) [FLAC] {Riverside, VDJ-25010~24, 15CD}\Disc14\04 - Body and Soul.wav

Pre-gap length 0:00:00.32

Peak level 100.0 %
Extraction speed 1.5 X
Track quality 99.9 %
Test CRC 1E4EC1BB
Copy CRC 1E4EC1BB
Track not present in AccurateRip database
Copy OK

Track 5

Filename F:\EAC\Thelonious Monk - The Complete Riverside Recordings (1988) [FLAC] {Riverside, VDJ-25010~24, 15CD}\Disc14\05 - Off Minor.wav

Peak level 100.0 %
Extraction speed 2.2 X
Track quality 100.0 %
Test CRC C47858FB
Copy CRC C47858FB
Track not present in AccurateRip database
Copy OK

Track 6

Filename F:\EAC\Thelonious Monk - The Complete Riverside Recordings (1988) [FLAC] {Riverside, VDJ-25010~24, 15CD}\Disc14\06 - April in Paris.wav

Peak level 56.3 %
Extraction speed 1.3 X
Track quality 99.8 %
Test CRC D8DE2FB5
Copy CRC D8DE2FB5
Track not present in AccurateRip database
Copy OK

Track 7

Filename F:\EAC\Thelonious Monk - The Complete Riverside Recordings (1988) [FLAC] {Riverside, VDJ-25010~24, 15CD}\Disc14\07 - I Mean You.wav

Peak level 94.8 %
Extraction speed 2.5 X
Track quality 100.0 %
Test CRC 8DF87994
Copy CRC 8DF87994
Track not present in AccurateRip database
Copy OK

Track 8

Filename F:\EAC\Thelonious Monk - The Complete Riverside Recordings (1988) [FLAC] {Riverside, VDJ-25010~24, 15CD}\Disc14\08 - Rhythm-A-Ning.wav

Pre-gap length 0:00:00.10

Peak level 100.0 %
Extraction speed 2.7 X
Track quality 100.0 %
Test CRC ECBB7C32
Copy CRC ECBB7C32
Track not present in AccurateRip database
Copy OK

Track 9

Filename F:\EAC\Thelonious Monk - The Complete Riverside Recordings (1988) [FLAC] {Riverside, VDJ-25010~24, 15CD}\Disc14\09 - Just a Gigolo.wav

Pre-gap length 0:00:00.15

Peak level 83.0 %
Extraction speed 2.2 X
Track quality 100.0 %
Test CRC 64689229
Copy CRC 64689229
Track not present in AccurateRip database
Copy OK


None of the tracks are present in the AccurateRip database

No errors occurred

End of status report

==== Log checksum 0846A932335FA07B2C0F8D79933107C35FCAD174AD40C6C292556C268B20E179 ====
Exact Audio Copy V1.0 beta 3 from 29. August 2011

EAC extraction logfile from 15. January 2017, 0:21

Thelonious Monk / The Complete Riverside Recordings (Disc 15)

Used drive : HL-DT-STDVDRAM GU70N Adapter: 0 ID: 0

Read mode : Secure
Utilize accurate stream : Yes
Defeat audio cache : Yes
Make use of C2 pointers : No

Read offset correction : 48
Overread into Lead-In and Lead-Out : No
Fill up missing offset samples with silence : Yes
Delete leading and trailing silent blocks : No
Null samples used in CRC calculations : Yes
Used interface : Native Win32 interface for Win NT & 2000
Gap handling : Appended to previous track

Used output format : User Defined Encoder
Selected bitrate : 128 kBit/s
Quality : High
Add ID3 tag : No
Command line compressor : C:\Program Files (x86)\Exact Audio Copy\Flac\flac.exe
Additional command line options : -8 -V -T "ARTIST=%artist%" -T "TITLE=%title%" -T "ALBUM=%albumtitle%" -T "DATE=%year%" -T "TRACKNUMBER=%tracknr%" -T "TOTALTRACKS=%numtracks%" -T "GENRE=%genre%" -T "ALBUMARTIST=%albumartist%" -T "ALBUM ARTIST=%albumartist%" -T "COMMENT=EAC Secure Mode, Test & Copy, AccurateRip, FLAC -8" %source%


TOC of the extracted CD

Track | Start | Length | Start sector | End sector
––––––––––––––––––––––––––––-
1 | 0:00.37 | 9:46.35 | 37 | 44021
2 | 9:46.72 | 6:12.40 | 44022 | 71961
3 | 15:59.37 | 8:36.28 | 71962 | 110689
4 | 24:35.65 | 4:53.17 | 110690 | 132681
5 | 29:29.07 | 4:48.38 | 132682 | 154319
6 | 34:17.45 | 9:03.60 | 154320 | 195104
7 | 43:21.30 | 2:42.55 | 195105 | 207309
8 | 46:04.10 | 6:56.17 | 207310 | 238526
9 | 53:00.27 | 5:57.40 | 238527 | 265341
10 | 58:57.67 | 5:47.55 | 265342 | 291421
11 | 64:45.47 | 5:03.70 | 291422 | 314216


Track 1

Filename F:\EAC\Thelonious Monk - The Complete Riverside Recordings (1988) [FLAC] {Riverside, VDJ-25010~24, 15CD}\Disc15\01 - Hackensack.wav

Pre-gap length 0:00:02.37

Peak level 100.0 %
Extraction speed 1.4 X
Track quality 100.0 %
Test CRC 8485EE5D
Copy CRC 8485EE5D
Track not present in AccurateRip database
Copy OK

Track 2

Filename F:\EAC\Thelonious Monk - The Complete Riverside Recordings (1988) [FLAC] {Riverside, VDJ-25010~24, 15CD}\Disc15\02 - Epistrophy.wav

Peak level 100.0 %
Extraction speed 1.6 X
Track quality 100.0 %
Test CRC 3D4DD771
Copy CRC 3D4DD771
Track not present in AccurateRip database
Copy OK

Track 3

Filename F:\EAC\Thelonious Monk - The Complete Riverside Recordings (1988) [FLAC] {Riverside, VDJ-25010~24, 15CD}\Disc15\03 - I'm Getting Sentimental over You.wav

Peak level 100.0 %
Extraction speed 1.9 X
Track quality 100.0 %
Test CRC F7039172
Copy CRC F7039172
Track not present in AccurateRip database
Copy OK

Track 4

Filename F:\EAC\Thelonious Monk - The Complete Riverside Recordings (1988) [FLAC] {Riverside, VDJ-25010~24, 15CD}\Disc15\04 - Jackie-Ing.wav

Pre-gap length 0:00:02.38

Peak level 100.0 %
Extraction speed 2.0 X
Track quality 100.0 %
Test CRC CC5C0929
Copy CRC CC5C0929
Track not present in AccurateRip database
Copy OK

Track 5

Filename F:\EAC\Thelonious Monk - The Complete Riverside Recordings (1988) [FLAC] {Riverside, VDJ-25010~24, 15CD}\Disc15\05 - Body and Soul.wav

Peak level 79.8 %
Extraction speed 1.9 X
Track quality 99.9 %
Test CRC 69FE9A40
Copy CRC 69FE9A40
Track not present in AccurateRip database
Copy OK

Track 6

Filename F:\EAC\Thelonious Monk - The Complete Riverside Recordings (1988) [FLAC] {Riverside, VDJ-25010~24, 15CD}\Disc15\06 - Straight, No Chaser.wav

Pre-gap length 0:00:00.01

Peak level 96.7 %
Extraction speed 2.2 X
Track quality 99.9 %
Test CRC A2841F88
Copy CRC A2841F88
Track not present in AccurateRip database
Copy OK

Track 7

Filename F:\EAC\Thelonious Monk - The Complete Riverside Recordings (1988) [FLAC] {Riverside, VDJ-25010~24, 15CD}\Disc15\07 - Crepuscule With Nellie.wav

Pre-gap length 0:00:00.01

Peak level 68.7 %
Extraction speed 2.1 X
Track quality 100.0 %
Test CRC A42F1B2E
Copy CRC A42F1B2E
Track not present in AccurateRip database
Copy OK

Track 8

Filename F:\EAC\Thelonious Monk - The Complete Riverside Recordings (1988) [FLAC] {Riverside, VDJ-25010~24, 15CD}\Disc15\08 - Bemsha Swing.wav

Pre-gap length 0:00:00.28

Peak level 97.5 %
Extraction speed 2.5 X
Track quality 100.0 %
Test CRC 23CBBFAF
Copy CRC 23CBBFAF
Track not present in AccurateRip database
Copy OK

Track 9

Filename F:\EAC\Thelonious Monk - The Complete Riverside Recordings (1988) [FLAC] {Riverside, VDJ-25010~24, 15CD}\Disc15\09 - San Francisco Holiday.wav

Peak level 74.0 %
Extraction speed 2.4 X
Track quality 99.9 %
Test CRC F95B3B8E
Copy CRC F95B3B8E
Track not present in AccurateRip database
Copy OK

Track 10

Filename F:\EAC\Thelonious Monk - The Complete Riverside Recordings (1988) [FLAC] {Riverside, VDJ-25010~24, 15CD}\Disc15\10 - Rhythm-A-Ning.wav

Peak level 83.4 %
Extraction speed 2.7 X
Track quality 100.0 %
Test CRC 4F0F553F
Copy CRC 4F0F553F
Track not present in AccurateRip database
Copy OK

Track 11

Filename F:\EAC\Thelonious Monk - The Complete Riverside Recordings (1988) [FLAC] {Riverside, VDJ-25010~24, 15CD}\Disc15\11 - Epistrophy.wav

Peak level 88.7 %
Extraction speed 2.7 X
Track quality 100.0 %
Test CRC 9637C97B
Copy CRC 9637C97B
Track not present in AccurateRip database
Copy OK


None of the tracks are present in the AccurateRip database

No errors occurred

End of status report

==== Log checksum 08587042B3DC58FEAC549E9CEB28A87FAA9BEBB9F0E9258C8ADC36E53B379F03 ====



Thelonious Monk - The Complete Riverside Recordings (1988) {15CD Riverside Victor Japan VDJ-25010~24 rec 1955-1961}

Thelonious Monk - The Complete Riverside Recordings (1988) {15CD Riverside Victor Japan VDJ-25010~24 rec 1955-1961}

Thelonious Monk - The Complete Riverside Recordings (1988) {15CD Riverside Victor Japan VDJ-25010~24 rec 1955-1961}

Thelonious Monk - The Complete Riverside Recordings (1988) {15CD Riverside Victor Japan VDJ-25010~24 rec 1955-1961}



===