Subcategories

Jean-Luc Thomas & Michel Godard - La Belle Femme Qui Pleure (2012) {Hirustica}

Posted By: ruskaval
Jean-Luc Thomas & Michel Godard - La Belle Femme Qui Pleure (2012) {Hirustica}

Jean-Luc Thomas & Michel Godard - La Belle Femme Qui Pleure (2012) {Hirustica}
EAC rip (secure mode) | FLAC (tracks)+CUE+LOG -> 248 Mb | MP3 @320 -> 128 Mb
Full Artwork @ 300 dpi (png) -> 45 Mb | 5% repair rar
© 2012 Hirustica | HIR-081968
Jazz / Modern Creative / World Music / Flute / Tuba

In 1989 Jean Luc discovers the ebony flute. Self taught flute-player, he was among the first generation of musicians to integrate this instrument into festoù-noz groups (Traditional Breton dance music).
Through practice in Brittany and numerous trips in Ireland, he has acquired a strong technical knowledge and has developed his own style. He likes to bring people together and engaged them in an artistic and musical experience. Nowadays, he moves through rich musical environment from traditional to classical via jazz with Breton, Malian, Polish, Brazilian and Arabic musicians and dancers.
Jean-Luc is also a renowned teacher and regularly runs music workshop in Brittany and abroad.
Godard was admitted at the age of 18 to the Philharmonic Orchestra of Radio-France. His ability to produce overtones ("multiphonics") and musicality leaves the listener surprised at how light a seemingly cumbersome tuba can sound. In 1979 he picked up also the ancestor of the tuba, the serpent. On the classical side, Michel Godard played since 1988 with the Radio France Philharmonic Orchestra, the French National Orchestra, the Ensemble Musique Vivante, and, recently, the ancient music Ensemble La Venice and "XVIII-21Musique de Lumieres". He was also a member of the "Arban Chamber Brass" quintet (notably touring Japan, the U.S., Africa) and interprets works from the solo repertory, too. He gives international master classes.

INFO
Hirustica INFO


Personnel:
Michel Godard : Serpent, Tuba, Guitare Basse
Jean-Luc Thomas : Flûtes Traversières en Bois, Traitements Électroniques

tracklist:
01. Vila Erba (Michel Godard)
02. Plinn du Tuba (Jean-Luc Thomas)
03. Deap (Michel Godard)
04. Dour Joaus ‘n he Daoulagad (Michel Godard)
05. Karsilamas (Traditionnel Crètois – Jean-Luc Thomas)
06. Irish Set (Traditionnel Irlandais – Jean-Luc Thomas)
07. Ferma l’Ali (Michel Godard)
08. Congada (Traditionnel Brésilien – Jean-Luc Thomas)
09. In Paradisum (Michel Godard)
10. Gavotte (Michel Godard)
11. The Wounded Hussard (Traditionnel Irlandais – Jean-Luc Thomas)

Jean-Luc Thomas & Michel Godard - La Belle Femme Qui Pleure (2012) {Hirustica}

Jean-Luc Thomas & Michel Godard - La Belle Femme Qui Pleure (2012) {Hirustica}

Exact Audio Copy V1.0 beta 3 from 29. August 2011

EAC extraction logfile from 4. August 2012, 9:48

Jean-Luc Thomas & Michel Godard / La Belle Femme Qui Pleure

Used drive : PLEXTOR DVDR PX-860A Adapter: 0 ID: 0

Read mode : Secure
Utilize accurate stream : Yes
Defeat audio cache : Yes
Make use of C2 pointers : No

Read offset correction : 96
Overread into Lead-In and Lead-Out : No
Fill up missing offset samples with silence : Yes
Delete leading and trailing silent blocks : No
Null samples used in CRC calculations : Yes
Used interface : Native Win32 interface for Win NT & 2000
Gap handling : Appended to previous track

Used output format : User Defined Encoder
Selected bitrate : 1024 kBit/s
Quality : High
Add ID3 tag : No
Command line compressor : C:\Program Files\Exact Audio Copy\Flac\flac.exe
Additional command line options : -8 -V -T "ARTIST=%artist%" -T "TITLE=%title%" -T "ALBUM=%albumtitle%" -T "DATE=%year%" -T "TRACKNUMBER=%tracknr%" -T "GENRE=%genre%" -T "PERFORMER=%albuminterpret%" -T "COMPOSER=%composer%" %haslyrics%–tag-from-file=LYRICS="%lyricsfile%"%haslyrics% -T "ALBUMARTIST=%albumartist%" -T "DISCNUMBER=%cdnumber%" -T "TOTALDISCS=%totalcds%" -T "TOTALTRACKS=%numtracks%" -T "COMMENT=EAC Secure Mode, Test & Copy, AccurateRip, FLAC -8" %source% -o %dest%


TOC of the extracted CD

Track | Start | Length | Start sector | End sector
––––––––––––––––––––––––––––-
1 | 0:00.00 | 4:27.18 | 0 | 20042
2 | 4:27.18 | 1:37.10 | 20043 | 27327
3 | 6:04.28 | 4:18.18 | 27328 | 46695
4 | 10:22.46 | 6:57.19 | 46696 | 77989
5 | 17:19.65 | 6:34.27 | 77990 | 107566
6 | 23:54.17 | 5:05.33 | 107567 | 130474
7 | 28:59.50 | 4:50.66 | 130475 | 152290
8 | 33:50.41 | 5:14.18 | 152291 | 175858
9 | 39:04.59 | 4:33.52 | 175859 | 196385
10 | 43:38.36 | 6:09.33 | 196386 | 224093
11 | 49:47.69 | 4:12.37 | 224094 | 243030


Track 1

Filename I:\DL\Jean-Luc Thomas & Michel Godard - La Belle Femme Qui Pleure (2012) [FLAC]\01 - Vila Erba.wav

Pre-gap length 0:00:02.00

Peak level 89.4 %
Extraction speed 4.0 X
Track quality 99.9 %
Test CRC A19602FD
Copy CRC A19602FD
Track not present in AccurateRip database
Copy OK

Track 2

Filename I:\DL\Jean-Luc Thomas & Michel Godard - La Belle Femme Qui Pleure (2012) [FLAC]\02 - Plinn du Tuba.wav

Pre-gap length 0:00:00.98

Peak level 100.0 %
Extraction speed 4.0 X
Track quality 100.0 %
Test CRC 742E4114
Copy CRC 742E4114
Track not present in AccurateRip database
Copy OK

Track 3

Filename I:\DL\Jean-Luc Thomas & Michel Godard - La Belle Femme Qui Pleure (2012) [FLAC]\03 - Deap.wav

Pre-gap length 0:00:00.98

Peak level 92.7 %
Extraction speed 5.1 X
Track quality 100.0 %
Test CRC 370D42DA
Copy CRC 370D42DA
Track not present in AccurateRip database
Copy OK

Track 4

Filename I:\DL\Jean-Luc Thomas & Michel Godard - La Belle Femme Qui Pleure (2012) [FLAC]\04 - Dour Joaus'n he Daoulagad.wav

Pre-gap length 0:00:00.98

Peak level 93.3 %
Extraction speed 5.9 X
Track quality 100.0 %
Test CRC B3ED4842
Copy CRC B3ED4842
Track not present in AccurateRip database
Copy OK

Track 5

Filename I:\DL\Jean-Luc Thomas & Michel Godard - La Belle Femme Qui Pleure (2012) [FLAC]\05 - Karsilamas.wav

Pre-gap length 0:00:00.98

Peak level 93.3 %
Extraction speed 6.4 X
Track quality 100.0 %
Test CRC D13C0A9F
Copy CRC D13C0A9F
Track not present in AccurateRip database
Copy OK

Track 6

Filename I:\DL\Jean-Luc Thomas & Michel Godard - La Belle Femme Qui Pleure (2012) [FLAC]\06 - Irish set.wav

Pre-gap length 0:00:00.98

Peak level 93.3 %
Extraction speed 6.1 X
Track quality 99.9 %
Test CRC 980E9582
Copy CRC 980E9582
Track not present in AccurateRip database
Copy OK

Track 7

Filename I:\DL\Jean-Luc Thomas & Michel Godard - La Belle Femme Qui Pleure (2012) [FLAC]\07 - Ferma l'Ali.wav

Pre-gap length 0:00:00.98

Peak level 93.2 %
Extraction speed 7.0 X
Track quality 100.0 %
Test CRC 79504F12
Copy CRC 79504F12
Track not present in AccurateRip database
Copy OK

Track 8

Filename I:\DL\Jean-Luc Thomas & Michel Godard - La Belle Femme Qui Pleure (2012) [FLAC]\08 - Congada.wav

Pre-gap length 0:00:00.98

Peak level 93.1 %
Extraction speed 7.4 X
Track quality 100.0 %
Test CRC 7A0414BC
Copy CRC 7A0414BC
Track not present in AccurateRip database
Copy OK

Track 9

Filename I:\DL\Jean-Luc Thomas & Michel Godard - La Belle Femme Qui Pleure (2012) [FLAC]\09 - In Paradisum.wav

Pre-gap length 0:00:00.98

Peak level 93.0 %
Extraction speed 7.5 X
Track quality 100.0 %
Test CRC 8075D1CC
Copy CRC 8075D1CC
Track not present in AccurateRip database
Copy OK

Track 10

Filename I:\DL\Jean-Luc Thomas & Michel Godard - La Belle Femme Qui Pleure (2012) [FLAC]\10 - Gavotte.wav

Pre-gap length 0:00:00.98

Peak level 93.4 %
Extraction speed 8.1 X
Track quality 100.0 %
Test CRC F895819B
Copy CRC F895819B
Track not present in AccurateRip database
Copy OK

Track 11

Filename I:\DL\Jean-Luc Thomas & Michel Godard - La Belle Femme Qui Pleure (2012) [FLAC]\11 - The Wounded Hussard.wav

Pre-gap length 0:00:00.98

Peak level 91.1 %
Extraction speed 8.0 X
Track quality 100.0 %
Test CRC 0EF79840
Copy CRC 0EF79840
Track not present in AccurateRip database
Copy OK


None of the tracks are present in the AccurateRip database

No errors occurred

End of status report

–– CUETools DB Plugin V2.1.3

[CTDB TOCID: UPNAzFpjCXjaRmrET6OoOM3zTYM-] disk not present in database, Submit result: UPNAzFpjCXjaRmrET6OoOM3zTYM- has been uploaded


==== Log checksum 1D1A2552947B41FA215587CE7BD519470D62493982CAE2BFEFBE303521950487 ====


Thanks to dtromp!