Subcategories

Till Brönner - Best Of The Verve Years (2015)

Posted By: delpotro
Till Brönner - Best Of The Verve Years (2015)

Till Brönner - Best Of The Verve Years (2015)
EAC Rip | FLAC (tracks+log+.cue) | 01:21:05 | 467 Mb
Jazz, Lounge | Label: Universal Music, Verve Records

Eleven albums has recorded Till Brönner for the Verve label. With 'Best Of The Verve Years' is now the artist's first best-collection. With his wonderful trumpet sound, Till Brönner has earned countless fans as well as two gold records, a Grammy nomination, innumerable jazz awards and many other successes.

For the Verve label Brönner has recorded eleven albums that underpinned his claim to be one of the best and most popular jazz musicians in Germany. The album 'Best Of The Verve Years', the artist's first Best-of collection, features 16 beautiful and atmospherically dense tracks that once again prove that he holds this leading position rightly. Songs like "Love", "Chattin 'With Chet", "That Summer", "Blue Eyed Soul" and "Oceana" create an atmospheric listening experience.
Tracklist:
01. Bumpin' (07:25)
02. High Night (04:46)
03. Le Matin À Marseille (02:29)
04. Return To The Fold (06:18)
05. Tribeca (05:23)
06. Estrada Branca (03:36)
07. Diavolo (04:33)
08. Danny Boy (04:50)
09. Rising Star (04:41)
10. A Distant Episode (05:38)
11. What If (07:20)
12. Aquelas Coisas Todas (06:05)
13. She Was Too Good To Me (04:47)
14. Air (04:59)
15. After You've Gone (04:26)
16. When You Wish Upon A Star (03:50)

Exact Audio Copy V1.3 from 2. September 2016

EAC extraction logfile from 20. March 2018, 10:05

Till Brönner / Best Of The Verve Years

Used drive : SONY DVD RW DRU-870S Adapter: 1 ID: 0

Read mode : Secure
Utilize accurate stream : Yes
Defeat audio cache : Yes
Make use of C2 pointers : No

Read offset correction : 48
Overread into Lead-In and Lead-Out : No
Fill up missing offset samples with silence : Yes
Delete leading and trailing silent blocks : No
Null samples used in CRC calculations : Yes
Used interface : Native Win32 interface for Win NT & 2000
Gap handling : Appended to previous track

Used output format : User Defined Encoder
Selected bitrate : 128 kBit/s
Quality : High
Add ID3 tag : No
Command line compressor : C:\zz_Tools\Audio\3Encoding\11-Encode\flac.exe
Additional command line options : -8 -e -p -V -T "ARTIST=%artist%" -T "TITLE=%title%" -T "ALBUM=%albumtitle%" -T "DATE=%year%" -T "TRACKNUMBER=%tracknr%" -T "GENRE=%genre%" -T "PERFORMER=%albuminterpret%" -T "COMPOSER=%composer%" %haslyrics%–tag-from-file=LYRICS="%lyricsfile%"%haslyrics% -T "ALBUMARTIST=%albumartist%" -T "DISCNUMBER=%cdnumber%" -T "TOTALDISCS=%totalcds%" -T "TOTALTRACKS=%numtracks%" -T "COMMENT=%comment%" %source% -o %dest%


TOC of the extracted CD

Track | Start | Length | Start sector | End sector
––––––––––––––––––––––––––––-
1 | 0:00.00 | 7:25.30 | 0 | 33404
2 | 7:25.30 | 4:46.16 | 33405 | 54870
3 | 12:11.46 | 2:29.18 | 54871 | 66063
4 | 14:40.64 | 6:17.41 | 66064 | 94379
5 | 20:58.30 | 5:23.21 | 94380 | 118625
6 | 26:21.51 | 3:35.43 | 118626 | 134793
7 | 29:57.19 | 4:32.44 | 134794 | 155237
8 | 34:29.63 | 4:49.60 | 155238 | 176972
9 | 39:19.48 | 4:41.17 | 176973 | 198064
10 | 44:00.65 | 5:37.53 | 198065 | 223392
11 | 49:38.43 | 7:19.48 | 223393 | 256365
12 | 56:58.16 | 6:04.52 | 256366 | 283717
13 | 63:02.68 | 4:47.30 | 283718 | 305272
14 | 67:50.23 | 4:59.21 | 305273 | 327718
15 | 72:49.44 | 4:25.51 | 327719 | 347644
16 | 77:15.20 | 3:50.19 | 347645 | 364913


Track 1

Filename C:\EACcccc\Best Of The Verve Years\01 - Till Brönner - Bumpin'.wav

Pre-gap length 0:00:02.00

Peak level 98.6 %
Extraction speed 2.8 X
Track quality 100.0 %
Test CRC 642F5400
Copy CRC 642F5400
Accurately ripped (confidence 41) [B410D7AE] (AR v2)
Copy OK

Track 2

Filename C:\EACcccc\Best Of The Verve Years\02 - Till Brönner feat. Melody Gardot - High Night.wav

Peak level 87.2 %
Extraction speed 3.0 X
Track quality 100.0 %
Test CRC 7DED7626
Copy CRC 7DED7626
Accurately ripped (confidence 41) [03B13C3E] (AR v2)
Copy OK

Track 3

Filename C:\EACcccc\Best Of The Verve Years\03 - Till Brönner - Le Matin À Marseille.wav

Peak level 98.6 %
Extraction speed 2.9 X
Track quality 100.0 %
Test CRC 339F19C1
Copy CRC 339F19C1
Accurately ripped (confidence 41) [4DEFA34B] (AR v2)
Copy OK

Track 4

Filename C:\EACcccc\Best Of The Verve Years\04 - Till Brönner - Return To The Fold.wav

Peak level 98.6 %
Extraction speed 3.5 X
Track quality 100.0 %
Test CRC DB005505
Copy CRC DB005505
Accurately ripped (confidence 41) [96DB7C93] (AR v2)
Copy OK

Track 5

Filename C:\EACcccc\Best Of The Verve Years\05 - Till Brönner - Tribeca.wav

Peak level 68.7 %
Extraction speed 3.7 X
Track quality 100.0 %
Test CRC AD20E412
Copy CRC AD20E412
Accurately ripped (confidence 41) [21B1C945] (AR v2)
Copy OK

Track 6

Filename C:\EACcccc\Best Of The Verve Years\06 - Till Brönner - Estrada Branca.wav

Peak level 95.3 %
Extraction speed 3.3 X
Track quality 100.0 %
Test CRC 5E66C526
Copy CRC 5E66C526
Cannot be verified as accurate (confidence 41) [40784C8D], AccurateRip returned [49D90AAE] (AR v2)
Copy OK

Track 7

Filename C:\EACcccc\Best Of The Verve Years\07 - Till Brönner - Diavolo.wav

Peak level 98.6 %
Extraction speed 3.6 X
Track quality 99.9 %
Test CRC 4985C8E5
Copy CRC 4985C8E5
Accurately ripped (confidence 41) [98BC7815] (AR v2)
Copy OK

Track 8

Filename C:\EACcccc\Best Of The Verve Years\08 - Till Brönner - Danny Boy.wav

Peak level 89.2 %
Extraction speed 3.8 X
Track quality 99.9 %
Test CRC 2EE69418
Copy CRC 2EE69418
Accurately ripped (confidence 41) [34F8C865] (AR v2)
Copy OK

Track 9

Filename C:\EACcccc\Best Of The Verve Years\09 - Till Brönner - Rising Star.wav

Peak level 98.6 %
Extraction speed 4.4 X
Track quality 100.0 %
Test CRC 0589424E
Copy CRC 0589424E
Accurately ripped (confidence 41) [626DA233] (AR v2)
Copy OK

Track 10

Filename C:\EACcccc\Best Of The Verve Years\10 - Till Brönner - A Distant Episode.wav

Peak level 88.0 %
Extraction speed 4.3 X
Track quality 100.0 %
Test CRC EA66DBC7
Copy CRC EA66DBC7
Cannot be verified as accurate (confidence 41) [BB4CE25C], AccurateRip returned [6B85E8D1] (AR v2)
Copy OK

Track 11

Filename C:\EACcccc\Best Of The Verve Years\11 - Mark Murphy feat. Till Brönner - What If.wav

Peak level 93.4 %
Extraction speed 5.0 X
Track quality 100.0 %
Test CRC D1CE46D5
Copy CRC D1CE46D5
Accurately ripped (confidence 41) [BB9FC2C8] (AR v2)
Copy OK

Track 12

Filename C:\EACcccc\Best Of The Verve Years\12 - Till Brönner feat. Luciana Souza - Aquelas Coisas Todas.wav

Peak level 92.6 %
Extraction speed 5.2 X
Track quality 100.0 %
Test CRC 326A71F5
Copy CRC 326A71F5
Accurately ripped (confidence 41) [7D08EE24] (AR v2)
Copy OK

Track 13

Filename C:\EACcccc\Best Of The Verve Years\13 - Till Brönner - She Was Too Good To Me.wav

Peak level 98.6 %
Extraction speed 5.1 X
Track quality 100.0 %
Test CRC 6C1CD65B
Copy CRC 6C1CD65B
Accurately ripped (confidence 41) [269FB6BD] (AR v2)
Copy OK

Track 14

Filename C:\EACcccc\Best Of The Verve Years\14 - Till Brönner - Air.wav

Peak level 98.6 %
Extraction speed 5.4 X
Track quality 100.0 %
Test CRC 5E16F9C8
Copy CRC 5E16F9C8
Accurately ripped (confidence 40) [3401B449] (AR v2)
Copy OK

Track 15

Filename C:\EACcccc\Best Of The Verve Years\15 - Till Brönner - After You've Gone.wav

Peak level 69.4 %
Extraction speed 5.5 X
Track quality 100.0 %
Test CRC 09029C91
Copy CRC 09029C91
Accurately ripped (confidence 41) [B6256679] (AR v2)
Copy OK

Track 16

Filename C:\EACcccc\Best Of The Verve Years\16 - Till Brönner - When You Wish Upon A Star.wav

Peak level 98.6 %
Extraction speed 5.5 X
Track quality 100.0 %
Test CRC F15F35C8
Copy CRC F15F35C8
Accurately ripped (confidence 41) [D1FB8528] (AR v2)
Copy OK


14 Track(s) akkurat gelesen
2 Track(s) nicht als akkurat verifiziert

Some tracks could not be verified as accurate

No errors occurred

End of status report

–– CUETools DB Plugin V2.1.6

[CTDB TOCID: 4J3Cn5CTJe.T4yJnD374QI.XVHI-] found
Submit result: 4J3Cn5CTJe.T4yJnD374QI.XVHI- has been submitted
Track | CTDB Status
1 | (175/175) Accurately ripped
2 | (174/175) Accurately ripped
3 | (174/175) Accurately ripped
4 | (174/175) Accurately ripped
5 | (174/175) Accurately ripped
6 | (168/175) Differs in 179 samples @02:25:51
7 | (174/175) Accurately ripped
8 | (174/175) Accurately ripped
9 | (174/175) Accurately ripped
10 | (168/175) Differs in 180 samples @00:42:66
11 | (173/175) Accurately ripped
12 | (174/175) Accurately ripped
13 | (174/175) Accurately ripped
14 | (173/175) Accurately ripped
15 | (172/175) Accurately ripped
16 | (171/175) Accurately ripped
If you are sure that your rip contains errors, you can use CUETools to repair it.


==== Log checksum 24F2EBB5F2D69DD678987323E393C9AA909A18FB4DF050E7A8CD0F67B6E92692 ====

Thanks to the Original ripper tubo !