Subcategories

Tim Berne Paraphrase - Visitation Rites (1998) {Screwgun}

Posted By: ruskaval
Tim Berne Paraphrase - Visitation Rites (1998) {Screwgun}

Tim Berne Paraphrase - Visitation Rites (1998) {Screwgun}
EAC rip (secure mode) | FLAC (image)+CUE+LOG -> 450 Mb | MP3 @320 -> 169 Mb
Full Artwork @ 300 dpi (jpg) -> 24 Mb
© 1998 Screwgun Records | screwu 70002
Jazz / Avant-Garde Jazz / Saxophone

Visitation Rites is the debut of Paraphrase, a collaborative improvisational trio featuring Tim Berne on saxophones, Drew Gress on bass and drummer Tom Rainey. Recorded live in Berlin in 1996, Berne and company stomp, boomerang, flail and jump all over the place, musically, yet somehow it all seems to make sense. Berne's serpentine lines let him milk a motif for all it's worth before letting Rainey and Gress take it somewhere else. Although their flights of collective improvisation are rather lengthy, they maintain a sense of cohesiveness throughout this challenging music. Their musical tapestry is vivid, rendering emotional peaks along with moments of whimsy.
Personnel:
Tim Berne (alto & baritone saxophones)
Drew Gress (bass)
Tom Rainey (drums)

tracklist:
01. Poetic License
02. Piano Justice
03. I Can't Wait 'Till Tomorrow

INFO

Tim Berne Paraphrase - Visitation Rites (1998) {Screwgun}

Tim Berne Paraphrase - Visitation Rites (1998) {Screwgun}

Exact Audio Copy V0.99 prebeta 3 from 28. July 2007

Отчёт EAC об извлечении, выполненном 16. августа 2009, 11:17

Tim Berne & Paraphrase / Visitation Rites

Дисковод: _NEC DVD_RW ND-3540A Adapter: 3 ID: 1

Режим чтения : Достоверность
Использование точного потока : Да
Отключение кэша аудио : Да
Использование указателей C2 : Нет

Коррекция смещения при чтении : 48
Способность читать области Lead-in и Lead-out : Нет
Заполнение пропущенных сэмплов тишиной : Да
Удаление блоков с тишиной в начале и конце : Нет
При вычислениях CRC использовались нулевые сэмплы : Да
Интерфейс : Установленный внешний ASPI-интерфейс

Выходной формат : Пользовательский кодировщик
Выбранный битрейт : 768 kBit/s
Качество : Высокий
Добавление ID3-тэга : Нет
Утилита сжатия : D:\БЫВШИЙ G\Program Files\Exact Audio Copy\FLAC\FLAC.EXE
Дополнительные параметры : -6 -V -T "ARTIST=%a" -T "TITLE=%t" -T "ALBUM=%g" -T "DATE=%y" -T "TRACKNUMBER=%n" -T "GENRE=%m" -T "COMMENT=%e" %s -o %d


TOC извлечённого CD

Трек | Старт | Длительность | Начальный сектор | Конечный сектор
––––––––––––––––––––––––––––––––––-
1 | 0:00.00 | 20:02.73 | 0 | 90222
2 | 20:02.73 | 30:43.32 | 90223 | 228479
3 | 50:46.30 | 23:10.72 | 228480 | 332801


Характеристики диапазона извлечения и сообщения об ошибках

Выбранный диапазон

Имя файла G:\Tim Berne - Paraphrase Visitationrites\Tim Berne & Paraphrase - Visitation Rites.wav

Пиковый уровень 94.4 %
Качество диапазона 99.9 %
CRC копии AC2F968D
Копирование… OK

Ошибок не произошло

Конец отчёта


Thanks to dasaro!