Subcategories

Tim Warfield - A Sentimental Journey (2010)

Posted By: Bezz
Tim Warfield - A Sentimental Journey (2010)

Tim Warfield - A Sentimental Journey (2010)
EAC rip | FLAC + CUE + LOG | Full Scans | 324 Mb
Genre ~ Mainstream | Contemporary Jazz
Label ~ Criss Cross Jazz 1324

The tenor saxophonist Tim Warfield is pointing toward a jazz sound that reaches back 60 years in real time and a psychic millennium away in media time.

You'll hear musicians playing licks on A Sentimental Journey that were comfortably modern in the late 1950s. But there's a way to do that without seeming dogmatic or conceptually forced or just left behind; jazz is a cumulative art, a continuity.

Mr. Warfield, now in his mid-40s, comes from York, Pa., which gave him proximity to jazz in Philadelphia, Baltimore and Washington–cities whose clubs and audiences kept tradition healthy in jazz after bebop. He spent time playing with the Philadelphia organist Shirley Scott , and a record he made in her memory two years ago, “One for Shirley," introduced his new band. That group continues in A Sentimental Journey. It's all standards, not all ballads but almost; the quartet, with the trumpeter Terell Stafford , the organist Pat Bianchi and the drummer Byron Landham , takes long enough on each track to get in there completely.

Mr. Warfield presides with a pretty sound, close to singing and full of organized devices to get his solos rolling–nightclub tricks, ways to build up audience feedback.

From Sentimental Journey, where Mr. Landham shifts between triplet patterns and changes up his accents, Elvin Jones-style, the album heads into a cruise. There's “My Man," in which Mr. Warfield plays soprano saxophone with a tidy funeral-dirge introduction; “Speak Low," with Mr. Stafford on muted trumpet and Mr. Warfield playing whispered ballad talk over a carpet of organ; “In a Sentimental Mood," Duke Ellington's greatest love song, with stuttering, build-and-recede organ dynamics; and “Golden Earrings," at a crawl, the best and most extended spot for Mr. Warfield and Mr. Bianchi both, with no trumpet.

Mr. Warfield and Mr. Stafford have been playing together for more than 20 years, and their combined sound as they harmonize on themes, as well as the way they build solos off of each others' scattered ideas, is where the soul of the record lies. The music feels plush at heat-wave tempos; it takes its time and assumes you're not going anywhere ~ AllAboutJazz


Tracks List

1. Sentimental Journey
2. I'll Be Seeing You
3. My Man
4. Crazy Rhythm
5. Speak Low
6. In A Sentimental Mood
7. Golden Earrings
8. Here's That Rainy Day


Personel

Tim Warfiled - tenor & soprano sax
TerellStafford - trumpet, fluegelhorn
Pat Bianchi - Hammond B3 organ
Byron Landham - drums


Exact Audio Copy V1.0 beta 1 from 15. November 2010

EAC extraction logfile from 5. March 2011, 8:46

Tim Warfield / A Sentimental Journey

Used drive : ASUS DVD-E616A2 Adapter: 0 ID: 0

Read mode : Secure
Utilize accurate stream : Yes
Defeat audio cache : Yes
Make use of C2 pointers : No

Read offset correction : 6
Overread into Lead-In and Lead-Out : Yes
Fill up missing offset samples with silence : Yes
Delete leading and trailing silent blocks : No
Null samples used in CRC calculations : Yes
Used interface : Native Win32 interface for Win NT & 2000
Gap handling : Appended to previous track

Used output format : User Defined Encoder
Selected bitrate : 128 kBit/s
Quality : High
Add ID3 tag : No
Command line compressor : C:\Program Files\FLAC\flac.exe
Additional command line options : -8 -V -T "ARTIST=%a" -T "TITLE=%t" -T "ALBUM=%g" -T "DATE=%y" -T "TRACKNUMBER=%n" -T "TOTALTRACKS=%x" -T "GENRE=%m" -T "ALBUM ARTIST=%v" -T "ALBUMARTIST=%v" -T "COMMENT=L2Bits, EAC V1.0 beta 1, Secure Mode, Test & Copy, Acc


TOC of the extracted CD

Track | Start | Length | Start sector | End sector
––––––––––––––––––––––––––––-
1 | 0:00.00 | 9:26.46 | 0 | 42495
2 | 9:26.46 | 5:25.00 | 42496 | 66870
3 | 14:51.46 | 4:47.28 | 66871 | 88423
4 | 19:38.74 | 5:06.63 | 88424 | 111436
5 | 24:45.62 | 8:55.68 | 111437 | 151629
6 | 33:41.55 | 8:00.60 | 151630 | 187689
7 | 41:42.40 | 7:56.64 | 187690 | 223453
8 | 49:39.29 | 10:12.00 | 223454 | 269353


Track 1

Filename E:\Bezz Rip\01 - A Sentimental Journey - Sentimental Journey.wav

Pre-gap length 0:00:02.00

Peak level 97.7 %
Extraction speed 1.9 X
Track quality 100.0 %
Test CRC E64741AB
Copy CRC E64741AB
Accurately ripped (confidence 1) [4AEFA37D]
Copy OK

Track 2

Filename E:\Bezz Rip\02 - A Sentimental Journey - I'll Be Seeing You.wav

Pre-gap length 0:00:03.58

Peak level 89.5 %
Extraction speed 2.1 X
Track quality 100.0 %
Test CRC 601F8F6C
Copy CRC 601F8F6C
Accurately ripped (confidence 1) [985FAF98]
Copy OK

Track 3

Filename E:\Bezz Rip\03 - A Sentimental Journey - My Man.wav

Pre-gap length 0:00:03.58

Peak level 74.8 %
Extraction speed 2.2 X
Track quality 100.0 %
Test CRC FDF2F7FF
Copy CRC FDF2F7FF
Accurately ripped (confidence 1) [67809D08]
Copy OK

Track 4

Filename E:\Bezz Rip\04 - A Sentimental Journey - Crazy Rhythm.wav

Pre-gap length 0:00:03.58

Peak level 92.1 %
Extraction speed 2.1 X
Track quality 99.9 %
Test CRC 2A2385AF
Copy CRC 2A2385AF
Accurately ripped (confidence 1) [B1104533]
Copy OK

Track 5

Filename E:\Bezz Rip\05 - A Sentimental Journey - Speak Low.wav

Pre-gap length 0:00:03.58

Peak level 87.6 %
Extraction speed 2.7 X
Track quality 100.0 %
Test CRC 04C5FB6F
Copy CRC 04C5FB6F
Accurately ripped (confidence 1) [4CC7F241]
Copy OK

Track 6

Filename E:\Bezz Rip\06 - A Sentimental Journey - In a Sentimental Mood.wav

Pre-gap length 0:00:03.58

Peak level 82.4 %
Extraction speed 2.9 X
Track quality 100.0 %
Test CRC 67674ADA
Copy CRC 67674ADA
Cannot be verified as accurate (confidence 1) [541D31B5], AccurateRip returned [E70DFD55]
Copy OK

Track 7

Filename E:\Bezz Rip\07 - A Sentimental Journey - Golden Earrings.wav

Pre-gap length 0:00:03.58

Peak level 95.8 %
Extraction speed 2.8 X
Track quality 99.9 %
Test CRC 64105964
Copy CRC 64105964
Accurately ripped (confidence 1) [F779CFF0]
Copy OK

Track 8

Filename E:\Bezz Rip\08 - A Sentimental Journey - Here's That Rainy Day.wav

Pre-gap length 0:00:03.58

Peak level 87.3 %
Extraction speed 3.9 X
Track quality 99.9 %
Test CRC F3596CD3
Copy CRC F3596CD3
Accurately ripped (confidence 1) [E420D8CD]
Copy OK


7 track(s) accurately ripped
1 track(s) could not be verified as accurate

Some tracks could not be verified as accurate

No errors occurred

End of status report

==== Log checksum B5C11062A7196DE4F9F0A99DBD2E3834B8642224BEF46671DF71EB67E02D6FD0 ====



Tim Warfield - A Sentimental Journey (2010)


Tim Warfield - A Sentimental Journey (2010)


My own rip. Contact me if there is any problems!


FILESONIC links

Part 1 | Part 2 | Part 3 | Part 4


FILESERVE links

Part 1 | Part 2 | Part 3 | Part 4


HOTFILE links

Part 1 | Part 2 | Part 3 | Part 4


BITSHARE links

Part 1 | Part 2 | Part 3 | Part 4



Welcome to my blog for more wonderful music


PLEASE DO NOT PROVIDE MIRROR LINKS!