Subcategories

Tito Puente - Night Beat / Mucho Puente, Plus (1957) {RCA-Bear Family BCD 15686 rel 1993}

Posted By: ruskaval
Tito Puente - Night Beat / Mucho Puente, Plus (1957) {RCA-Bear Family BCD 15686 rel 1993}

Tito Puente - Night Beat / Mucho Puente, Plus (1957) {RCA-Bear Family BCD 15686 rel 1993}
EAC rip (secure mode) | FLAC (tracks)+CUE+LOG -> 445 Mb | MP3 @320 -> 175 Mb
Full Artwork @ 300 dpi (jpg) -> 23 Mb | 5% repair rar
© 1957, 1964, 1993 RCA Victor / Bear Family Records | BCD 15686
Jazz / International Jazz / Latin Jazz/ Cuban Traditions / Mambo / Afro-Cuban Jazz

In 1993, Bear Family released Night Beat/Mucho Puente, Plus, which contained two complete albums – Night Beat (1957) and Mucho Puente (1964), both originally released on RCA – by Latin jazz giant Tito Puente on one compact disc.
New York-born percussionist/bandleader Tito Puente has carried the torch for Latin jazz for some 40 years now. He remains proud of the albums he made for RCA in the 1950s, and this 26-track collection of two of them (plus three previously-unissued tracks) shows just why. Leading New York City's finest, including conga player Mongo Santamaria and tenor saxophonist Marty Holmes, Puente heats up the tepid Tea For Two and scorches such self-penned exotica as Night Ritual. For fans of both salsa and expressive jazz of any sort, early Tito is a treat. These titles were made to transferred to CD! The sound quality is breathtaking! 10 1957 recordings are here in Stereo for the first time.
Tito Puente - Night Beat / Mucho Puente, Plus (1957) {RCA-Bear Family BCD 15686 rel 1993}


Musicians
Leader, Timbales Tito Puente
Trumpet Vincent Frisaura
Saxophone Eddie Caine
Saxophone Joseph Grimaldi
Saxophone Martin "Marty" Holmes
Saxophone Allen Fields
Trombone Anatole Lorraine
Trombone Hale M. Rood
Trombone Morty Trautman
Trumpet Bernie Glow
Trumpet Gene Rapetti
Trumpet Doc Severinsen
Trumpet Myron D. "Mike" Shain
Guitar Al Casamenti
Bass Robert Rodriguez
Drums Teddy Sommer
Bongos William Correa
Congas Mongo Santamaria
Piano Alvin Gellers
Saxophone Gene Quill
Trombone Bob Asher
Trombone Eddie Bert
Guitar Howard Collins
Trumpet Francis Williams
Trombone Sonny Rosso
Trumpet John Frosk
Guitar Barry Galbraith
Drums Jimmy Cobb
Congas Julio Collazo
Guitar Ernest Calabria
Keyboard Glockenspiel Hugo Montenegro
Cello Sidney Edwards
Cello Peter Makers
Viola Theodore Adoff
Viola Sol Deutsch
Violin Julius Brand
Violin Max Ceppos
Violin Arnold Eidus
Violin J. Held
Violin Morris Lefkowitz
Violin Harry Melnikoff
Violin Sam Rand
Violin Harry Urbant
Timbales Fred Pagani
Oboe Phil Bodner
Flute Gerald Sanfino
Cello George Ricci
Violin Max Cahn
Violin Paul Gershman
Violin Harry Katzman
Violin Milton Lomask
Violin Ralph Silverman
Trumpet Nick Travis
Guitar John Smith
Guitar George Barnes
Guitar Al Caiola
Guitar John Quara
Guitar Francisco Sanchez

Tito Puente - Night Beat / Mucho Puente, Plus (1957) {RCA-Bear Family BCD 15686 rel 1993}


tracklist:
01 Live A Little (Let's Face It) 02:56
02 The Late, Late Scene 02:54
03 Midnight Lament (Minor Moods) 03:11
04 Night Hawk (Coconut And Rice) 02:34
05 Malibu Beat 02:31
06 Mambo Beat 04:12
07 Night Ritual 07:16
08 The Floozie 03:10
09 Poor Butterfly 02:51
10 Lullaby Of The Leaves 02:38
11 Duerme (Time Was) 02:50
12 Poor Butterfly 02:48
13 Lullaby Of The Leaves 02:31
14 Noche De Ronda (Be Mine Tonight) 02:53
15 Duerme (Time Was) 02:31
16 Ecstasy 02:33
17 Tea For Two 02:43
18 Son De La Loma 02:10
19 Tito's Guajira 02:40
20 Almendra 02:46
21 La Ola Marina 02:27
22 Un Poquito De Tu Amor 02:20
23 What A Difference A Day Made 03:12
24 Night Beat 02:59
25 Emerald Beach 03:33
26 Carioca 02:18

Exact Audio Copy V1.0 beta 1 from 15. November 2010

EAC extraction logfile from 18. April 2011, 8:42

Tito Puente / Night Beat–Mucho Puente Plus

Used drive : SONY DVD RW DRU-810A Adapter: 1 ID: 3

Read mode : Secure
Utilize accurate stream : Yes
Defeat audio cache : Yes
Make use of C2 pointers : No

Read offset correction : 618
Overread into Lead-In and Lead-Out : No
Fill up missing offset samples with silence : Yes
Delete leading and trailing silent blocks : No
Null samples used in CRC calculations : Yes
Used interface : Installed external ASPI interface
Gap handling : Appended to previous track

Used output format : User Defined Encoder
Selected bitrate : 768 kBit/s
Quality : High
Add ID3 tag : No
Command line compressor : C:\Program Files\Exact Audio Copy-NEW\Flac\flac.exe
Additional command line options : -8 -V -T "ARTIST=%a" -T "TITLE=%t" -T "ALBUM=%g" -T "DATE=%y" -T "TRACKNUMBER=%n" -T "TOTALTRACKS=%x" -T "GENRE=%m" -T "ALBUMARTIST=%v" -T "ALBUM ARTIST=%v" -T "COMMENT=EAC V1.01b1, Secure Mode, Test & Copy, AccurateRip, FL


TOC of the extracted CD

Track | Start | Length | Start sector | End sector
––––––––––––––––––––––––––––-
1 | 0:00.00 | 2:56.15 | 0 | 13214
2 | 2:56.15 | 2:54.35 | 13215 | 26299
3 | 5:50.50 | 3:11.15 | 26300 | 40639
4 | 9:01.65 | 2:34.42 | 40640 | 52231
5 | 11:36.32 | 2:31.43 | 52232 | 63599
6 | 14:08.00 | 4:12.20 | 63600 | 82519
7 | 18:20.20 | 7:16.55 | 82520 | 115274
8 | 25:37.00 | 3:10.57 | 115275 | 129581
9 | 28:47.57 | 2:51.50 | 129582 | 142456
10 | 31:39.32 | 2:38.15 | 142457 | 154321
11 | 34:17.47 | 2:50.68 | 154322 | 167139
12 | 37:08.40 | 2:48.55 | 167140 | 179794
13 | 39:57.20 | 2:31.35 | 179795 | 191154
14 | 42:28.55 | 2:53.60 | 191155 | 204189
15 | 45:22.40 | 2:31.50 | 204190 | 215564
16 | 47:54.15 | 2:33.37 | 215565 | 227076
17 | 50:27.52 | 2:43.30 | 227077 | 239331
18 | 53:11.07 | 2:10.00 | 239332 | 249081
19 | 55:21.07 | 2:40.60 | 249082 | 261141
20 | 58:01.67 | 2:46.43 | 261142 | 273634
21 | 60:48.35 | 2:27.45 | 273635 | 284704
22 | 63:16.05 | 2:20.50 | 284705 | 295254
23 | 65:36.55 | 3:12.22 | 295255 | 309676
24 | 68:49.02 | 2:59.18 | 309677 | 323119
25 | 71:48.20 | 3:33.55 | 323120 | 339149
26 | 75:22.00 | 2:16.22 | 339150 | 349371


Track 1

Filename J:\New Rips\Tito Puente - Night Beat–Mucho Puente Plus (1993) [FLAC]\01 - Live A Little.wav

Pre-gap length 0:00:02.00

Peak level 85.9 %
Extraction speed 4.8 X
Track quality 100.0 %
Test CRC 9C4298F7
Copy CRC 9C4298F7
Accurately ripped (confidence 1) [A454D5B6]
Copy OK

Track 2

Filename J:\New Rips\Tito Puente - Night Beat–Mucho Puente Plus (1993) [FLAC]\02 - The Late Late Scene.wav

Pre-gap length 0:00:03.33

Peak level 91.1 %
Extraction speed 5.1 X
Track quality 100.0 %
Test CRC 52922762
Copy CRC 52922762
Accurately ripped (confidence 1) [5F61BD8D]
Copy OK

Track 3

Filename J:\New Rips\Tito Puente - Night Beat–Mucho Puente Plus (1993) [FLAC]\03 - Midnight Lament.wav

Pre-gap length 0:00:02.68

Peak level 70.8 %
Extraction speed 5.3 X
Track quality 100.0 %
Test CRC 1F9A6D8F
Copy CRC 1F9A6D8F
Accurately ripped (confidence 1) [F7673B64]
Copy OK

Track 4

Filename J:\New Rips\Tito Puente - Night Beat–Mucho Puente Plus (1993) [FLAC]\04 - Night Hawk.wav

Pre-gap length 0:00:03.28

Peak level 81.6 %
Extraction speed 5.5 X
Track quality 100.0 %
Test CRC 461FF723
Copy CRC 461FF723
Accurately ripped (confidence 1) [4F7A61D9]
Copy OK

Track 5

Filename J:\New Rips\Tito Puente - Night Beat–Mucho Puente Plus (1993) [FLAC]\05 - Malibu Beat.wav

Pre-gap length 0:00:03.17

Peak level 82.5 %
Extraction speed 5.8 X
Track quality 100.0 %
Test CRC B8D74BD7
Copy CRC B8D74BD7
Accurately ripped (confidence 1) [FDA1CB3A]
Copy OK

Track 6

Filename J:\New Rips\Tito Puente - Night Beat–Mucho Puente Plus (1993) [FLAC]\06 - Mambo Beat.wav

Pre-gap length 0:00:03.25

Peak level 88.0 %
Extraction speed 6.5 X
Track quality 100.0 %
Test CRC 6EC78CD1
Copy CRC 6EC78CD1
Accurately ripped (confidence 1) [DD93ADBB]
Copy OK

Track 7

Filename J:\New Rips\Tito Puente - Night Beat–Mucho Puente Plus (1993) [FLAC]\07 - Night Ritual.wav

Pre-gap length 0:00:03.25

Peak level 71.4 %
Extraction speed 7.5 X
Track quality 100.0 %
Test CRC 0C9DA97A
Copy CRC 0C9DA97A
Accurately ripped (confidence 1) [8CE3D473]
Copy OK

Track 8

Filename J:\New Rips\Tito Puente - Night Beat–Mucho Puente Plus (1993) [FLAC]\08 - The Floozie.wav

Pre-gap length 0:00:02.73

Peak level 69.0 %
Extraction speed 7.1 X
Track quality 100.0 %
Test CRC F23613C4
Copy CRC F23613C4
Accurately ripped (confidence 1) [2E068103]
Copy OK

Track 9

Filename J:\New Rips\Tito Puente - Night Beat–Mucho Puente Plus (1993) [FLAC]\09 - Poor Butterfly.wav

Pre-gap length 0:00:03.60

Peak level 84.3 %
Extraction speed 5.8 X
Track quality 99.9 %
Test CRC D31D5BF5
Copy CRC D31D5BF5
Accurately ripped (confidence 1) [A358CE6F]
Copy OK

Track 10

Filename J:\New Rips\Tito Puente - Night Beat–Mucho Puente Plus (1993) [FLAC]\10 - Lullaby Of The Leaves.wav

Pre-gap length 0:00:03.35

Peak level 67.2 %
Extraction speed 7.3 X
Track quality 100.0 %
Test CRC D3C52C19
Copy CRC D3C52C19
Accurately ripped (confidence 1) [357B37E1]
Copy OK

Track 11

Filename J:\New Rips\Tito Puente - Night Beat–Mucho Puente Plus (1993) [FLAC]\11 - Duerme.wav

Pre-gap length 0:00:03.52

Peak level 71.0 %
Extraction speed 7.6 X
Track quality 100.0 %
Test CRC 09175E1F
Copy CRC 09175E1F
Accurately ripped (confidence 1) [B9283876]
Copy OK

Track 12

Filename J:\New Rips\Tito Puente - Night Beat–Mucho Puente Plus (1993) [FLAC]\12 - Poor Butterfly.wav

Pre-gap length 0:00:03.40

Peak level 45.1 %
Extraction speed 7.6 X
Track quality 100.0 %
Test CRC DEBB358C
Copy CRC DEBB358C
Accurately ripped (confidence 1) [9C755D85]
Copy OK

Track 13

Filename J:\New Rips\Tito Puente - Night Beat–Mucho Puente Plus (1993) [FLAC]\13 - Lullaby Of The Leaves.wav

Pre-gap length 0:00:03.28

Peak level 56.0 %
Extraction speed 7.7 X
Track quality 100.0 %
Test CRC EA7ADED3
Copy CRC EA7ADED3
Accurately ripped (confidence 1) [AAC14927]
Copy OK

Track 14

Filename J:\New Rips\Tito Puente - Night Beat–Mucho Puente Plus (1993) [FLAC]\14 - Noche De Ronda.wav

Pre-gap length 0:00:03.28

Peak level 62.9 %
Extraction speed 8.1 X
Track quality 100.0 %
Test CRC 28976B4B
Copy CRC 28976B4B
Accurately ripped (confidence 1) [70D657EB]
Copy OK

Track 15

Filename J:\New Rips\Tito Puente - Night Beat–Mucho Puente Plus (1993) [FLAC]\15 - Duerme.wav

Pre-gap length 0:00:03.03

Peak level 54.3 %
Extraction speed 8.0 X
Track quality 100.0 %
Test CRC F9D376B0
Copy CRC F9D376B0
Accurately ripped (confidence 1) [85E01F94]
Copy OK

Track 16

Filename J:\New Rips\Tito Puente - Night Beat–Mucho Puente Plus (1993) [FLAC]\16 - Ecstasy.wav

Pre-gap length 0:00:03.33

Peak level 73.4 %
Extraction speed 8.2 X
Track quality 100.0 %
Test CRC DE9AFD56
Copy CRC DE9AFD56
Accurately ripped (confidence 1) [D70F69E2]
Copy OK

Track 17

Filename J:\New Rips\Tito Puente - Night Beat–Mucho Puente Plus (1993) [FLAC]\17 - Tea For Two.wav

Pre-gap length 0:00:02.37

Peak level 80.0 %
Extraction speed 8.3 X
Track quality 100.0 %
Test CRC 4D199869
Copy CRC 4D199869
Accurately ripped (confidence 1) [9F3F7B75]
Copy OK

Track 18

Filename J:\New Rips\Tito Puente - Night Beat–Mucho Puente Plus (1993) [FLAC]\18 - Son De La Loma.wav

Pre-gap length 0:00:03.20

Peak level 73.2 %
Extraction speed 8.1 X
Track quality 100.0 %
Test CRC F67713DB
Copy CRC F67713DB
Accurately ripped (confidence 1) [7D560622]
Copy OK

Track 19

Filename J:\New Rips\Tito Puente - Night Beat–Mucho Puente Plus (1993) [FLAC]\19 - Tito's Guajira.wav

Pre-gap length 0:00:03.17

Peak level 59.9 %
Extraction speed 8.6 X
Track quality 100.0 %
Test CRC C8D0264A
Copy CRC C8D0264A
Accurately ripped (confidence 1) [A57F4592]
Copy OK

Track 20

Filename J:\New Rips\Tito Puente - Night Beat–Mucho Puente Plus (1993) [FLAC]\20 - Almendra.wav

Pre-gap length 0:00:02.52

Peak level 54.0 %
Extraction speed 8.9 X
Track quality 100.0 %
Test CRC 671DAD0E
Copy CRC 671DAD0E
Accurately ripped (confidence 1) [91A544F6]
Copy OK

Track 21

Filename J:\New Rips\Tito Puente - Night Beat–Mucho Puente Plus (1993) [FLAC]\21 - La Ola Marina.wav

Pre-gap length 0:00:03.10

Peak level 61.1 %
Extraction speed 8.7 X
Track quality 100.0 %
Test CRC 9B4CB7D2
Copy CRC 9B4CB7D2
Accurately ripped (confidence 1) [3D6A3CA0]
Copy OK

Track 22

Filename J:\New Rips\Tito Puente - Night Beat–Mucho Puente Plus (1993) [FLAC]\22 - Un Poquito De Tu Amor.wav

Pre-gap length 0:00:02.68

Peak level 63.0 %
Extraction speed 8.7 X
Track quality 100.0 %
Test CRC 2CA4F58D
Copy CRC 2CA4F58D
Accurately ripped (confidence 1) [DC375541]
Copy OK

Track 23

Filename J:\New Rips\Tito Puente - Night Beat–Mucho Puente Plus (1993) [FLAC]\23 - What A Difference A Day Made.wav

Pre-gap length 0:00:03.35

Peak level 46.9 %
Extraction speed 9.4 X
Track quality 100.0 %
Test CRC DBB2C79A
Copy CRC DBB2C79A
Accurately ripped (confidence 1) [F27B5987]
Copy OK

Track 24

Filename J:\New Rips\Tito Puente - Night Beat–Mucho Puente Plus (1993) [FLAC]\24 - Night Beat.wav

Pre-gap length 0:00:04.17

Peak level 83.9 %
Extraction speed 9.5 X
Track quality 100.0 %
Test CRC C66233E2
Copy CRC C66233E2
Accurately ripped (confidence 1) [5A267D7A]
Copy OK

Track 25

Filename J:\New Rips\Tito Puente - Night Beat–Mucho Puente Plus (1993) [FLAC]\25 - Emerald Beach.wav

Pre-gap length 0:00:02.70

Peak level 83.4 %
Extraction speed 9.9 X
Track quality 100.0 %
Test CRC C05C7748
Copy CRC C05C7748
Accurately ripped (confidence 1) [C433B3A4]
Copy OK

Track 26

Filename J:\New Rips\Tito Puente - Night Beat–Mucho Puente Plus (1993) [FLAC]\26 - Carioca.wav

Pre-gap length 0:00:02.60

Peak level 87.3 %
Extraction speed 9.2 X
Track quality 100.0 %
Test CRC 6746716E
Copy CRC 6746716E
Accurately ripped (confidence 1) [ABD0BFAD]
Copy OK


All tracks accurately ripped

No errors occurred

End of status report

==== Log checksum 5A01EC9B3B673357869E3D60EB44B6941EAB89616AE996EF3645C9E1002D2873 ====


Tito Puente - Night Beat / Mucho Puente, Plus (1957) {RCA-Bear Family BCD 15686 rel 1993}

Tito Puente - Night Beat / Mucho Puente, Plus (1957) {RCA-Bear Family BCD 15686 rel 1993}



===