Subcategories

Tod Machover - ... but not simpler...(2011)

Posted By: Piterets
Tod Machover - ... but not simpler...(2011)

Tod Machover - … but not simpler… (2011)
Contemporary Classical, Electronic | Bridge | 2011 | 68:42 | EAC (FLAC, cue, log) | Booklet | Various File Hosts | 287 MB
Odense Symphony Orchestra, Paul Mann (conductor), Michael Chertock (hyperpiano), iO Quartet

This collection of Tod Machover's (b. 1953) music focuses on chamber and orchestral music composed during the last decade, both with and without electronic enhancement. Machover's music is a fascinating blend of expressive and lyrical melody combined with a sophisticated ear for textural complexity... The largest composition on this disc is the piano concerto Jeux Deux, scored for large orchestra, with the soloist performing on a "hyperpiano"- a concert grand piano which interacts with sensors and computer programs in order to expand its technical possibilities.


Track List:

01. Machover, Tod: / Sparkler_ Orch and Elec_ 2001 [0:12:18.11]
02. Machover, Tod: / Interlude 1_ After Bach_ 2011 [0:01:55.40]
03. Machover, Tod: 3 Hyper-Dim-Sums for Qt (2004) / 001 Glade [0:01:47.07]
04. Machover, Tod: 3 Hyper-Dim-Sums for Qt (2004) / 002 Winding Line [0:02:04.72]
05. Machover, Tod: 3 Hyper-Dim-Sums for Qt (2004) / 003 Punchy [0:01:13.05]
06. Machover, Tod: / Interlude 2_ After Byrd_ 2011 [0:02:37.63]
07. Machover, Tod: / But Not Simpler_ Qt_ 2005 [0:14:33.32]
08. Machover, Tod: Jeux Deux for Hyperpno and Orch (2005) / 001 Swift and Stealthy [0:05:55.35]
09. Machover, Tod: Jeux Deux for Hyperpno and Orch (2005) / 002 Freely Lyrical [0:07:01.63]
10. Machover, Tod: Jeux Deux for Hyperpno and Orch (2005) / 003 Buoyant and Precise [0:04:07.44]

Exact Audio Copy V1.0 beta 3 from 29. August 2011

EAC extraction logfile from 29. January 2013, 17:52

Machover, Tod: / Machover: Sparkler/Interlude 1 and 2/3 Hyper-Dim-Sums/But Not Simpler/Jeux Deux; IO Qt/Machover/Chertock Odense SO/Mann

Used drive : QSI CDRW/DVD SBW242U Adapter: 1 ID: 0

Read mode : Secure
Utilize accurate stream : Yes
Defeat audio cache : Yes
Make use of C2 pointers : No

Read offset correction : 6
Overread into Lead-In and Lead-Out : No
Fill up missing offset samples with silence : Yes
Delete leading and trailing silent blocks : No
Null samples used in CRC calculations : Yes
Used interface : Native Win32 interface for Win NT & 2000

Used output format : User Defined Encoder
Selected bitrate : 768 kBit/s
Quality : High
Add ID3 tag : No
Command line compressor : C:\Program Files\Exact Audio Copy\FLAC\FLAC.EXE
Additional command line options : -6 -V -T "ARTIST=%artist%" -T "TITLE=%title%" -T "ALBUM=%albumtitle%" -T "DATE=%year%" -T "TRACKNUMBER=%tracknr%" -T "GENRE=%genre%" -T "COMMENT=%comment%" -T "BAND=%albuminterpret%" -T "ALBUMARTIST=%albuminterpret%" -T "COMPOSER=%composer%" %haslyrics%–tag-from-file=LYRICS="%lyricsfile%"%haslyrics% -T "DISCNUMBER=%cdnumber%" -T "TOTALDISCS=%totalcds%" -T "TOTALTRACKS=%numtracks%" %hascover%–picture="%coverfile%"%hascover% %source% -o %dest%


TOC of the extracted CD

Track | Start | Length | Start sector | End sector
––––––––––––––––––––––––––––-
1 | 0:00.00 | 12:18.11 | 0 | 55360
2 | 12:18.11 | 1:55.40 | 55361 | 64025
3 | 14:13.51 | 1:47.07 | 64026 | 72057
4 | 16:00.58 | 2:04.72 | 72058 | 81429
5 | 18:05.55 | 1:13.05 | 81430 | 86909
6 | 19:18.60 | 2:37.63 | 86910 | 98747
7 | 21:56.48 | 14:33.32 | 98748 | 164254
8 | 36:30.05 | 5:55.35 | 164255 | 190914
9 | 42:25.40 | 7:01.63 | 190915 | 222552
10 | 49:27.28 | 4:07.44 | 222553 | 241121


Range status and errors

Selected range

Filename G:\Tod Machover - …but not simpler\Machover, Tod- - Machover- Sparkler,Interlude 1 and 2,3 Hyper-Dim-Sums,But Not Simpler,Jeux Deux; IO Qt,Machover,Chertock Odense SO,Mann.wav

Peak level 96.6 %
Extraction speed 2.9 X
Range quality 100.0 %
Test CRC 73F46C4F
Copy CRC 73F46C4F
Copy OK

No errors occurred


AccurateRip summary

Track 1 not present in database
Track 2 not present in database
Track 3 not present in database
Track 4 not present in database
Track 5 not present in database
Track 6 not present in database
Track 7 not present in database
Track 8 not present in database
Track 9 not present in database
Track 10 not present in database

None of the tracks are present in the AccurateRip database

End of status report

==== Log checksum 0FEE6327FEC6E8D4EA05AC2D449D938E0E2F24DC30C5E1EB6BA64B30DD1DC862 ====


Read more about the CD here.
Read more about Tod Machover here.

3% recovery record is included.

More contemporary American and European music is available at my blog.