Subcategories

Tokyo String Quartet, Roth Trio - Debussy, Ravel, Fauré

Posted By: dangdang
Tokyo String Quartet, Roth Trio - Debussy, Ravel, Fauré

Tokyo String Quartet, Roth Trio - Debussy, Ravel, Fauré
EAC | ape+cue, log | Book | 335 MB
Classical | Recorded: 1961, 1977 | Released: 1996


Editorial Reviews
Amazon.com
The Tokyo String Quartet took the chamber music world by storm a couple of decades ago, offering performances of superb discipline allied to real urgency of communication. Their Debussy and Ravel interpretations were part of that initial series of fine recordings which helped to establish their reputation, and having them back at budget price makes them one of the chamber music bargains of the century. It's all part of the strange economics of the classical music business. Now recording for RCA, there's no reason for Sony to keep their Tokyo Quartet discs in the catalogue at full price, particularly if they record the same music again, as often happens. It's a buyer's market out there, so what are you waiting for? –David Hurwitz
However this CD seems OOP at the moment…

1. String Quartet, L. 85 (Op. 10): 1. Animé et très décidé
2. String Quartet, L. 85 (Op. 10): 2. Assiz vif et bien rythmé
3. String Quartet, L. 85 (Op. 10): 3. Andantino, doucement expressif
4. String Quartet, L. 85 (Op. 10): 4. Très modéré
Composer: Claude Debussy
Performer: Tokyo String Quartet, Kikuei Ikeda, Kazuhide Isomura, Koichiro Harada, Sadao Harada

5. String Quartet in F major: 1. Allegro moderato. Très doux
6. String Quartet in F major: 2. Assez vif, très rythmé
7. String Quartet in F major: 3. Très lent
8. String Quartet in F major: 4. Vif et agité
Composer: Maurice Ravel
Performer: Tokyo String Quartet, Kikuei Ikeda, Kazuhide Isomura, Koichiro Harada, Sadao Harada

9. Piano Trio in D minor, Op. 120: 1. Allegro, ma non troppo
10. Piano Trio in D minor, Op. 120: 2. Andantino
11. Piano Trio in D minor, Op. 120: 3. Allegro vivo
Composer: Gabriel Fauré
Performer: Roth Trio, Feri Roth, Joseph Schuster, Andre Previn
Sony Classical: SBK62 413

Exact Audio Copy V0.99 prebeta 5 from 4. May 2009

EAC extraction logfile from 3. May 2010, 12:36

Tokyo String Quartet / Debussy; Ravel: String Quartets; Faure: Piano Trio

Used drive : HL-DT-STDVDRAM GE20LU10 Adapter: 5 ID: 0

Read mode : Secure
Utilize accurate stream : Yes
Defeat audio cache : No
Make use of C2 pointers : No

Read offset correction : 667
Overread into Lead-In and Lead-Out : No
Fill up missing offset samples with silence : Yes
Delete leading and trailing silent blocks : No
Null samples used in CRC calculations : No
Used interface : Installed external ASPI interface

Used output format : Monkey's Audio Lossless Encoder
Selected bitrate : Fast Lossless Compression
Quality : High
Add ID3 tag : Yes
Command line compressor : C:\Program Files\Monkey's Audio\MAC.exe


TOC of the extracted CD

Track | Start | Length | Start sector | End sector
––––––––––––––––––––––––––––-
1 | 0:00.00 | 6:18.37 | 0 | 28386
2 | 6:18.37 | 3:46.30 | 28387 | 45366
3 | 10:04.67 | 8:06.65 | 45367 | 81881
4 | 18:11.57 | 6:52.60 | 81882 | 112841
5 | 25:04.42 | 8:14.15 | 112842 | 149906
6 | 33:18.57 | 6:04.08 | 149907 | 177214
7 | 39:22.65 | 7:49.65 | 177215 | 212454
8 | 47:12.55 | 5:21.45 | 212455 | 236574
9 | 52:34.25 | 5:56.40 | 236575 | 263314
10 | 58:30.65 | 8:08.10 | 263315 | 299924
11 | 66:39.00 | 4:33.42 | 299925 | 320441


Range status and errors

Selected range

Filename I:\upload\Tokyo String Quartet Debussy Ravel\CD.wav

Peak level 99.8 %
Range quality 100.0 %
Test CRC 598D68C4
Copy CRC 598D68C4
Copy OK

No errors occurred


AccurateRip summary

Track 1 accurately ripped (confidence 2) [CEF32EA4]
Track 2 accurately ripped (confidence 2) [69D17A7E]
Track 3 accurately ripped (confidence 2) [AAC05509]
Track 4 accurately ripped (confidence 2) [10F7FF13]
Track 5 accurately ripped (confidence 2) [98EC5E64]
Track 6 accurately ripped (confidence 2) [14845A31]
Track 7 accurately ripped (confidence 2) [CAB5C100]
Track 8 accurately ripped (confidence 2) [22275925]
Track 9 accurately ripped (confidence 2) [A8D08037]
Track 10 accurately ripped (confidence 2) [1D292482]
Track 11 accurately ripped (confidence 2) [034D58A4]

All tracks accurately ripped

End of status report