Subcategories

Tom Petty - Transmission Impossible (2015) [Bootleg]

Posted By: delpotro
Tom Petty - Transmission Impossible (2015) [Bootleg]

Tom Petty - Transmission Impossible (2015)
EAC Rip | FLAC (tracks+log+.cue) - 1,22 Gb | Scans - 38 Mb | 03:19:54
Rock, Heartland Rock, Roots, Blues Rock | Label: Eat To The Beat

His first album hit the streets in 1976 and initially its arrival caused few heads to turn. Music fans were confused; were these a bunch of punks or 1960s revivalists with a liking for Gene Clark era Byrds? Fortunately, as is so often the case, the UK seemed to 'get it' pretty soon after the record s release there and it reached #24 on the British chart. News traveled West, and a full year after the home turf release Tom Petty and the Heartbreakers entered the Billboard chart. Shortly thereafter second album You're Gonna Get It! was released, and became a hit right away. The rest, as they say, is history. But it s relatively recent history about which any number of books, films and of course superlative albums are readily available for students of this remarkable performer to delve into.

THREE DISC BROADCAST COLLECTION DISC 1 - The Coliseum, Jacksonville, FL, 24th July 1987 DISC 2 - Dean's Dome, Chapel Hill, NC, 13th September 1989 DISC 3 - RARE TV BROADCASTS 1978 - 1994 This three disc set adds to Tom Petty's body of work by making available in one collection these broadcast recordings from the live canon of one of Pop & Rock music's most respected and successful performers
Tracklist:
DISC 1 - The Coliseum, Jacksonville, FL, 24th July 1987
1-1 Bye Bye Johnny 3:14
1-2 Breakdown 4:33
1-3 King's Road 6:45
1-4 The Waiting 7:11
1-5 Don't Come Around Here No More 7:22
1-6 For What It's Worth 5:11
1-7 The Image of Me 3:20
1-8 Here Comes My Girl 6:35
1-9 Should I Stay or Should I Go 2:59
1-10 You Can't Judge A Book By Its Cover 3:36
1-11 Any Way You Want It 3:19
1-12 Runaway Trains 5:58
1-13 Refugee 5:33

DISC 2 - Dean's Dome, Chapel Hill, NC, 13th September 1989
2-1 Bye Bye Johnny 3:44
2-2 The Damage You've Done 4:56
2-3 Breakdown 4:55
2-4 Free Fallin' 4:58
2-5 The Waiting 5:35
2-6 Benmont's Boogie 2:38
2-7 Don't Come Around Here No More 8:22
2-8 Southern Accents 4:51
2-9 Even The Losers 4:14
2-10 Listen to Her Heart 2:59
2-11 A Face in the Crowd 3:55
2-12 Something Big 4:42
2-13 I Won't Back Down 3:20
2-14 I Need To Know 2:18
2-15 Refugee 5:25
2-16 Runnin Down a Dream 5:24

DISC 3 - RARE TV BROADCASTS 1978 - 1994
3-1 Free Fallin' (Bridge School Benefit 1994) 4:22
3-2 Rainy Day Women 12 & 35 (Bob Dylan 30th Anniversary Concert 1992) 4:45
3-3 Straight Into Darkness (Farm Aid 1985) 4:48
3-4 Refugee (Live Aid 1985) 4:43
3-5 License To Kill (Bob Dylan 30th Anniversary Concert 1992) 4:36
3-6 Even The Losers (Farm Aid 1986) 3:41
3-7 Spike (Farm Aid 1986) 6:43
3-8 Across The Borderline (Farm Aid 1985 w. Bob Dylan) 4:08
3-9 Mr. Tambourine Man (Bob Dylan 30th Anniversary Concert 1992 w. Roger McGuinn) 4:02
3-10 I Won't Back Down (Bridge School Benefit 1994) 3:13
3-11 Time To Move On (Bridge School Benefit 1994) 4:19
3-12 A Face In The Crowd (Letterman 1991) 4:04
3-13 Thank God (Chabad-Lubavitch Benfit 1986 w. Bob Dylan) 2:22
3-14 Fooled Again (I Don't Like It) 6:18

Exact Audio Copy V1.1 from 23. June 2015

EAC extraction logfile from 20. September 2015, 16:32

Tom Petty / Transmission Impossible

Used drive : ASUS BC-1205PT Adapter: 1 ID: 0

Read mode : Secure
Utilize accurate stream : Yes
Defeat audio cache : Yes
Make use of C2 pointers : No

Read offset correction : 667
Overread into Lead-In and Lead-Out : No
Fill up missing offset samples with silence : Yes
Delete leading and trailing silent blocks : No
Null samples used in CRC calculations : Yes
Used interface : Native Win32 interface for Win NT & 2000
Gap handling : Appended to previous track

Used output format : User Defined Encoder
Selected bitrate : 1024 kBit/s
Quality : High
Add ID3 tag : No
Command line compressor : C:\Program Files (x86)\Exact Audio Copy\FLAC\FLAC.EXE
Additional command line options : -8 -V -T "ARTIST=%artist%" -T "TITLE=%title%" -T "ALBUM=%albumtitle%" -T "DATE=%year%" -T "TRACKNUMBER=%tracknr%" -T "GENRE=%genre%" -T "PERFORMER=%albuminterpret%" -T "COMPOSER=%composer%" %haslyrics%–tag-from-file=LYRICS="%lyricsfile%"%haslyrics% -T "ALBUMARTIST=%albumartist%" -T "DISCNUMBER=%cdnumber%" -T "TOTALDISCS=%totalcds%" -T "TOTALTRACKS=%numtracks%" -T "COMMENT=%comment%" %source% -o %dest%


TOC of the extracted CD

Track | Start | Length | Start sector | End sector
––––––––––––––––––––––––––––-
1 | 0:00.00 | 3:13.45 | 0 | 14519
2 | 3:13.45 | 4:32.71 | 14520 | 34990
3 | 7:46.41 | 6:44.71 | 34991 | 65361
4 | 14:31.37 | 7:10.71 | 65362 | 97682
5 | 21:42.33 | 7:21.70 | 97683 | 130827
6 | 29:04.28 | 5:10.69 | 130828 | 154146
7 | 34:15.22 | 3:19.70 | 154147 | 169141
8 | 37:35.17 | 6:34.71 | 169142 | 198762
9 | 44:10.13 | 2:58.71 | 198763 | 212183
10 | 47:09.09 | 3:35.71 | 212184 | 228379
11 | 50:45.05 | 3:18.70 | 228380 | 243299
12 | 54:04.00 | 5:57.72 | 243300 | 270146
13 | 60:01.72 | 5:33.03 | 270147 | 295124


Track 1

Filename Q:\mp3s\Hardcore\CD Rips 2015\Tom Petty - Transmission Impossible (2015) [FLAC] {ETTB057}\Disc 1\ 01 - Bye Bye Johnny.wav

Pre-gap length 0:00:02.00

Peak level 97.2 %
Extraction speed 3.7 X
Track quality 100.0 %
Test CRC 0DC5187E
Copy CRC 0DC5187E
Track not present in AccurateRip database
Copy OK

Track 2

Filename Q:\mp3s\Hardcore\CD Rips 2015\Tom Petty - Transmission Impossible (2015) [FLAC] {ETTB057}\Disc 1\ 02 - Breakdown.wav

Peak level 96.6 %
Extraction speed 4.4 X
Track quality 100.0 %
Test CRC A208980C
Copy CRC A208980C
Track not present in AccurateRip database
Copy OK

Track 3

Filename Q:\mp3s\Hardcore\CD Rips 2015\Tom Petty - Transmission Impossible (2015) [FLAC] {ETTB057}\Disc 1\ 03 - King's Road.wav

Peak level 98.9 %
Extraction speed 5.1 X
Track quality 100.0 %
Test CRC D8A5991C
Copy CRC D8A5991C
Track not present in AccurateRip database
Copy OK

Track 4

Filename Q:\mp3s\Hardcore\CD Rips 2015\Tom Petty - Transmission Impossible (2015) [FLAC] {ETTB057}\Disc 1\ 04 - The Waiting.wav

Peak level 93.2 %
Extraction speed 5.3 X
Track quality 99.9 %
Test CRC B7CA8F3A
Copy CRC B7CA8F3A
Track not present in AccurateRip database
Copy OK

Track 5

Filename Q:\mp3s\Hardcore\CD Rips 2015\Tom Petty - Transmission Impossible (2015) [FLAC] {ETTB057}\Disc 1\ 05 - Don't Come Around Here No More.wav

Peak level 99.6 %
Extraction speed 6.2 X
Track quality 100.0 %
Test CRC DB926773
Copy CRC DB926773
Track not present in AccurateRip database
Copy OK

Track 6

Filename Q:\mp3s\Hardcore\CD Rips 2015\Tom Petty - Transmission Impossible (2015) [FLAC] {ETTB057}\Disc 1\ 06 - For What It's Worth.wav

Peak level 98.0 %
Extraction speed 6.4 X
Track quality 100.0 %
Test CRC 0AC3C5E9
Copy CRC 0AC3C5E9
Track not present in AccurateRip database
Copy OK

Track 7

Filename Q:\mp3s\Hardcore\CD Rips 2015\Tom Petty - Transmission Impossible (2015) [FLAC] {ETTB057}\Disc 1\ 07 - The Image of Me.wav

Peak level 96.0 %
Extraction speed 6.2 X
Track quality 100.0 %
Test CRC 261C0AB3
Copy CRC 261C0AB3
Track not present in AccurateRip database
Copy OK

Track 8

Filename Q:\mp3s\Hardcore\CD Rips 2015\Tom Petty - Transmission Impossible (2015) [FLAC] {ETTB057}\Disc 1\ 08 - Here Comes My Girl.wav

Peak level 92.9 %
Extraction speed 7.0 X
Track quality 100.0 %
Test CRC F4EAEA82
Copy CRC F4EAEA82
Track not present in AccurateRip database
Copy OK

Track 9

Filename Q:\mp3s\Hardcore\CD Rips 2015\Tom Petty - Transmission Impossible (2015) [FLAC] {ETTB057}\Disc 1\ 09 - Should I Stay or Should I Go.wav

Peak level 93.8 %
Extraction speed 5.7 X
Track quality 99.9 %
Test CRC 7D88D733
Copy CRC 7D88D733
Track not present in AccurateRip database
Copy OK

Track 10

Filename Q:\mp3s\Hardcore\CD Rips 2015\Tom Petty - Transmission Impossible (2015) [FLAC] {ETTB057}\Disc 1\ 10 - You Can't Judge A Book By Its Cover.wav

Peak level 93.7 %
Extraction speed 6.9 X
Track quality 100.0 %
Test CRC D305D856
Copy CRC D305D856
Track not present in AccurateRip database
Copy OK

Track 11

Filename Q:\mp3s\Hardcore\CD Rips 2015\Tom Petty - Transmission Impossible (2015) [FLAC] {ETTB057}\Disc 1\ 11 - Any Way You Want It.wav

Peak level 94.4 %
Extraction speed 7.0 X
Track quality 100.0 %
Test CRC 6666F5A1
Copy CRC 6666F5A1
Track not present in AccurateRip database
Copy OK

Track 12

Filename Q:\mp3s\Hardcore\CD Rips 2015\Tom Petty - Transmission Impossible (2015) [FLAC] {ETTB057}\Disc 1\ 12 - Runaway Trains.wav

Peak level 84.8 %
Extraction speed 7.8 X
Track quality 100.0 %
Test CRC 2EFF89A1
Copy CRC 2EFF89A1
Track not present in AccurateRip database
Copy OK

Track 13

Filename Q:\mp3s\Hardcore\CD Rips 2015\Tom Petty - Transmission Impossible (2015) [FLAC] {ETTB057}\Disc 1\ 13 - Refugee.wav

Peak level 96.4 %
Extraction speed 7.9 X
Track quality 100.0 %
Test CRC 2D57FA33
Copy CRC 2D57FA33
Track not present in AccurateRip database
Copy OK


None of the tracks are present in the AccurateRip database

No errors occurred

End of status report

–– CUETools DB Plugin V2.1.6

[CTDB TOCID: IcS5esyUMFGEI0bblOYCYW9XaSw-] disk not present in database
Submit result: IcS5esyUMFGEI0bblOYCYW9XaSw- has been uploaded


==== Log checksum 094D0071A0F27A092EA7CAB76DF257CEB030DC42272FE1E2C685E3F49B66BD44 ====

Exact Audio Copy V1.1 from 23. June 2015

EAC extraction logfile from 29. September 2015, 21:44

Tom Petty / Transmission Impossible

Used drive : ASUS BC-1205PT Adapter: 1 ID: 0

Read mode : Secure
Utilize accurate stream : Yes
Defeat audio cache : Yes
Make use of C2 pointers : No

Read offset correction : 667
Overread into Lead-In and Lead-Out : No
Fill up missing offset samples with silence : Yes
Delete leading and trailing silent blocks : No
Null samples used in CRC calculations : Yes
Used interface : Native Win32 interface for Win NT & 2000
Gap handling : Appended to previous track

Used output format : User Defined Encoder
Selected bitrate : 1024 kBit/s
Quality : High
Add ID3 tag : No
Command line compressor : C:\Program Files (x86)\Exact Audio Copy\FLAC\FLAC.EXE
Additional command line options : -8 -V -T "ARTIST=%artist%" -T "TITLE=%title%" -T "ALBUM=%albumtitle%" -T "DATE=%year%" -T "TRACKNUMBER=%tracknr%" -T "GENRE=%genre%" -T "PERFORMER=%albuminterpret%" -T "COMPOSER=%composer%" %haslyrics%–tag-from-file=LYRICS="%lyricsfile%"%haslyrics% -T "ALBUMARTIST=%albumartist%" -T "DISCNUMBER=%cdnumber%" -T "TOTALDISCS=%totalcds%" -T "TOTALTRACKS=%numtracks%" -T "COMMENT=%comment%" %source% -o %dest%


TOC of the extracted CD

Track | Start | Length | Start sector | End sector
––––––––––––––––––––––––––––-
1 | 0:00.00 | 3:44.10 | 0 | 16809
2 | 3:44.10 | 4:55.74 | 16810 | 39008
3 | 8:40.09 | 4:55.13 | 39009 | 61146
4 | 13:35.22 | 4:58.23 | 61147 | 83519
5 | 18:33.45 | 5:34.52 | 83520 | 108621
6 | 24:08.22 | 2:38.06 | 108622 | 120477
7 | 26:46.28 | 8:21.44 | 120478 | 158096
8 | 35:07.72 | 4:50.41 | 158097 | 179887
9 | 39:58.38 | 4:14.24 | 179888 | 198961
10 | 44:12.62 | 2:58.48 | 198962 | 212359
11 | 47:11.35 | 3:54.54 | 212360 | 229963
12 | 51:06.14 | 4:42.21 | 229964 | 251134
13 | 55:48.35 | 3:19.61 | 251135 | 266120
14 | 59:08.21 | 2:18.04 | 266121 | 276474
15 | 61:26.25 | 5:25.35 | 276475 | 300884
16 | 66:51.60 | 5:24.15 | 300885 | 325199


Track 1

Filename Q:\mp3s\Hardcore\CD Rips 2015\Tom Petty - Transmission Impossible (2015) [FLAC] {ETTB057}\Disc 2\ 01 - Bye Bye Johnny.wav

Pre-gap length 0:00:02.00

Peak level 93.5 %
Extraction speed 3.8 X
Track quality 100.0 %
Test CRC BEB2973B
Copy CRC BEB2973B
Track not present in AccurateRip database
Copy OK

Track 2

Filename Q:\mp3s\Hardcore\CD Rips 2015\Tom Petty - Transmission Impossible (2015) [FLAC] {ETTB057}\Disc 2\ 02 - The Damage You've Done.wav

Peak level 94.0 %
Extraction speed 4.4 X
Track quality 100.0 %
Test CRC D61E270F
Copy CRC D61E270F
Track not present in AccurateRip database
Copy OK

Track 3

Filename Q:\mp3s\Hardcore\CD Rips 2015\Tom Petty - Transmission Impossible (2015) [FLAC] {ETTB057}\Disc 2\ 03 - Breakdown.wav

Peak level 93.5 %
Extraction speed 4.8 X
Track quality 100.0 %
Test CRC B0904E41
Copy CRC B0904E41
Track not present in AccurateRip database
Copy OK

Track 4

Filename Q:\mp3s\Hardcore\CD Rips 2015\Tom Petty - Transmission Impossible (2015) [FLAC] {ETTB057}\Disc 2\ 04 - Free Fallin'.wav

Peak level 93.8 %
Extraction speed 5.2 X
Track quality 100.0 %
Test CRC 65EEFFD3
Copy CRC 65EEFFD3
Track not present in AccurateRip database
Copy OK

Track 5

Filename Q:\mp3s\Hardcore\CD Rips 2015\Tom Petty - Transmission Impossible (2015) [FLAC] {ETTB057}\Disc 2\ 05 - The Waiting.wav

Peak level 93.0 %
Extraction speed 5.6 X
Track quality 100.0 %
Test CRC 1878C66A
Copy CRC 1878C66A
Track not present in AccurateRip database
Copy OK

Track 6

Filename Q:\mp3s\Hardcore\CD Rips 2015\Tom Petty - Transmission Impossible (2015) [FLAC] {ETTB057}\Disc 2\ 06 - Benmont's Boogie.wav

Peak level 93.8 %
Extraction speed 5.3 X
Track quality 100.0 %
Test CRC 35465C8B
Copy CRC 35465C8B
Track not present in AccurateRip database
Copy OK

Track 7

Filename Q:\mp3s\Hardcore\CD Rips 2015\Tom Petty - Transmission Impossible (2015) [FLAC] {ETTB057}\Disc 2\ 07 - Don't Come Around Here No More.wav

Peak level 93.0 %
Extraction speed 6.3 X
Track quality 100.0 %
Test CRC CF736A86
Copy CRC CF736A86
Track not present in AccurateRip database
Copy OK

Track 8

Filename Q:\mp3s\Hardcore\CD Rips 2015\Tom Petty - Transmission Impossible (2015) [FLAC] {ETTB057}\Disc 2\ 08 - Southern Accents.wav

Peak level 85.9 %
Extraction speed 6.4 X
Track quality 100.0 %
Test CRC 100ED933
Copy CRC 100ED933
Track not present in AccurateRip database
Copy OK

Track 9

Filename Q:\mp3s\Hardcore\CD Rips 2015\Tom Petty - Transmission Impossible (2015) [FLAC] {ETTB057}\Disc 2\ 09 - Even The Losers.wav

Peak level 92.5 %
Extraction speed 5.8 X
Track quality 99.9 %
Test CRC D2831715
Copy CRC D2831715
Track not present in AccurateRip database
Copy OK

Track 10

Filename Q:\mp3s\Hardcore\CD Rips 2015\Tom Petty - Transmission Impossible (2015) [FLAC] {ETTB057}\Disc 2\ 10 - Listen to Her Heart.wav

Peak level 92.9 %
Extraction speed 5.4 X
Track quality 99.9 %
Test CRC CA2A1174
Copy CRC CA2A1174
Track not present in AccurateRip database
Copy OK

Track 11

Filename Q:\mp3s\Hardcore\CD Rips 2015\Tom Petty - Transmission Impossible (2015) [FLAC] {ETTB057}\Disc 2\ 11 - A Face in the Crowd.wav

Peak level 92.5 %
Extraction speed 5.9 X
Track quality 99.9 %
Test CRC 7B28BC03
Copy CRC 7B28BC03
Track not present in AccurateRip database
Copy OK

Track 12

Filename Q:\mp3s\Hardcore\CD Rips 2015\Tom Petty - Transmission Impossible (2015) [FLAC] {ETTB057}\Disc 2\ 12 - Something Big.wav

Peak level 93.2 %
Extraction speed 7.1 X
Track quality 100.0 %
Test CRC 90A3C548
Copy CRC 90A3C548
Track not present in AccurateRip database
Copy OK

Track 13

Filename Q:\mp3s\Hardcore\CD Rips 2015\Tom Petty - Transmission Impossible (2015) [FLAC] {ETTB057}\Disc 2\ 13 - I Won't Back Down.wav

Peak level 92.1 %
Extraction speed 6.0 X
Track quality 99.9 %
Test CRC 09FAB6DC
Copy CRC 09FAB6DC
Track not present in AccurateRip database
Copy OK

Track 14

Filename Q:\mp3s\Hardcore\CD Rips 2015\Tom Petty - Transmission Impossible (2015) [FLAC] {ETTB057}\Disc 2\ 14 - I Need To Know.wav

Peak level 93.1 %
Extraction speed 6.6 X
Track quality 100.0 %
Test CRC 516A5010
Copy CRC 516A5010
Track not present in AccurateRip database
Copy OK

Track 15

Filename Q:\mp3s\Hardcore\CD Rips 2015\Tom Petty - Transmission Impossible (2015) [FLAC] {ETTB057}\Disc 2\ 15 - Refugee.wav

Peak level 93.4 %
Extraction speed 7.7 X
Track quality 100.0 %
Test CRC B7FC78B3
Copy CRC B7FC78B3
Track not present in AccurateRip database
Copy OK

Track 16

Filename Q:\mp3s\Hardcore\CD Rips 2015\Tom Petty - Transmission Impossible (2015) [FLAC] {ETTB057}\Disc 2\ 16 - Runnin Down a Dream.wav

Peak level 93.1 %
Extraction speed 7.8 X
Track quality 100.0 %
Test CRC BE396FC1
Copy CRC BE396FC1
Track not present in AccurateRip database
Copy OK


None of the tracks are present in the AccurateRip database

No errors occurred

End of status report

–– CUETools DB Plugin V2.1.6

[CTDB TOCID: R8GoOLcqE4JfTXca.2oSPHoQWXI-] disk not present in database
Submit result: R8GoOLcqE4JfTXca.2oSPHoQWXI- has been uploaded


==== Log checksum 4B1D9DE400242727B77F8C59AD4F5E96CE935567FF15D50D02471B71D3CFF1DB ====

Exact Audio Copy V1.1 from 23. June 2015

EAC extraction logfile from 29. September 2015, 22:39

Tom Petty / Transmission Impossible

Used drive : ASUS BC-1205PT Adapter: 1 ID: 0

Read mode : Secure
Utilize accurate stream : Yes
Defeat audio cache : Yes
Make use of C2 pointers : No

Read offset correction : 667
Overread into Lead-In and Lead-Out : No
Fill up missing offset samples with silence : Yes
Delete leading and trailing silent blocks : No
Null samples used in CRC calculations : Yes
Used interface : Native Win32 interface for Win NT & 2000
Gap handling : Appended to previous track

Used output format : User Defined Encoder
Selected bitrate : 1024 kBit/s
Quality : High
Add ID3 tag : No
Command line compressor : C:\Program Files (x86)\Exact Audio Copy\FLAC\FLAC.EXE
Additional command line options : -8 -V -T "ARTIST=%artist%" -T "TITLE=%title%" -T "ALBUM=%albumtitle%" -T "DATE=%year%" -T "TRACKNUMBER=%tracknr%" -T "GENRE=%genre%" -T "PERFORMER=%albuminterpret%" -T "COMPOSER=%composer%" %haslyrics%–tag-from-file=LYRICS="%lyricsfile%"%haslyrics% -T "ALBUMARTIST=%albumartist%" -T "DISCNUMBER=%cdnumber%" -T "TOTALDISCS=%totalcds%" -T "TOTALTRACKS=%numtracks%" -T "COMMENT=%comment%" %source% -o %dest%


TOC of the extracted CD

Track | Start | Length | Start sector | End sector
––––––––––––––––––––––––––––-
1 | 0:00.00 | 4:22.17 | 0 | 19666
2 | 4:22.17 | 4:44.55 | 19667 | 41021
3 | 9:06.72 | 4:47.53 | 41022 | 62599
4 | 13:54.50 | 4:42.52 | 62600 | 83801
5 | 18:37.27 | 4:36.24 | 83802 | 104525
6 | 23:13.51 | 3:40.40 | 104526 | 121065
7 | 26:54.16 | 6:42.65 | 121066 | 151280
8 | 33:37.06 | 4:08.20 | 151281 | 169900
9 | 37:45.26 | 4:01.50 | 169901 | 188025
10 | 41:47.01 | 3:13.27 | 188026 | 202527
11 | 45:00.28 | 4:19.03 | 202528 | 221955
12 | 49:19.31 | 4:04.17 | 221956 | 240272
13 | 53:23.48 | 2:21.58 | 240273 | 250905
14 | 55:45.31 | 6:17.44 | 250906 | 279224


Track 1

Filename Q:\mp3s\Hardcore\CD Rips 2015\Tom Petty - Transmission Impossible (2015) [FLAC] {ETTB057}\Disc 3\ 01 - Free Fallin' (Bridge School Benefit 1994).wav

Pre-gap length 0:00:02.00

Peak level 100.0 %
Extraction speed 4.0 X
Track quality 100.0 %
Test CRC 873C3A1C
Copy CRC 873C3A1C
Track not present in AccurateRip database
Copy OK

Track 2

Filename Q:\mp3s\Hardcore\CD Rips 2015\Tom Petty - Transmission Impossible (2015) [FLAC] {ETTB057}\Disc 3\ 02 - Rainy Day Women 12 & 35 (Bob Dylan 30th Anniversary Concert 1992).wav

Peak level 100.0 %
Extraction speed 4.4 X
Track quality 100.0 %
Test CRC 2E41EBA3
Copy CRC 2E41EBA3
Track not present in AccurateRip database
Copy OK

Track 3

Filename Q:\mp3s\Hardcore\CD Rips 2015\Tom Petty - Transmission Impossible (2015) [FLAC] {ETTB057}\Disc 3\ 03 - Straight Into Darkness (Farm Aid 1985).wav

Peak level 100.0 %
Extraction speed 4.9 X
Track quality 100.0 %
Test CRC C1820317
Copy CRC C1820317
Track not present in AccurateRip database
Copy OK

Track 4

Filename Q:\mp3s\Hardcore\CD Rips 2015\Tom Petty - Transmission Impossible (2015) [FLAC] {ETTB057}\Disc 3\ 04 - Refugee (Live Aid 1985).wav

Peak level 100.0 %
Extraction speed 5.3 X
Track quality 100.0 %
Test CRC ACA41770
Copy CRC ACA41770
Track not present in AccurateRip database
Copy OK

Track 5

Filename Q:\mp3s\Hardcore\CD Rips 2015\Tom Petty - Transmission Impossible (2015) [FLAC] {ETTB057}\Disc 3\ 05 - License To Kill (Bob Dylan 30th Anniversary Concert 1992).wav

Peak level 100.0 %
Extraction speed 5.5 X
Track quality 100.0 %
Test CRC 78639016
Copy CRC 78639016
Track not present in AccurateRip database
Copy OK

Track 6

Filename Q:\mp3s\Hardcore\CD Rips 2015\Tom Petty - Transmission Impossible (2015) [FLAC] {ETTB057}\Disc 3\ 06 - Even The Losers (Farm Aid 1986).wav

Peak level 100.0 %
Extraction speed 5.7 X
Track quality 100.0 %
Test CRC D380575A
Copy CRC D380575A
Track not present in AccurateRip database
Copy OK

Track 7

Filename Q:\mp3s\Hardcore\CD Rips 2015\Tom Petty - Transmission Impossible (2015) [FLAC] {ETTB057}\Disc 3\ 07 - Spike (Farm Aid 1986).wav

Peak level 100.0 %
Extraction speed 6.4 X
Track quality 100.0 %
Test CRC 03B67FF6
Copy CRC 03B67FF6
Track not present in AccurateRip database
Copy OK

Track 8

Filename Q:\mp3s\Hardcore\CD Rips 2015\Tom Petty - Transmission Impossible (2015) [FLAC] {ETTB057}\Disc 3\ 08 - Across The Borderline (Farm Aid 1985 w. Bob Dylan).wav

Peak level 100.0 %
Extraction speed 6.3 X
Track quality 100.0 %
Test CRC 18D2B370
Copy CRC 18D2B370
Track not present in AccurateRip database
Copy OK

Track 9

Filename Q:\mp3s\Hardcore\CD Rips 2015\Tom Petty - Transmission Impossible (2015) [FLAC] {ETTB057}\Disc 3\ 09 - Mr. Tambourine Man (Bob Dylan 30th Anniversary Concert 1992 w. Roger McGuinn).wav

Peak level 100.0 %
Extraction speed 5.8 X
Track quality 99.9 %
Test CRC 9953DD8D
Copy CRC 9953DD8D
Track not present in AccurateRip database
Copy OK

Track 10

Filename Q:\mp3s\Hardcore\CD Rips 2015\Tom Petty - Transmission Impossible (2015) [FLAC] {ETTB057}\Disc 3\ 10 - I Won't Back Down (Bridge School Benefit 1994).wav

Peak level 50.1 %
Extraction speed 6.5 X
Track quality 100.0 %
Test CRC 5F082991
Copy CRC 5F082991
Track not present in AccurateRip database
Copy OK

Track 11

Filename Q:\mp3s\Hardcore\CD Rips 2015\Tom Petty - Transmission Impossible (2015) [FLAC] {ETTB057}\Disc 3\ 11 - Time To Move On (Bridge School Benefit 1994).wav

Peak level 99.7 %
Extraction speed 7.0 X
Track quality 100.0 %
Test CRC FC9A8F9F
Copy CRC FC9A8F9F
Track not present in AccurateRip database
Copy OK

Track 12

Filename Q:\mp3s\Hardcore\CD Rips 2015\Tom Petty - Transmission Impossible (2015) [FLAC] {ETTB057}\Disc 3\ 12 - A Face In The Crowd (Letterman 1991).wav

Peak level 100.0 %
Extraction speed 7.1 X
Track quality 100.0 %
Test CRC 863465DE
Copy CRC 863465DE
Track not present in AccurateRip database
Copy OK

Track 13

Filename Q:\mp3s\Hardcore\CD Rips 2015\Tom Petty - Transmission Impossible (2015) [FLAC] {ETTB057}\Disc 3\ 13 - Thank God (Chabad-Lubavitch Benfit 1986 w. Bob Dylan).wav

Peak level 62.9 %
Extraction speed 5.2 X
Track quality 99.9 %
Test CRC 670DE0F7
Copy CRC 670DE0F7
Track not present in AccurateRip database
Copy OK

Track 14

Filename Q:\mp3s\Hardcore\CD Rips 2015\Tom Petty - Transmission Impossible (2015) [FLAC] {ETTB057}\Disc 3\ 14 - Fooled Again (I Don't Like It).wav

Peak level 87.3 %
Extraction speed 7.8 X
Track quality 100.0 %
Test CRC 49B6E472
Copy CRC 49B6E472
Track not present in AccurateRip database
Copy OK


None of the tracks are present in the AccurateRip database

No errors occurred

End of status report

–– CUETools DB Plugin V2.1.6

[CTDB TOCID: u53pyKAnxGF60GOSc96Asz5BxmA-] disk not present in database
Submit result: u53pyKAnxGF60GOSc96Asz5BxmA- has been uploaded


==== Log checksum 6376588F6AC1EF03170C915429B457DDC5A98F91299F9EE49955231F3218C843 ====



Tom Petty - Transmission Impossible (2015) [Bootleg]

Thanks to the Original ripper OhReally !