Subcategories

Tomkins - Bernhard Klapprott - Complete Keyboard Music Vol.1 {1994}

Posted By: luckburz
Tomkins - Bernhard Klapprott - Complete Keyboard Music Vol.1 {1994}

Thomas Tomkins (1572-1656) - Complete Keyboard Music Vol. 1
Bernhard Klapprott, Harpsichord & Virginal
EAC+LOG+CUE | FLAC: 439 MB | Full Artwork | 5% Recovery Info
Label/Cat#: MDG "Scene" # 607 0563-2 | Country/Year: Germany 1994
Genre: Classical | Style: Renaissance

MD5 [X] CUE [X] LOG [X] INFO TEXT [X] ARTWORK [X]

selfrip [X] not my rip []

Tomkins - Bernhard Klapprott - Complete Keyboard Music Vol.1 {1994}


Exact Audio Copy V1.0 beta 3 from 29. August 2011

EAC extraction logfile from 20. September 2012, 12:53

Bernhard Klapprott / Tomkins: Complete Keyboard Music Vol.1

Used drive : PIONEER BD-RW BDR-206 Adapter: 0 ID: 2

Read mode : Secure
Utilize accurate stream : Yes
Defeat audio cache : Yes
Make use of C2 pointers : No

Read offset correction : 667
Overread into Lead-In and Lead-Out : No
Fill up missing offset samples with silence : Yes
Delete leading and trailing silent blocks : No
Null samples used in CRC calculations : Yes
Used interface : Native Win32 interface for Win NT & 2000

Used output format : User Defined Encoder
Selected bitrate : 1024 kBit/s
Quality : High
Add ID3 tag : Yes
Command line compressor : C:\Program Files\FLAC\flac.exe
Additional command line options : -5 -T "Artist=%artist%" -T "Title=%title%" -T "Album=%albumtitle%" -T "Date=%year%" -T "Tracknumber=%tracknr%" -T "Genre=%genre%" %source% -o %dest%


TOC of the extracted CD

Track | Start | Length | Start sector | End sector
––––––––––––––––––––––––––––-
1 | 0:00.00 | 3:16.45 | 0 | 14744
2 | 3:16.45 | 4:32.05 | 14745 | 35149
3 | 7:48.50 | 7:56.52 | 35150 | 70901
4 | 15:45.27 | 2:18.20 | 70902 | 81271
5 | 18:03.47 | 4:09.65 | 81272 | 100011
6 | 22:13.37 | 8:05.60 | 100012 | 136446
7 | 30:19.22 | 4:41.63 | 136447 | 157584
8 | 35:01.10 | 2:53.22 | 157585 | 170581
9 | 37:54.32 | 5:50.65 | 170582 | 196896
10 | 43:45.22 | 1:25.40 | 196897 | 203311
11 | 45:10.62 | 10:05.70 | 203312 | 248756
12 | 55:16.57 | 2:32.40 | 248757 | 260196
13 | 57:49.22 | 3:52.18 | 260197 | 277614
14 | 61:41.40 | 2:04.42 | 277615 | 286956
15 | 63:46.07 | 6:35.25 | 286957 | 316606


Range status and errors

Selected range

Filename F:\=== VINYL RIPS ===\=== EAC===\X FRESH RIP\Tomkins- Bernhard Klapprott - Complete Keyboard Music Vol.1.wav

Peak level 100.0 %
Extraction speed 7.9 X
Range quality 99.9 %
Copy CRC 97593680
Copy OK

No errors occurred


AccurateRip summary

Track 1 accurately ripped (confidence 1) [2617A5CC] (AR v1)
Track 2 accurately ripped (confidence 1) [E4F54301] (AR v1)
Track 3 accurately ripped (confidence 1) [8B75E9CF] (AR v1)
Track 4 accurately ripped (confidence 1) [5C66119C] (AR v1)
Track 5 accurately ripped (confidence 1) [72DCE86A] (AR v1)
Track 6 accurately ripped (confidence 1) [E9D561B4] (AR v1)
Track 7 accurately ripped (confidence 1) [999195A5] (AR v1)
Track 8 accurately ripped (confidence 1) [57DD39FE] (AR v1)
Track 9 accurately ripped (confidence 1) [F01774DF] (AR v1)
Track 10 accurately ripped (confidence 1) [23FBB7DC] (AR v1)
Track 11 accurately ripped (confidence 1) [5B23B201] (AR v1)
Track 12 accurately ripped (confidence 1) [9AC7B3CC] (AR v1)
Track 13 accurately ripped (confidence 1) [4524B890] (AR v1)
Track 14 accurately ripped (confidence 1) [059DFFA9] (AR v1)
Track 15 accurately ripped (confidence 1) [DFAA4762] (AR v1)

All tracks accurately ripped

End of status report

–– CUETools DB Plugin V2.1.3

[CTDB TOCID: i3TaCSaM5WRAl4Ke5lduzuKc._U-] disk not present in database, Submit result: i3TaCSaM5WRAl4Ke5lduzuKc._U- has been uploaded


==== Log checksum 83ACB6F1CE7AF981CEE9798F1E665B5FCCAD7F8F426A9788B2F1C36E1A713793 ====

foobar2000 1.1.14a / Dynamic Range Meter 1.1.1
log date: 2012-09-20 12:57:19

––––––––––––––––––––––––––––––––––––––––
Analyzed: Bernhard Klapprott / Tomkins: Complete Keyboard Music Vol.1
––––––––––––––––––––––––––––––––––––––––

DR Peak RMS Duration Track
––––––––––––––––––––––––––––––––––––––––
DR12 -1.87 dB -16.78 dB 3:17 01-Prelude
DR12 -3.61 dB -20.02 dB 4:32 02-Voluntary
DR13 -4.56 dB -21.53 dB 7:57 03-A sad Pavan - For the distracted times
DR12 -1.09 dB -16.44 dB 2:18 04-The perpetual round
DR12 -2.06 dB -17.42 dB 4:10 05-Fancy
DR12 -4.30 dB -17.86 dB 8:06 06-Ut, Mi, Re
DR12 -0.32 dB -15.12 dB 4:42 07-Pavan - Earl Strafford
DR12 -1.16 dB -15.08 dB 2:53 08-Galliard - Earl Strafford
DR13 -2.46 dB -18.20 dB 5:51 09-Ground
DR12 -0.26 dB -15.82 dB 1:26 10-Worcester Browls
DR12 -3.26 dB -17.57 dB 10:06 11-Fortune my Foe
DR13 0.00 dB -15.22 dB 2:33 12-The hunting Galliard
DR13 -2.87 dB -18.50 dB 3:52 13-Pavan
DR12 -2.85 dB -16.55 dB 2:05 14-Galliard
DR13 -1.16 dB -16.30 dB 6:35 15-Barafostu's Dream
––––––––––––––––––––––––––––––––––––––––

Number of tracks: 15
Official DR value: DR12

Samplerate: 44100 Hz
Channels: 2
Bits per sample: 16
Bitrate: 874 kbps
Codec: FLAC
================================================================================



CD Info:

Thomas Tomkins (1572-1656) - Complete Keyboard Music Vol. 1 - Bernhard Klapprott, Harpsichord & Virginal

Label: MDG
Series: Scene
Catalog#: 607 0563-2
Format: CD, Album
Country: Germany
Released: 1994
Genre: Classical

Tracklist:

01. Prelude 3:16
02. Voluntary 4:32
03. A sad Pavan - For the distracted times 7:56
04. The perpetual round 2:18
05. Fancy 4:09
06. Ut, Mi, Re 8:05
07. Pavan - Earl Strafford 4:41
08. Galliard - Earl Strafford 2:53
09. Ground 5:50
10. Worcester Browls 1:25
11. Fortune my Foe 10:05
12. The hunting Galliard 2:32
13. Pavan 3:52
14. Galliard 2:04
15. Barafostu's Dream 6:35

Played on harpsichord after Giovanni Battista Giusti by Cornelis A. Bom, Schoonhoven (Netherlands) & a virginal after Marten van der Biest by Klaus Ahrend, Moormerland near Leer (Germany). Both instruments are mean-tone tempered by Ibo Ortgies.

Recording Supervisor: Friedrich Wilhelm Rödding
Recording: June 1994
Oranienburg of Schloß Nordkirchen

Tomkins - Bernhard Klapprott - Complete Keyboard Music Vol.1 {1994}


Thomas Tomkins (1572 – 9 June 1656) was an English composer of the late Tudor and early Stuart period. In addition to being one of the prominent members of the English madrigal school, he was a skilled composer of keyboard and consort music, and the last member of the English virginalist school.
Tomkins wrote madrigals, keyboard music, consort music, anthems, and liturgical music. Stylistically he was extremely conservative, even anachronistic: he seems to have completely ignored the rising Baroque practice around him, with its Italian-inspired idioms, and he also avoided writing in most of the popular forms of the time, such as the lute song, or ayre. His polyphonic language, even in the fourth decade of the 17th century, was frankly that of the Renaissance. Some of his madrigals are extremely expressive, with text-painting and chromaticism worthy of Italian madrigalists such as Marenzio or Luzzaschi.

He was also a prolific composer of verse anthems, writing more than any other English composer of the 17th century except for William Child. These pieces were highly regarded at the time, and are well represented in contemporary manuscript collections. Fortunately for the survival of his music, his son Nathaniel edited most of it and published a huge collection of it (titled Musica Deo sacra et ecclesiae Anglicanae; or Music dedicated to the Honor and Service of God, and to the Use of Cathedral and other Churches of England) in 1668, after his death; much of it otherwise would have been lost during the Civil War. wikipedia


Waldemar Döling - Variationen für Cembalo / Variations for harpsichord
Robert Schumann - Rudolf Innig - Complete Organ Works
Various Composers - Sächsische Orgelmusik / Saxon Organ Music
Julius Reubke - Martin Sander, Claudius Tanski - Sonata on the 94th Psalm in C minor & Piano Sonata in B minor
John Cage - Steffen Schleiermacher - Complete Piano Music Vol. 1 - The Prepared Piano
Brandt & Böhme - Wolfgang Bauer - Music For Trumpet [CD Rip]
Brandt & Böhme - Wolfgang Bauer - Music For Trumpet [SACD Rip]
Dietrich Buxtehude - Harald Vogel - Complete Organ Works
Johann Melchior Molter - Orchestral & Chamber Music
Georg Philipp Telemann - Musica Alta Ripa - Concertos and Chamber Music
Schumann - Trio Parnassus / Hariolf Schlichtig - Piano Quartet [CD Rip]
Schumann - Trio Parnassus / Hariolf Schlichtig - Piano Quartet [SACD Rip]
Christoph Graupner - Orchestral Works Vol. 3
Christoph Graupner - Orchestral Works Vol. 2
Christoph Graupner - Orchestral Works Vol. 1
Johann Sebastian Bach - Musica Alta Ripa - Solo Concertos Vol. 1
Albert Lortzing - Neue Detmolder Liedertafel - An den Frühling: Ernste und heitere Festgesänge für Männerstimmen
Musicalische Compagney - Lamenti & Concerti: Liebe und Klage in der Musik von Heinrich Schutz (1585-1672)
Franz Liszt - Tanski / Beethoven Orchester Bonn - Tasso, Totentanz, Piano Music [CD Rip]
Franz Liszt - Tanski / Beethoven Orchester Bonn - Tasso, Totentanz, Piano Music [SACD Rip]
Ottorino Respighi - Pini di Roma / Trittico / Tre Corali [CD Rip]
Ottorino Respighi - Pini di Roma / Trittico / Tre Corali [SACD Rip]
Berliner Vokalensemble ''Carl Maria von Weber'' - Bella Ciao
Berliner Vokalensemble ''Carl Maria von Weber'' - Kein schöner Land
George Frideric Handel - Belshazzar [HWV 61] (3xCD)
George Frideric Handel - Saul [HWV 53] (3xCD)
Johannes Brahms - Hardy Rittner - Early Piano Works Vol.1 [CD Rip]
Johannes Brahms - Hardy Rittner - Early Piano Works Vol.2 [CD Rip]
Johannes Brahms - Hardy Rittner - Early Piano Works Vol.2 [SACD Rip]
Johannes Brahms / Robert Schumann - Mozart Piano Quartet - Piano Quartets
Wolfgang Amadeus Mozart / Leipziger Streichquartett - The Ten Celebrated String Quartets
Norbert Schultze - Drops …unter der Laterne

Tomkins - Bernhard Klapprott - Complete Keyboard Music Vol.1 {1994}

// classical music \\
// all of my uploads \\
________________

Download:

FLAC
Artwork
________________