Subcategories

Tonis Maroudas - Unforgettable songs (1984)

Posted By: Speedyclick
Tonis Maroudas - Unforgettable songs (1984)

Tonis Maroudas - Unforgettable songs (1984)
EAC Rip | FLAC (image & cue & log) & mp3 @ 320 kbps | tracks: 21 | ~ 340 Mb & 155 Mb | 47:07 | Scans
Label: MINOS-EMI | 5% recovery record | Genre: Greek love ballads

One more album of the famous troubadour with the golden voice. The recordings are remastered from the original LP mainly of the sixties, and the sound quality is very good. You will have the opportunity to hear the multi million selling hit "What is this that they call love" at track no 2 (from the movie "Boy on a dolphin"). The arrangements are for orchestra and voice and often the mood is smooth jazzy. Maroudas' voice is pure magic and becomes familiar from the first song. A wonderful experience.

TRACKLIST
01. I'll stop the wine (Ego tha kopso to krasi)
02. What it this that they call love (Ti ayto pou to lene agapi)
03. And the boat returned alone (Ke i varka girise moni)
04. You laugh (Gelas)
05. The neighborhood where I live (Meno se kapia gitonia)
06. I whistle (Sou sfirizo)
07. Let your hair free (Asta ta malakia sou)
08. Kiss me tonight (Apopse fila me)
09. Somewhere is my love (Kapou iparhi i agapi mou)
10. I saw you a certain noon (Se ida kapio mesimeri)
11. Dreams (Onira onira)
12. My breath (Anapnoi mou)
13. My great love (Megale mou erota)
14. Thousands of dreams (Hiliades onira)
15. Everywhere and always (Pantou ke panta)
16. Only a few hearts love (Liges kardies agapoune)
17. Nothing can separate us (Tipota den mas horizi)
18. Come with me and you won't regret it (Ela mazi mou ke den tha haseis)
19. It's enough for us (Mas ftani mono)
20. Our mistake (To lathos mas)
21. Somewhere I've seen these eyes again (Afta ta matia kapou ta 'ho xanadi)

Exact Audio Copy V1.0 beta 1 from 15. November 2010

EAC extraction logfile from 6. August 2011, 1:12

Tonis Maroudas / Unforgettable Hits

Used drive : HL-DT-STDVDRAM GH10N Adapter: 3 ID: 0

Read mode : Secure
Utilize accurate stream : Yes
Defeat audio cache : Yes
Make use of C2 pointers : No

Read offset correction : 667
Overread into Lead-In and Lead-Out : No
Fill up missing offset samples with silence : Yes
Delete leading and trailing silent blocks : No
Null samples used in CRC calculations : Yes
Used interface : Native Win32 interface for Win NT & 2000

Used output format : User Defined Encoder
Selected bitrate : 1024 kBit/s
Quality : High
Add ID3 tag : No
Command line compressor : C:\Program Files\FLAC\flac.exe
Additional command line options : -V -5 -T "artist=%a" -T "title=%t" -T "album=%g" -T "date=%y" -T "tracknumber=%n" -T "genre=%m" -5 %s


TOC of the extracted CD

Track | Start | Length | Start sector | End sector
––––––––––––––––––––––––––––-
1 | 0:00.00 | 2:47.45 | 0 | 12569
2 | 2:47.45 | 3:02.22 | 12570 | 26241
3 | 5:49.67 | 2:22.08 | 26242 | 36899
4 | 8:12.00 | 3:01.55 | 36900 | 50529
5 | 11:13.55 | 3:21.07 | 50530 | 65611
6 | 14:34.62 | 3:28.55 | 65612 | 81266
7 | 18:03.42 | 2:14.60 | 81267 | 91376
8 | 20:18.27 | 3:23.18 | 91377 | 106619
9 | 23:41.45 | 2:49.70 | 106620 | 119364
10 | 26:31.40 | 3:31.05 | 119365 | 135194
11 | 30:02.45 | 2:58.25 | 135195 | 148569
12 | 33:00.70 | 4:03.67 | 148570 | 166861
13 | 37:04.62 | 3:10.20 | 166862 | 181131
14 | 40:15.07 | 3:35.23 | 181132 | 197279
15 | 43:50.30 | 2:57.62 | 197280 | 210616
16 | 46:48.17 | 3:01.50 | 210617 | 224241
17 | 49:49.67 | 3:07.70 | 224242 | 238336
18 | 52:57.62 | 2:58.13 | 238337 | 251699
19 | 55:56.00 | 3:04.57 | 251700 | 265556
20 | 59:00.57 | 3:41.55 | 265557 | 282186
21 | 62:42.37 | 3:12.53 | 282187 | 296639


Range status and errors

Selected range

Filename U:\EAC Rips\GREEK\RETRO\Tonis Maroudas - Axehasti Epohi\Tonis Maroudas - Unforgettable Hits.wav

Peak level 95.8 %
Extraction speed 0.2 X
Range quality 99.9 %
Test CRC 2E67AE24
Copy CRC 2E67AE24
Copy OK

No errors occurred


AccurateRip summary

Track 1 not present in database
Track 2 not present in database
Track 3 not present in database
Track 4 not present in database
Track 5 not present in database
Track 6 not present in database
Track 7 not present in database
Track 8 not present in database
Track 9 not present in database
Track 10 not present in database
Track 11 not present in database
Track 12 not present in database
Track 13 not present in database
Track 14 not present in database
Track 15 not present in database
Track 16 not present in database
Track 17 not present in database
Track 18 not present in database
Track 19 not present in database
Track 20 not present in database
Track 21 not present in database

None of the tracks are present in the AccurateRip database

End of status report

==== Log checksum 47FD419121B12B502185C3B97906D8262E0018CF996967E810FCC569CC70F811 ====