Subcategories

Tori Amos - Boys for Pele (1996) [20th Anniversary Remastered Deluxe Edition, 2016]

Posted By: delpotro
Tori Amos - Boys for Pele (1996) [20th Anniversary Remastered Deluxe Edition, 2016]

Tori Amos - Boys for Pele (1996) [20th Anniversary Remastered Deluxe Edition, 2016]
EAC Rip | FLAC (image+log+.cue) | Scans included | 02:50:01 | 751 Mb
Pop Rock, Piano Rock, Alternative Rock, Female Vocal | Label: Rhino Entertainment Company

To celebrate the pivotal album’s 20-year anniversary, Rhino will release a deluxe edition of Boys For Pele featuring a newly remastered version of the original, along with 21 bonus tracks that include: a selection of B-sides, rare recordings, and four previously unreleased tracks.
Tracklist:
CD1
1. Beauty Queen/Horses
2. Blood Roses
3. Father Lucifer
4. Professional Widow
5. Mr Zebra
6. Marianne
7. Caught a Lite Sneeze
8. Muhammad my Friend
9. Hey Jupiter
10. Way down
11. Little Amsterdam
12. Talula
13. Not the Red Baron
14. Agent Orange
15. Doughnut Song
16. In the Springtime of his Voodoo
17. Putting the Damage on
18. Twinkle

CD2
1. Hey Jupiter (The Dakota Version)
2. To the Fair Motormaids of Japan
3. That's What I like Mick (The Sandich Song)
4. Fire-Eater's Wife/Beauty Queen (Demo Version)
5. Professional Widow (Armand's Star Trunk Funkin' Mix - Radio Edit)
6. Sugar (Live)
7. Alamo
8. Talula (M&M Mix)
9. Professional Widow (Merre Widow Version - Live)
10. Frog on my Toe
11. Hungarian Wedding Song
12. Walk to Dublin (Sucker Reprise)
13. Toodles Mr Jim
14. Sister Named Desire
15. Amazing Grace/Til the Chicken
16. This Old Man
17. Sucker
18. Honey (Live)
19. Graveyard
20. London Girls
21. In the Springtime of his Voodoo (Rookery Ending)

Exact Audio Copy V1.0 beta 3 from 29. August 2011
Отчёт EAC об извлечении, выполненном 13. августа 2017, 15:19
Tori Amos / Boys for Pele
Дисковод: Optiarc DVD RW AD-7261S Adapter: 0 ID: 0
Режим чтения : Достоверность
Использование точного потока : Да
Отключение кэша аудио : Да
Использование указателей C2 : Нет
Коррекция смещения при чтении : 48
Способность читать области Lead-in и Lead-out : Нет
Заполнение пропущенных сэмплов тишиной : Да
Удаление блоков с тишиной в начале и конце : Нет
При вычислениях CRC использовались нулевые сэмплы : Да
Интерфейс : Встроенный Win32-интерфейс для Win NT/2000
Выходной формат : Пользовательский кодировщик
Выбранный битрейт : 768 kBit/s
Качество : Высокий
Добавление ID3-тега : Нет
Утилита сжатия : C:\Program Files\Exact Audio Copy\FLAC\FLAC.EXE
Дополнительные параметры : -V -8 -T "Date=%year%" -T "Genre=%genre%" %source%
TOC извлечённого CD
Трек | Старт | Длительность | Начальный сектор | Конечный сектор
––––––––––––––––––––––––––––––––––-
1 | 0:00.00 | 6:08.06 | 0 | 27605
2 | 6:08.06 | 3:56.37 | 27606 | 45342
3 | 10:04.43 | 3:42.63 | 45343 | 62055
4 | 13:47.31 | 4:31.63 | 62056 | 82443
5 | 18:19.19 | 1:07.01 | 82444 | 87469
6 | 19:26.20 | 4:09.67 | 87470 | 106211
7 | 23:36.12 | 4:26.25 | 106212 | 126186
8 | 28:02.37 | 3:49.25 | 126187 | 143386
9 | 31:51.62 | 5:11.53 | 143387 | 166764
10 | 37:03.40 | 1:13.27 | 166765 | 172266
11 | 38:16.67 | 4:30.70 | 172267 | 192586
12 | 42:47.62 | 4:08.18 | 192587 | 211204
13 | 46:56.05 | 3:50.48 | 211205 | 228502
14 | 50:46.53 | 1:25.39 | 228503 | 234916
15 | 52:12.17 | 4:20.40 | 234917 | 254456
16 | 56:32.57 | 5:33.43 | 254457 | 279474
17 | 62:06.25 | 5:15.05 | 279475 | 303104
18 | 67:21.30 | 3:13.33 | 303105 | 317612
Характеристики диапазона извлечения и сообщения об ошибках
Выбранный диапазон
Имя файла F:\My musica\Tori Amos - Boys for Pele (reissue)\Original album\CD1.wav
Пиковый уровень 99.3 %
Скорость извлечения 4.5 X
Качество диапазона 100.0 %
CRC теста 7C4D5974
CRC копии 7C4D5974
Копирование… OK
Ошибок не произошло
AccurateRip: сводка
Трек 1 : извлечено точно (доверие 18) [AF6A5268] (AR v2)
Трек 2 : извлечено точно (доверие 18) [EDAA9EAF] (AR v2)
Трек 3 : извлечено точно (доверие 18) [D0205A75] (AR v2)
Трек 4 : извлечено точно (доверие 18) [832BF0DC] (AR v2)
Трек 5 : извлечено точно (доверие 18) [FB7CB3DD] (AR v2)
Трек 6 : извлечено точно (доверие 18) [25F48531] (AR v2)
Трек 7 : извлечено точно (доверие 18) [35BDC079] (AR v2)
Трек 8 : извлечено точно (доверие 18) [8D2CD86E] (AR v2)
Трек 9 : извлечено точно (доверие 18) [66C0C953] (AR v2)
Трек 10 : извлечено точно (доверие 18) [0D58D5C8] (AR v2)
Трек 11 : извлечено точно (доверие 18) [B65E78B9] (AR v2)
Трек 12 : извлечено точно (доверие 18) [60387B08] (AR v2)
Трек 13 : извлечено точно (доверие 18) [82D243AA] (AR v2)
Трек 14 : извлечено точно (доверие 18) [08200DC7] (AR v2)
Трек 15 : извлечено точно (доверие 18) [F159A35A] (AR v2)
Трек 16 : извлечено точно (доверие 18) [814AB86B] (AR v2)
Трек 17 : извлечено точно (доверие 18) [C0C0C2AB] (AR v2)
Трек 18 : извлечено точно (доверие 18) [06486FC7] (AR v2)
Все треки извлечены точно
Конец отчёта
–– CUETools DB Plugin V2.1.3
[CTDB TOCID: PbyYJik1Yg3zxOC62dIvvV02lGg-] found, Submit result: PbyYJik1Yg3zxOC62dIvvV02lGg- has been confirmed
[b392fb3e] (49/50) Accurately ripped
[f4b08fe0] (01/50) No match
==== Контрольная сумма отчёта 98CA5249EFB77AE11E079944A13B4AC859C1BCDC5BB85AB10084F991AB5BF26D ====

Exact Audio Copy V1.0 beta 3 from 29. August 2011
Отчёт EAC об извлечении, выполненном 16. августа 2017, 8:08
Tori Amos / Boys For Pele
Дисковод: Optiarc DVD RW AD-7261S Adapter: 0 ID: 0
Режим чтения : Достоверность
Использование точного потока : Да
Отключение кэша аудио : Да
Использование указателей C2 : Нет
Коррекция смещения при чтении : 48
Способность читать области Lead-in и Lead-out : Нет
Заполнение пропущенных сэмплов тишиной : Да
Удаление блоков с тишиной в начале и конце : Нет
При вычислениях CRC использовались нулевые сэмплы : Да
Интерфейс : Встроенный Win32-интерфейс для Win NT/2000
Выходной формат : Пользовательский кодировщик
Выбранный битрейт : 768 kBit/s
Качество : Высокий
Добавление ID3-тега : Нет
Утилита сжатия : C:\Program Files\Exact Audio Copy\FLAC\FLAC.EXE
Дополнительные параметры : -V -8 -T "Date=%year%" -T "Genre=%genre%" %source%
TOC извлечённого CD
Трек | Старт | Длительность | Начальный сектор | Конечный сектор
––––––––––––––––––––––––––––––––––-
1 | 0:00.00 | 6:05.43 | 0 | 27417
2 | 6:05.43 | 4:18.68 | 27418 | 46835
3 | 10:24.36 | 3:00.62 | 46836 | 60397
4 | 13:25.23 | 3:15.16 | 60398 | 75038
5 | 16:40.39 | 3:49.18 | 75039 | 92231
6 | 20:29.57 | 5:32.40 | 92232 | 117171
7 | 26:02.22 | 5:12.57 | 117172 | 140628
8 | 31:15.04 | 4:07.68 | 140629 | 159221
9 | 35:22.72 | 4:38.06 | 159222 | 180077
10 | 40:01.03 | 3:45.52 | 180078 | 197004
11 | 43:46.55 | 1:02.43 | 197005 | 201697
12 | 44:49.23 | 5:27.56 | 201698 | 226278
13 | 50:17.04 | 3:09.44 | 226279 | 240497
14 | 53:26.48 | 5:32.24 | 240498 | 265421
15 | 58:58.72 | 6:49.43 | 265422 | 296139
16 | 65:48.40 | 1:45.24 | 296140 | 304038
17 | 67:33.64 | 2:52.65 | 304039 | 317003
18 | 70:26.54 | 3:46.44 | 317004 | 333997
19 | 74:13.23 | 0:54.59 | 333998 | 338106
20 | 75:08.07 | 3:21.55 | 338107 | 353236
21 | 78:29.62 | 0:56.37 | 353237 | 357473
Характеристики диапазона извлечения и сообщения об ошибках
Выбранный диапазон
Имя файла F:\My musica\Tori Amos - Boys for Pele (reissue)\Bonus tracks\CD2.wav
Пиковый уровень 99.8 %
Скорость извлечения 4.6 X
Качество диапазона 100.0 %
CRC теста F4D3347A
CRC копии F4D3347A
Копирование… OK
Ошибок не произошло
AccurateRip: сводка
Трек 1 : извлечено точно (доверие 18) [776C10C1] (AR v2)
Трек 2 : извлечено точно (доверие 18) [F3680A80] (AR v2)
Трек 3 : извлечено точно (доверие 18) [A80E8578] (AR v2)
Трек 4 : извлечено точно (доверие 18) [CFD4D563] (AR v2)
Трек 5 : извлечено точно (доверие 18) [0D2D6113] (AR v2)
Трек 6 : извлечено точно (доверие 18) [5BA3D093] (AR v2)
Трек 7 : извлечено точно (доверие 18) [1CC42F58] (AR v2)
Трек 8 : извлечено точно (доверие 18) [BE6D5D9B] (AR v2)
Трек 9 : извлечено точно (доверие 18) [73873A1B] (AR v2)
Трек 10 : извлечено точно (доверие 18) [C1A172FA] (AR v2)
Трек 11 : извлечено точно (доверие 18) [582D9ABA] (AR v2)
Трек 12 : извлечено точно (доверие 17) [BDC6577A] (AR v2)
Трек 13 : извлечено точно (доверие 18) [46CD0589] (AR v2)
Трек 14 : извлечено точно (доверие 18) [33F3D873] (AR v2)
Трек 15 : извлечено точно (доверие 18) [64E7BCCC] (AR v2)
Трек 16 : извлечено точно (доверие 18) [FBFDAB5F] (AR v2)
Трек 17 : извлечено точно (доверие 18) [8F162B9E] (AR v2)
Трек 18 : извлечено точно (доверие 18) [8951C3E9] (AR v2)
Трек 19 : извлечено точно (доверие 18) [36ED991D] (AR v2)
Трек 20 : извлечено точно (доверие 18) [F1743561] (AR v2)
Трек 21 : извлечено точно (доверие 18) [DECEB317] (AR v2)
Все треки извлечены точно
Конец отчёта
–– CUETools DB Plugin V2.1.3
[CTDB TOCID: Rn0rAXGVCkxAWu5fFHGEYy4xhKI-] found, Submit result: Rn0rAXGVCkxAWu5fFHGEYy4xhKI- has been confirmed
[a56c2dc6] (51/52) Accurately ripped
[b1ebcd05] (01/52) No match
==== Контрольная сумма отчёта B54D3D11018B76FD8DAD99ECD2E86C0A6F881721CA020A068AE2094F5D118D49 ====



Tori Amos - Boys for Pele (1996) [20th Anniversary Remastered Deluxe Edition, 2016]

Thanks to the Original ripper 1000oceans !