Subcategories

Toshiki Kadomatsu - Sea Is A Lady (Japan Edition) (1987/1994)

Posted By: Domestos
Toshiki Kadomatsu - Sea Is A Lady (Japan Edition) (1987/1994)

Toshiki Kadomatsu - Sea Is A Lady (Japan Edition) (1987/1994)
EAC Rip | FLAC (tracks+.cue, log) ~ 291.43 Mb | 44:38 | Cover
Fusion, Jazz-Funk | Country: Japan | Label: BMG Japan (BVCR-1526)

Toshiki Kadomatsu is a Japanese Funk legend who came to the fore in the 80’s for a string of sun-soaked, Miami-Vice inspired bubbly instrumental albums that ooze summery good times in sportscars with bikini-clad women and men sporting white suits and deep tans. Toshiki has been recording for more than three decades and still continues to be prolific and popular in Japan. Sea is a Lady was his most popular album that charted to no.4 in Japan in the mid 80’s.

Toshiki Kadomatsu - acoustic guitar, electric guitar, programming, background vocals
Masahiro Ikumi, Takayuki Hijikata - electric guitar
Akira Doi, Shuichi "Ponta" Murakami, Hirokazu Akiyama - drums
Tomohito Aoki, Tetsuo Sakurai, Kenji Takamizu - bass
Yuzo Hayashi - acoustic piano, electric piano, synthesizer programming
Yoshihiro Tomonari - acoustic piano, synthesizer
Hiroshi Satoh - acoustic piano, electric piano, synthesizer
Nobu Saito, Obawo Nakajima - percussion
Osamu Koike - alto saxophone, tenor saxophone
Jake H. Conception - tenor saxophone
Shin Kazuhara - trumpet, flugelhorn
Toshio Araki, Nobuo Katoh - trumpet
Shigeharu Mukai, Kenji Nishiyama - trombone
Sumio Okada - bass trombone
Yoshiaki Tomoda Group - strings
Hideki Fujisawa, Yurie Kokubu - background vocals

Track List:
01. Way to the Shore "Eri" (Kadomatsu) - 1:08
02. Sea Line "Rie" (Kadomatsu) - 4:19
03. Night Sight of Port Island "Midori" (Night Flight of DC-10) (Kadomatsu) - 5:28
04. Sea Song "Naomi" (Satoh) - 1:10
05. Sunset of Micro Beach "Satoko" (Kadomatsu) - 4:37
06. Oshi-Tao-Shitai "Kaori Aso" (Memories of Dusseldorf) (Kadomatsu) - 6:17
07. 52nd Street "Akiko" (Kadomatsu) - 5:56
08. The Bass Battle "Chako" (Kadomatsu) - 1:11
09. Midsummer Drivin' "Reiko" (Kadomatsu) - 5:12
10. Lovin' You "Sawako" (Kadomatsu) - 2:56
11. Sea Song (Reprise) (Satoh) - 2:05
12. June Bride (Instrumental) (Kadomatsu) - 4:19

Exact Audio Copy V1.1 from 23. June 2015

EAC extraction logfile from 27. August 2017, 9:06

Toshiki Kadomatsu (角松敏生) / Sea is a Lady

Used drive : ATAPI iHAS124 C Adapter: 1 ID: 0

Read mode : Secure
Utilize accurate stream : Yes
Defeat audio cache : Yes
Make use of C2 pointers : No

Read offset correction : 6
Overread into Lead-In and Lead-Out : No
Fill up missing offset samples with silence : Yes
Delete leading and trailing silent blocks : No
Null samples used in CRC calculations : Yes
Used interface : Native Win32 interface for Win NT & 2000
Gap handling : Appended to previous track

Used output format : User Defined Encoder
Selected bitrate : 1024 kBit/s
Quality : High
Add ID3 tag : No
Command line compressor : C:\Program Files (x86)\Exact Audio Copy\FLAC\FLAC.EXE
Additional command line options : -8 -e -V -T "ARTIST=%artist%" -T "TITLE=%title%" -T "ALBUM=%albumtitle%" -T "DATE=%year%" -T "TRACKNUMBER=%tracknr%" -T "GENRE=%genre%" -T "PERFORMER=%albuminterpret%" -T "COMPOSER=%composer%" %haslyrics%–tag-from-file=LYRICS="%lyricsfile%"%haslyrics% -T "ALBUMARTIST=%albumartist%" -T "DISCNUMBER=%cdnumber%" -T "TOTALDISCS=%totalcds%" -T "TOTALTRACKS=%numtracks%" -T "COMMENT=%comment%" %source% -o %dest%

TOC of the extracted CD

Track | Start | Length | Start sector | End sector
––––––––––––––––––––––––––––-
1 | 0:00.37 | 1:07.70 | 37 | 5131
2 | 1:08.32 | 4:19.13 | 5132 | 24569
3 | 5:27.45 | 5:28.10 | 24570 | 49179
4 | 10:55.55 | 1:09.70 | 49180 | 54424
5 | 12:05.50 | 4:37.35 | 54425 | 75234
6 | 16:43.10 | 6:16.62 | 75235 | 103496
7 | 22:59.72 | 5:55.50 | 103497 | 130171
8 | 28:55.47 | 1:10.50 | 130172 | 135471
9 | 30:06.22 | 5:12.30 | 135472 | 158901
10 | 35:18.52 | 2:55.63 | 158902 | 172089
11 | 38:14.40 | 2:05.05 | 172090 | 181469
12 | 40:19.45 | 4:18.52 | 181470 | 200871

Track 1

Filename I:\Rips\Toshiki Kadomatsu - Sea is a Lady (1987) {1994 Reissue BVCR-1526} [FLAC]\01 - Way To The Shore ''Eri''.wav

Pre-gap length 0:00:02.49

Peak level 60.4 %
Extraction speed 4.0 X
Track quality 100.0 %
Test CRC 2BA1360E
Copy CRC 2BA1360E
Accurately ripped (confidence 7) [07952F1F] (AR v2)
Copy OK

Track 2

Filename I:\Rips\Toshiki Kadomatsu - Sea is a Lady (1987) {1994 Reissue BVCR-1526} [FLAC]\02 - Sea Line ''Rie''.wav

Peak level 100.0 %
Extraction speed 5.9 X
Track quality 100.0 %
Test CRC 2CD65B1F
Copy CRC 2CD65B1F
Accurately ripped (confidence 7) [106EA733] (AR v2)
Copy OK

Track 3

Filename I:\Rips\Toshiki Kadomatsu - Sea is a Lady (1987) {1994 Reissue BVCR-1526} [FLAC]\03 - Night Sight Of Port Island ''Midori'' (Night Flight Of DC10).wav

Pre-gap length 0:00:00.54

Peak level 96.4 %
Extraction speed 6.7 X
Track quality 100.0 %
Test CRC F0EC7799
Copy CRC F0EC7799
Accurately ripped (confidence 7) [38E002EF] (AR v2)
Copy OK

Track 4

Filename I:\Rips\Toshiki Kadomatsu - Sea is a Lady (1987) {1994 Reissue BVCR-1526} [FLAC]\04 - Sea Song ''Naomi''.wav

Pre-gap length 0:00:02.44

Peak level 40.1 %
Extraction speed 5.1 X
Track quality 100.0 %
Test CRC 0BDE43AE
Copy CRC 0BDE43AE
Accurately ripped (confidence 7) [5664B445] (AR v2)
Copy OK

Track 5

Filename I:\Rips\Toshiki Kadomatsu - Sea is a Lady (1987) {1994 Reissue BVCR-1526} [FLAC]\05 - Sunset Of Micro Beach ''Satoko''.wav

Pre-gap length 0:00:00.01

Peak level 93.0 %
Extraction speed 7.3 X
Track quality 100.0 %
Test CRC A174259F
Copy CRC A174259F
Accurately ripped (confidence 7) [9C5D0A62] (AR v2)
Copy OK

Track 6

Filename I:\Rips\Toshiki Kadomatsu - Sea is a Lady (1987) {1994 Reissue BVCR-1526} [FLAC]\06 - OSHI-TAO-SHITAI ''Kaori Aso'' (Memories of Dusseldorf).wav

Pre-gap length 0:00:00.34

Peak level 96.4 %
Extraction speed 7.3 X
Track quality 99.9 %
Test CRC 5BAA892E
Copy CRC 5BAA892E
Accurately ripped (confidence 6) [CD2F3EB2] (AR v2)
Copy OK

Track 7

Filename I:\Rips\Toshiki Kadomatsu - Sea is a Lady (1987) {1994 Reissue BVCR-1526} [FLAC]\07 - 52nd Street ''Akiko''.wav

Pre-gap length 0:00:00.70

Peak level 91.8 %
Extraction speed 8.7 X
Track quality 100.0 %
Test CRC D59716DB
Copy CRC D59716DB
Accurately ripped (confidence 6) [547CBBC3] (AR v2)
Copy OK

Track 8

Filename I:\Rips\Toshiki Kadomatsu - Sea is a Lady (1987) {1994 Reissue BVCR-1526} [FLAC]\08 - The Bass Battle ''Chako''.wav

Peak level 96.4 %
Extraction speed 6.5 X
Track quality 100.0 %
Test CRC D8D5A6EA
Copy CRC D8D5A6EA
Accurately ripped (confidence 7) [042498EC] (AR v2)
Copy OK

Track 9

Filename I:\Rips\Toshiki Kadomatsu - Sea is a Lady (1987) {1994 Reissue BVCR-1526} [FLAC]\09 - Midsummer Drivin' ''Reiko''.wav

Peak level 100.0 %
Extraction speed 8.1 X
Track quality 99.9 %
Test CRC 998DFA17
Copy CRC 998DFA17
Accurately ripped (confidence 7) [3171EAC8] (AR v2)
Copy OK

Track 10

Filename I:\Rips\Toshiki Kadomatsu - Sea is a Lady (1987) {1994 Reissue BVCR-1526} [FLAC]\10 - Lovin' You ''Sawako''.wav

Pre-gap length 0:00:03.40

Peak level 73.1 %
Extraction speed 8.5 X
Track quality 100.0 %
Test CRC 31D33BE8
Copy CRC 31D33BE8
Accurately ripped (confidence 7) [6E2C2F26] (AR v2)
Copy OK

Track 11

Filename I:\Rips\Toshiki Kadomatsu - Sea is a Lady (1987) {1994 Reissue BVCR-1526} [FLAC]\11 - Sea Song (Reprise).wav

Pre-gap length 0:00:00.01

Peak level 48.7 %
Extraction speed 8.1 X
Track quality 100.0 %
Test CRC 854A471A
Copy CRC 854A471A
Accurately ripped (confidence 7) [FDB20C89] (AR v2)
Copy OK

Track 12

Filename I:\Rips\Toshiki Kadomatsu - Sea is a Lady (1987) {1994 Reissue BVCR-1526} [FLAC]\12 - June Bride.wav

Pre-gap length 0:00:01.84

Peak level 100.0 %
Extraction speed 9.5 X
Track quality 100.0 %
Test CRC 05632EEA
Copy CRC 05632EEA
Accurately ripped (confidence 7) [3F97E44F] (AR v2)
Copy OK

All tracks accurately ripped

No errors occurred

End of status report

–– CUETools DB Plugin V2.1.6

[CTDB TOCID: Lmoom5AiT8ZBGJjPBtfwB1KQaCA-] found
Submit result: Lmoom5AiT8ZBGJjPBtfwB1KQaCA- has been confirmed
Track | CTDB Status
1 | (57/58) Accurately ripped
2 | (58/58) Accurately ripped
3 | (58/58) Accurately ripped
4 | (58/58) Accurately ripped
5 | (58/58) Accurately ripped
6 | (58/58) Accurately ripped
7 | (58/58) Accurately ripped
8 | (58/58) Accurately ripped
9 | (57/58) Accurately ripped
10 | (57/58) Accurately ripped
11 | (58/58) Accurately ripped
12 | (58/58) Accurately ripped

==== Log checksum 0F548A801AA87417778EEF1A2DAF8923E798C3ABC926DBB11B69C9B8CBEA2DC4 ====

All thanks go to the sunshinefeltlikerain

More Music in My Blog
Follow My RSS Channel