Subcategories

Touch & Go - I Find You Very Attractive (1999)

Posted By: L@ter
Touch & Go - I Find You Very Attractive (1999)

Touch & Go - I Find You Very Attractive (1999)
EAC Rip | FLAC, IMG+CUE, LOG + MP3 | 279 MB | 44,24 min. | Full Covers
Label: V2/BMG Music | Instrumental, Jazz-Pop |Russian Version | RAR 3% Rec.

Touch and Go is a jazz-pop ensemble from the United Kingdom. Their most notable singles include "Would You…?", "Straight… to Number One", and "Tango in Harlem". In October 1998, "Would you…?", a track marked by its distinctive sampling of a woman's voice saying "I've noticed you around / I find you very attractive / Would you go to bed with me?", reached the #3 spot on the UK pop music chart. It became a hit in Europe, particularly in Eastern Europe where the ensemble toured extensively. "Would You…?" has been included on such television show soundtracks as the American G String Divas and the cult British series As If. The track has also been sampled for San Pellegrino, Carlsberg, and Nokia advertisements.
Exact Audio Copy V0.99 prebeta 4 from 23. January 2008

EAC extraction logfile from 9. April 2009, 15:08

Touch and Go / I Find You Very Attractive

Used drive : TSSTcorpCDDVDW SH-S223Q Adapter: 1 ID: 0

Read mode : Secure
Utilize accurate stream : Yes
Defeat audio cache : Yes
Make use of C2 pointers : No

Read offset correction : 6
Overread into Lead-In and Lead-Out : No
Fill up missing offset samples with silence : Yes
Delete leading and trailing silent blocks : No
Null samples used in CRC calculations : Yes
Used interface : Native Win32 interface for Win NT & 2000

Used output format : User Defined Encoder
Selected bitrate : 768 kBit/s
Quality : High
Add ID3 tag : No
Command line compressor : C:\Program Files\Exact Audio Copy\FLAC\FLAC.EXE
Additional command line options : -6 -V -T "ARTIST=%a" -T "TITLE=%t" -T "ALBUM=%g" -T "DATE=%y" -T "TRACKNUMBER=%n" -T "GENRE=%m" -T "COMMENT=%e" %s -o %d


TOC of the extracted CD

Track | Start | Length | Start sector | End sector
––––––––––––––––––––––––––––-
1 | 0:00.00 | 3:06.37 | 0 | 13986
2 | 3:06.37 | 3:11.69 | 13987 | 28380
3 | 6:18.31 | 4:37.01 | 28381 | 49156
4 | 10:55.32 | 3:10.68 | 49157 | 63474
5 | 14:06.25 | 3:23.27 | 63475 | 78726
6 | 17:29.52 | 4:36.33 | 78727 | 99459
7 | 22:06.10 | 3:24.73 | 99460 | 114832
8 | 25:31.08 | 3:58.35 | 114833 | 132717
9 | 29:29.43 | 3:38.23 | 132718 | 149090
10 | 33:07.66 | 4:19.44 | 149091 | 168559
11 | 37:27.35 | 3:43.00 | 168560 | 185284
12 | 41:10.35 | 3:13.60 | 185285 | 199819


Range status and errors

Selected range

Filename C:\Touch and Go - I Find You Very Attractive.wav

Peak level 99.0 %
Range quality 100.0 %
Copy CRC 77043C90
Copy OK

No errors occurred

End of status report


Tracklist

01. Straight to… Number One
02. Big Beat
03. Ecoutez, Repetez
04. Would you…?
05. So Hot
06. Mein Freund Harvey (Sugar Daddy)
07. Tango in Harlem
08. Are you talking about me?
09. Touch and Go
10. Life's a beach
11. Thanks for coming
12. Would you…? (Trailer men go to Rio edit)