Subcategories

Tritono Ensemble - Le souffle de Zephire: sonate per fiati nella Versailles di Louis XV (2003)

Posted By: Domestos
Tritono Ensemble - Le souffle de Zephire: sonate per fiati nella Versailles di Louis XV (2003)

Tritono Ensemble - Le souffle de Zephire: sonate per fiati nella Versailles di Louis XV (2003)
EAC Rip | FLAC (image+.cue, log) ~ 205.07 Mb | 47:05 | Scans included
Classical | Label: Velut Luna

Joseph Bodin de Boismortier (1689 – 1755) was a French baroque composer of instrumental music, cantatas, opéra-ballets, and vocal music. Boismortier was one of the first composers to have no patrons: having obtained a royal licence for engraving music in 1724, he made enormous sums of money by publishing his music for sale to the public. The Boismortier family moved from the composer's birthplace in Thionville (in Lorraine) to the town of Metz where he received his musical education from Joseph Valette de Montigny, a well-known composer of motets. The Boismortier family then followed Montigny and moved to Perpignan in 1713 where Boismortier found employment in the Royal Tobacco Control. Boismortier married Marie Valette, the daughter of a rich goldsmith and a relative of his teacher Montigny.

In 1724 Boismortier and his wife moved to Paris where he began a prodigious composition career, writing for many instruments and voices. He was prolific: his first works appeared in Paris in 1724, and by 1747 he had published more than 100 works in various vocal and instrumental combinations. His music, particularly for the voice, was extremely popular and made him wealthy without the aid of patrons. He died in Roissy-en-Brie.

Boismortier was the first French composer to use the Italian concerto form, in his six concertos for five flutes op. 15. (1727). He also wrote the first French solo concerto for any instrument, a concerto for cello, viol, or bassoon (1729). Much of his music is for the flute, for which he also wrote an instruction method (now lost). His six sonatas for flute and harpsichord op. 91, first published in Paris in 1742, were printed with an homage to the celebrated French flautist and composer, Michel Blavet (1700-1768). Today, they are probably his most popular pieces, for they indeed show Boismortier at his most creative and graceful. A notable piece of Boismortier's that is still often performed is the Deuxieme serenade ou simphonie. Boismortier and Rameau both lived during the Rococo era of Louis XV and upheld the French tradition, composing music of beauty and sophistication that was widely appreciated by the French musical public.

Although known as a composer, Bodin de Boismortier was also famed during his lifetime for his excessively inattentive and wandering mind that often kept him from conducting his own works.

A full-length biography on the composer, Joseph Bodin de Boismortier, by Stephan Perreau, was published in France in 2001.

The playwright and novelist Suzanne Bodin de Boismortier was his daughter.

Tritono Ensemble
Francesco Padovani - flute
Paolo Tognon - bassoon
Roberto Loreggian - organ
Pietro Prosser - theorbo

Track List:
J. B. de Boismortier - Sonata in E minor Op.37 No. 2
1 I. Allegro
2 II. Adagio
3 III. Allegro

J. B. de Boismortier - Sonata in D minor Op.50 No.4
4 I. Andante
5 II. Allegro
6 III. Sarabanda
7 IV. Giga

M. Blavet - Flute Sonata in B minor Op.3 No.2
8 I. Andante e spiccato
9 II. Allegro
10 III. Minuetto con variazioni

J. B. de Boismortier - Sonata in A minor Op.37 No.5
11 I. Vivace
12 II. Largo
13 III. Allegro

J. B. de Boismortier - Sonata in C minor Op.50 No.5
14 I. Largo
15 II. Gavotta
16 III. Largo
17 IV. Allegro

18 R. Devisée - Prelude & Chaconne (theorbo)

J. B. de Boismortier - Sonata in D major Op.37 No.3
19 I. Allegro
20 II. Largo
21 III. Allegro

Tritono Ensemble - Le souffle de Zephire: sonate per fiati nella Versailles di Louis XV (2003)

Exact Audio Copy V1.0 beta 3 from 29. August 2011

EAC extraction logfile from 10. July 2017, 20:21

Tritono Ensemble / Le souffle de Zephire - Sonate per fiati nella Versailles di Louis XV

Used drive : hp DVD-RAM UJ8D1 Adapter: 0 ID: 0

Read mode : Secure
Utilize accurate stream : Yes
Defeat audio cache : Yes
Make use of C2 pointers : No

Read offset correction : 6
Overread into Lead-In and Lead-Out : No
Fill up missing offset samples with silence : Yes
Delete leading and trailing silent blocks : No
Null samples used in CRC calculations : Yes
Used interface : Native Win32 interface for Win NT & 2000

Used output format : User Defined Encoder
Selected bitrate : 768 kBit/s
Quality : High
Add ID3 tag : No
Command line compressor : C:\Program Files (x86)\Exact Audio Copy\FLAC\FLAC.EXE
Additional command line options : -8 -V -T "ARTIST=%artist%" -T "TITLE=%title%" -T "ALBUM=%albumtitle%" -T "DATE=%year%" -T "TRACKNUMBER=%tracknr%" -T "GENRE=%genre%" -T "PERFORMER=%albuminterpret%" -T "COMPOSER=%composer%" %haslyrics%–tag-from-file=LYRICS="%lyricsfile%"%haslyrics% -T "ALBUMARTIST=%albumartist%" -T "DISCNUMBER=%cdnumber%" -T "TOTALDISCS=%totalcds%" -T "TOTALTRACKS=%numtracks%" -T "COMMENT=%comment%" %source% -o %dest%

TOC of the extracted CD

Track | Start | Length | Start sector | End sector
––––––––––––––––––––––––––––-
1 | 0:00.00 | 2:14.15 | 0 | 10064
2 | 2:14.15 | 2:01.00 | 10065 | 19139
3 | 4:15.15 | 1:26.72 | 19140 | 25661
4 | 5:42.12 | 2:33.53 | 25662 | 37189
5 | 8:15.65 | 2:27.55 | 37190 | 48269
6 | 10:43.45 | 1:37.05 | 48270 | 55549
7 | 12:20.50 | 2:34.15 | 55550 | 67114
8 | 14:54.65 | 1:16.22 | 67115 | 72836
9 | 16:11.12 | 2:48.23 | 72837 | 85459
10 | 18:59.35 | 4:19.37 | 85460 | 104921
11 | 23:18.72 | 2:08.73 | 104922 | 114594
12 | 25:27.70 | 1:30.47 | 114595 | 121391
13 | 26:58.42 | 1:48.73 | 121392 | 129564
14 | 28:47.40 | 2:16.27 | 129565 | 139791
15 | 31:03.67 | 1:36.03 | 139792 | 146994
16 | 32:39.70 | 0:53.37 | 146995 | 151006
17 | 33:33.32 | 2:21.48 | 151007 | 161629
18 | 35:55.05 | 5:31.00 | 161630 | 186454
19 | 41:26.05 | 1:30.17 | 186455 | 193221
20 | 42:56.22 | 1:31.73 | 193222 | 200119
21 | 44:28.20 | 2:36.70 | 200120 | 211889

Range status and errors

Selected range

Filename C:\cunctator\Boismortier, Blavet - Sonatas for Winds - Tritono Ensemble.wav

Peak level 100.0 %
Extraction speed 4.2 X
Range quality 100.0 %
Test CRC FE4124F2
Copy CRC FE4124F2
Copy OK

No errors occurred

AccurateRip summary

Track 1 accurately ripped (confidence 2) [A9E8269C] (AR v1)
Track 2 accurately ripped (confidence 2) [ABA2C0BC] (AR v1)
Track 3 accurately ripped (confidence 2) [96A633AF] (AR v1)
Track 4 accurately ripped (confidence 2) [26D8C63B] (AR v1)
Track 5 accurately ripped (confidence 2) [464E1ECB] (AR v1)
Track 6 accurately ripped (confidence 2) [58EA9395] (AR v1)
Track 7 accurately ripped (confidence 2) [69C0246F] (AR v1)
Track 8 accurately ripped (confidence 2) [53ABE604] (AR v1)
Track 9 accurately ripped (confidence 2) [65E74E05] (AR v1)
Track 10 accurately ripped (confidence 2) [E5B22786] (AR v1)
Track 11 accurately ripped (confidence 2) [5FB60A18] (AR v1)
Track 12 accurately ripped (confidence 2) [310FB9E0] (AR v1)
Track 13 accurately ripped (confidence 2) [9D730513] (AR v1)
Track 14 accurately ripped (confidence 2) [5D9E1FE0] (AR v1)
Track 15 accurately ripped (confidence 2) [6E5CA5EB] (AR v1)
Track 16 accurately ripped (confidence 2) [14969A1F] (AR v1)
Track 17 accurately ripped (confidence 2) [673C1133] (AR v1)
Track 18 accurately ripped (confidence 2) [C35D8EEA] (AR v1)
Track 19 accurately ripped (confidence 2) [CA66F09F] (AR v1)
Track 20 accurately ripped (confidence 2) [75BE27E5] (AR v1)
Track 21 accurately ripped (confidence 2) [119C221D] (AR v1)

All tracks accurately ripped

End of status report

==== Log checksum C23563E29ABAE1D6CE9DC9E539B748BDAF15889FBF1C460E1703804B5ACF4262 ====

All thanks go to the Caterina Sforza

More Music in My Blog
Follow My RSS Channel