Subcategories

Tsuyoshi Yamamoto Trio - Falling in Love with Love (2002)

Posted By: stfine
Tsuyoshi Yamamoto Trio - Falling in Love with Love (2002)

Tsuyoshi Yamamoto Trio - Falling in Love with Love (2002)
EAC rip | FLAC image + cue + log + scans / MP3 320 kbps | 00:53:22 | 294 MB / 130 MB (3% rec.)
Post-bop, Piano Jazz | Label: AMJ, ABCJ-220

Another great album from the talanted Japanese piano player Tsuyoshi Yamamoto. The set includes beautiful and moving interpretations of the well-known romantic standards, plus a tune written by Tsuyoshi himself. Mickey Curtis sings in "Medley for Chet Baker".

Tracklist

1. I've Grown Accustomed To Her Face (Lerner/Loewe) [02:44]
2. Soon It's Gonna Rain (Jones & Schmidt) [03:17]
3. My One And Only Love (Mellin & Wood) [06:40]
4. My Funny Valentine (Hart/Rogers) [06:47]
5. Medley for Chet Baker (Someone to watch over me / I fall in love too easily / I'm a fool to want you / Almost blue) [09:15]
6. Falling In Love With Love (Hart/Rogers) [07:59]
7. We'll Be Together Again (Laine & Fischer) [05:09]
8. A Shade Of Love (Yamamoto) [04:44]
9. Estate (Martino & Brighetti) [04:11]
10. Love Me Tender (Presley & Matson) [02:36]

Total time 00:53:22

Exact Audio Copy V0.99 prebeta 4 from 23. January 2008

Отчёт EAC об извлечении, выполненном 17. апреля 2008, 21:05

Tsuyoshi Yamamoto Trio / Falling In Love With Love

Дисковод: SlimtypeDVD A DS8A1P Adapter: 1 ID: 0

Режим чтения : Достоверность
Использование точного потока : Да
Отключение кэша аудио : Да
Использование указателей C2 : Нет

Коррекция смещения при чтении : 594
Способность читать области Lead-in и Lead-out : Нет
Заполнение пропущенных сэмплов тишиной : Да
Удаление блоков с тишиной в начале и конце : Нет
При вычислениях CRC использовались нулевые сэмплы : Да
Интерфейс : Встроенный Win32-интерфейс для Win NT/2000

Выходной формат : Внутренние WAV-операции
Формат сэмплов : 44.100 Гц; 16 бит; стерео


TOC извлечённого CD

Трек | Старт | Длительность | Начальный сектор | Конечный сектор
––––––––––––––––––––––––––––––––––-
1 | 0:00.00 | 2:44.35 | 0 | 12334
2 | 2:44.35 | 3:17.10 | 12335 | 27119
3 | 6:01.45 | 6:40.00 | 27120 | 57119
4 | 12:41.45 | 6:47.25 | 57120 | 87669
5 | 19:28.70 | 9:15.52 | 87670 | 129346
6 | 28:44.47 | 7:59.58 | 129347 | 165329
7 | 36:44.30 | 5:09.60 | 165330 | 188564
8 | 41:54.15 | 4:44.05 | 188565 | 209869
9 | 46:38.20 | 4:11.35 | 209870 | 228729
10 | 50:49.55 | 2:36.20 | 228730 | 240449


Характеристики диапазона извлечения и сообщения об ошибках

Выбранный диапазон

Имя файла D:\Image\Tsuyoshi Yamamoto Trio - Falling in Love with Love 1991\Tsuyoshi Yamamoto Trio - Falling In Love With Love.wav

Пиковый уровень 95.3 %
Качество диапазона 100.0 %
CRC копии 7D3EE6FB
Копирование… OK

Ошибок не произошло

Конец отчёта

Recorded at Q-tec recording studio in Nov. 14/15, '91.

Personnel:
Tsuyoshi Yamamoto - piano;
John Clayton - bass;
Billy Higgins - drums;
Mickey Curtis - vocal.

Tsuyoshi Yamamoto Trio - Falling in Love with Love (2002)