Subcategories

Tuned Tone - Tuned Tone (1979/1991)

Posted By: Domestos
Tuned Tone - Tuned Tone (1979/1991)

Tuned Tone - Tuned Tone (1979/1991)
EAC Rip | FLAC (tracks+.cue, log) ~ 230.96 Mb | 41:04 | Scans included
Psychedelic Rock, Prog Rock | Country: Israel | Label: Hed-Arzi - 14791

This 1979 Israeli Progressive Rock trio considered to be a super group. It is consisted from one of The Churchill's founders, the guitarist Yitzhak Klepter "Churchill, Shlomo Yidov, and the known Shem Tov Levy (NoNames). This is an exact newly remastered version of the original 1979 issue.

===
Discogs | Amazon
===


Track List:
1. Samba (A Day's Story) (Shem Tov Levi - Osnat Yaron Levi)
2. Taking The Time (Ithak Klepter - Yonatan Gefen)
3. White Days (Shlomo Ydov - Lea Goldberg)
4. It Could Be Over (Shem Tov Levi - Yonatan Gefen)
5. Bedui Love Song (Intro)
6. Bedui Love Song (Ithak Klepter - Itzik Veingart)
7. Tuned Tone (Ithak Klepter - Ithak Klepter)
8. Ballade For Ayo (Shem Tov Levi - Osnat Yaron Levi)
9. Moon's Children (Shlomo Ydow - Yehud Manor)
10. At Night (Shem Tov Levi - Avraham Halphy)
11. On The Way To You (Shlomo Ydow - Yakov Rotblit)

Shlomo Ydow - g, solo vocal (3, 9, 11)
Shem Tov Levi - piano, flute, solo vocal (1, 4, 8, 10)
Itzhak Klepter - g. solo vocal (2, 6, 7)

additional musicians
Meir Israel, Alon Halal, Dany Maki, Iki Levi - drums
Avner Yafet - bass

Tuned Tone - Tuned Tone (1979/1991)

Exact Audio Copy V0.99 prebeta 4 from 23. January 2008

EAC extraction logfile from 30. June 2009, 17:31

Tuned Tone / Tuned Tone

Used drive : HL-DT-STDVD-RAM GH22NP20 Adapter: 0 ID: 0

Read mode : Secure
Utilize accurate stream : Yes
Defeat audio cache : Yes
Make use of C2 pointers : No

Read offset correction : 102
Overread into Lead-In and Lead-Out : No
Fill up missing offset samples with silence : Yes
Delete leading and trailing silent blocks : No
Null samples used in CRC calculations : Yes
Used interface : Installed external ASPI interface
Gap handling : Appended to previous track

Used output format : User Defined Encoder
Selected bitrate : 320 kBit/s
Quality : High
Add ID3 tag : Yes
Command line compressor : C:\Program Files\Exact Audio Copy\Flac\flac.exe
Additional command line options : -V -8 -T "artist=%a" -T "title=%t" -T "album=%g" -T "date=%y" -T "tracknumber=%n" -T "genre=%m" %s


TOC of the extracted CD

Track | Start | Length | Start sector | End sector
––––––––––––––––––––––––––––-
1 | 0:00.33 | 4:31.07 | 33 | 20364
2 | 4:31.40 | 3:42.03 | 20365 | 37017
3 | 8:13.43 | 4:10.32 | 37018 | 55799
4 | 12:24.00 | 4:16.53 | 55800 | 75052
5 | 16:40.53 | 0:32.32 | 75053 | 77484
6 | 17:13.10 | 3:54.40 | 77485 | 95074
7 | 21:07.50 | 4:14.00 | 95075 | 114124
8 | 25:21.50 | 3:17.23 | 114125 | 128922
9 | 28:38.73 | 3:51.35 | 128923 | 146282
10 | 32:30.33 | 4:29.47 | 146283 | 166504
11 | 37:00.05 | 4:04.35 | 166505 | 184839


Track 1

Filename D:\music\rip\Tuned Tone - Tuned Tone (1979)\01 - Samba (A Day's Story).wav

Pre-gap length 0:00:02.44

Peak level 73.3 %
Track quality 100.0 %
Test CRC 20B9DB95
Copy CRC 20B9DB95
Track not present in AccurateRip database
Copy OK

Track 2

Filename D:\music\rip\Tuned Tone - Tuned Tone (1979)\02 - Taking The Time.wav

Pre-gap length 0:00:01.60

Peak level 42.2 %
Track quality 100.0 %
Test CRC 2B1B4722
Copy CRC 2B1B4722
Track not present in AccurateRip database
Copy OK

Track 3

Filename D:\music\rip\Tuned Tone - Tuned Tone (1979)\03 - White Days.wav

Pre-gap length 0:00:01.00

Peak level 17.9 %
Track quality 100.0 %
Test CRC FEF8A052
Copy CRC FEF8A052
Track not present in AccurateRip database
Copy OK

Track 4

Filename D:\music\rip\Tuned Tone - Tuned Tone (1979)\04 - It Could Be Over.wav

Pre-gap length 0:00:01.22

Peak level 53.6 %
Track quality 99.9 %
Test CRC C31DE63D
Copy CRC C31DE63D
Track not present in AccurateRip database
Copy OK

Track 5

Filename D:\music\rip\Tuned Tone - Tuned Tone (1979)\05 - Bedui Love Song.wav

Pre-gap length 0:00:01.73

Peak level 19.7 %
Track quality 100.0 %
Test CRC B740C97E
Copy CRC B740C97E
Track not present in AccurateRip database
Copy OK

Track 6

Filename D:\music\rip\Tuned Tone - Tuned Tone (1979)\06 - Bedui Love Song.wav

Peak level 45.6 %
Track quality 100.0 %
Test CRC E589B4D7
Copy CRC E589B4D7
Track not present in AccurateRip database
Copy OK

Track 7

Filename D:\music\rip\Tuned Tone - Tuned Tone (1979)\07 - Tuned Tone.wav

Pre-gap length 0:00:01.40

Peak level 60.0 %
Track quality 99.9 %
Test CRC E6D39F57
Copy CRC E6D39F57
Track not present in AccurateRip database
Copy OK

Track 8

Filename D:\music\rip\Tuned Tone - Tuned Tone (1979)\08 - Ballade For Ayo.wav

Pre-gap length 0:00:01.36

Peak level 39.6 %
Track quality 100.0 %
Test CRC 081AA4E9
Copy CRC 081AA4E9
Track not present in AccurateRip database
Copy OK

Track 9

Filename D:\music\rip\Tuned Tone - Tuned Tone (1979)\09 - Moon's Children.wav

Pre-gap length 0:00:01.00

Peak level 89.1 %
Track quality 100.0 %
Test CRC 36E098EE
Copy CRC 36E098EE
Track not present in AccurateRip database
Copy OK

Track 10

Filename D:\music\rip\Tuned Tone - Tuned Tone (1979)\10 - At Night.wav

Pre-gap length 0:00:01.26

Peak level 64.0 %
Track quality 99.9 %
Test CRC 47723875
Copy CRC 47723875
Track not present in AccurateRip database
Copy OK

Track 11

Filename D:\music\rip\Tuned Tone - Tuned Tone (1979)\11 - On The Way To You.wav

Pre-gap length 0:00:01.00

Peak level 54.2 %
Track quality 100.0 %
Test CRC DB2FC5A0
Copy CRC DB2FC5A0
Track not present in AccurateRip database
Copy OK


None of the tracks are present in the AccurateRip database

No errors occurred

End of status report

All thanks go to the Musicgate

More Music in My Blog
Follow My RSS Channel