Subcategories

Ufomammut - Lucifer Songs (2005)

Posted By: robixn
Ufomammut - Lucifer Songs (2005)

Ufomammut - Lucifer Songs (2005)
EAC Rip | FLAC, CUE+LOG | 209 MB | Full Scans (300dpi) | Hotfile/ Filesonic
Psychedelic/ Doom Metal | Supernatural Cat, CAT 001

Third studio album by 'Ufomammut'. A distinctive brand of crushing, psyched out doom metal from Italy.

"Holy mother of fuck. That’s all that really needs to be said about Ufomammut’s Lucifer Songs. If you thought Godlike Snake and last year’s Snailking were peerless slabs of psychedelic doom, then you’re in for a real treat with this one. Rolling, distorted bass lines, otherworldly singing that seems to leap out at you from some hellish plane of existence, thick, psychedelic riffs, powerful drumming, and a background of effects. Their take on doom is almost indescribable – it just is. Their songwriting almost broaches a symphonic state, where each note is an epic in its own right. Holy mother of fuck, this is good."

-Arzgarth, allthatisheavy.com
Available on CD and LP, both come with a dvd featuring videos of three of the tracks + visuals for all the tracks created by 'Malleus'.
Malleus features all members of Ufomammut, who specialize in doing pre-dominantly screen-printed gigposter art and art prints.

Tracklist:

01. Blind (5:14)
02. Hellcore (5:09)
03. Hypnotized (2:02)
04. Mars (5:38)
05. Astrodronaut (5:39)
06. Lucifer Song (42:14)

Exact Audio Copy V0.99 prebeta 5 from 4. May 2009

EAC extraction logfile from 6. February 2011, 18:10

Ufomammut / Lucifer Songs

Used drive : _NEC DVD+-RW ND-3650A Adapter: 4 ID: 0

Read mode : Secure
Utilize accurate stream : Yes
Defeat audio cache : Yes
Make use of C2 pointers : No

Read offset correction : 48
Overread into Lead-In and Lead-Out : No
Fill up missing offset samples with silence : Yes
Delete leading and trailing silent blocks : No
Null samples used in CRC calculations : Yes
Used interface : Native Win32 interface for Win NT & 2000
Gap handling : Appended to previous track

Used output format : User Defined Encoder
Selected bitrate : 320 kBit/s
Quality : High
Add ID3 tag : No
Command line compressor : C:\Program Files (x86)\Exact Audio Copy\Flac\flac.exe
Additional command line options : -V -8 -T "artist=%a" -T "title=%t" -T "album=%g" -T "date=%y" -T "tracknumber=%n" -T "genre=%m" %s


TOC of the extracted CD

Track | Start | Length | Start sector | End sector
––––––––––––––––––––––––––––-
1 | 0:00.00 | 5:14.33 | 0 | 23582
2 | 5:14.33 | 5:09.68 | 23583 | 46825
3 | 10:24.26 | 2:02.57 | 46826 | 56032
4 | 12:27.08 | 5:38.42 | 56033 | 81424
5 | 18:05.50 | 5:39.20 | 81425 | 106869
6 | 23:44.70 | 42:14.02 | 106870 | 296921


Track 1

Filename C:\Users\Robin\Music\Lossless Robin\Ufomammut - Lucifer Songs (2005) [FLAC + Scans]\01 Blind.wav

Pre-gap length 0:00:02.00

Peak level 94.7 %
Track quality 99.9 %
Test CRC 5A41ED39
Copy CRC 5A41ED39
Accurately ripped (confidence 1) [44846096]
Copy OK

Track 2

Filename C:\Users\Robin\Music\Lossless Robin\Ufomammut - Lucifer Songs (2005) [FLAC + Scans]\02 Hellcore.wav

Peak level 88.4 %
Track quality 100.0 %
Test CRC 6E0AA656
Copy CRC 6E0AA656
Accurately ripped (confidence 1) [DC73A700]
Copy OK

Track 3

Filename C:\Users\Robin\Music\Lossless Robin\Ufomammut - Lucifer Songs (2005) [FLAC + Scans]\03 Hypnotized.wav

Peak level 87.4 %
Track quality 100.0 %
Test CRC 5B25697B
Copy CRC 5B25697B
Accurately ripped (confidence 1) [97AE1E75]
Copy OK

Track 4

Filename C:\Users\Robin\Music\Lossless Robin\Ufomammut - Lucifer Songs (2005) [FLAC + Scans]\04 Mars.wav

Peak level 93.8 %
Track quality 100.0 %
Test CRC B3AEC029
Copy CRC B3AEC029
Accurately ripped (confidence 1) [86937649]
Copy OK

Track 5

Filename C:\Users\Robin\Music\Lossless Robin\Ufomammut - Lucifer Songs (2005) [FLAC + Scans]\05 Astrodronaut.wav

Peak level 96.3 %
Track quality 100.0 %
Test CRC 2188B946
Copy CRC 2188B946
Accurately ripped (confidence 1) [F7C05547]
Copy OK

Track 6

Filename C:\Users\Robin\Music\Lossless Robin\Ufomammut - Lucifer Songs (2005) [FLAC + Scans]\06 Lucifer Song.wav

Peak level 100.0 %
Track quality 100.0 %
Test CRC 47BF0A44
Copy CRC 47BF0A44
Accurately ripped (confidence 1) [BCB39908]
Copy OK


All tracks accurately ripped

No errors occurred

End of status report


Line-up:

Urlo - Bass, Vocals, Synthesizer
Vita - Drums
Poia - Guitar, Synthesizer

Hotfile Download
Part 1
Part 2
Scans

Filesonic Download
Part 1
Part 2
Scans