Subcategories

Ultravox - 6 Chrysalis Album Collection (1981-86) [11CD+DVD] {2009, UK, Remastered Definitive Edition} [combined repost]

Posted By: ruskaval
Ultravox - 6 Chrysalis Album Collection (1981-86) [11CD+DVD] {2009, UK, Remastered Definitive Edition} [combined repost]

Ultravox - 6 Chrysalis Album Collection (1981-86) [11CD+DVD] {2009, UK, Remastered Definitive Edition}
EAC rip (secure mode) | FLAC (tracks)+CUE+LOG -> 4.1 Gb | MP3 @320 -> 1.47 Gb
Full Artwork (JPG) -> 61 Mb | 5% repair rar
© 2008, 2009 Chrysalis / EMI | CHRX / CDLX / CUXX series
Rock / New Romantic / New Wave / Synth Pop

With the departure of vocalist John Foxx and guitarist Robin Simon behind them, Vienna kicked off Ultravox's second phase with former Rich Kids vocalist Midge Ure at the helm. Trading Foxx's glam rock stance for Ure's aristocratic delivery, Vienna recasts the band as a melodramatic synth pop chamber ensemble with most of the group doubling on traditional string quartet instruments and the synthesizers often serving to emulate an orchestra. It was a bold move that took awhile to pay off (the first two singles, "Sleepwalk" and "Passing Strangers," went unnoticed), but when the monolithic title track was released, the Ure lineup became the band's most identifiable one almost overnight.

Ultravox - 6 Chrysalis Album Collection (1981-86) [11CD+DVD] {2009, UK, Remastered Definitive Edition} [combined repost]

Ultravox - Vienna (1981) [2CD] {2008, UK, Remastered Definitive Edition}
EAC rip (secure mode) | FLAC (tracks)+CUE+LOG -> 664 Mb | MP3 @320 -> 242 Mb
Full Artwork (JPG) -> 8 Mb | 5% repair rar
© 2008 Chrysalis / EMI | 5099923436527, CHRX 1296

The simple and instantly recognizable drumbeat of "Vienna" proved infectious, taking the single to the top of the charts in the U.K. and making an impression in a new wave-apprehensive America. Drummer Warren Cann's monotone narration on "Mr X" and the frantic ride that is "Western Promise" give the album just enough diversity and showcase the rest of the group on an Ure-heavy album. There are plenty of pretentious and pompous moments at which Foxx-era purists cringe, but taken as a snooty rebellion against the guitar-heavy climate of the late '70s, they're ignorable. Returning producer Conny Plank's style adapted well to the new group, pitting the stark and the lush against one another. Add Anton Corbijn's photography and Peter Saville's smart cover design and all the ingredients for an early-'80s classic are there. A few albums later, it would all seem like a fluke, but on Vienna, all the pieces come together.

Personnel: Midge Ure (voc), Billy Currie (synth), Chris Cross (bass) and Warren Cann (dr).

tracklist:
CD1

01. Astradyne
02. New Europeans
03. Private Lives
04. Passing Strangers
05. Sleepwalk
06. Mr. X
07. Western Promise
08. Vienna
09. All Stood Still

CD2
01. Sleepwalk (Early version) From the album ‘The Very Best of Midge Ure and Ultravox’.
02. Waiting B-side of the ‘Sleepwalk’ 7 inch single.
03. Face to Face (Recorded live at St Albans, 16 Aug 1980) B-side of the ‘Passing Strangers’ 7 & 12 inch singles.
04. King’s Lead Hat (Recorded live at The Lyceum, 17 Aug 1980) Extra track on the B-side of the ‘Passing Strangers’ 12 inch single.
05. Passionate Reply B-side of the ‘Vienna’ 7 & 12 inch singles.
06. Herr X Extra track on the B-side of the ‘Vienna’ 12 inch single.
07. All Stood Still (12 inch version) A-side of the ‘All Stood Still’ 12 inch single.
08. Alles Klar B-side of the ‘All Stood Still’ 7 & 12 inch singles.
09. Keep Torqe-ing (Cassette recording during rehearsals) Extra track on the B-side of the ‘All Stood Still’ 12 inch single.
10. Sleepwalk (Recorded live in rehearsals at The Lyceum, 17 Aug 1980) Previously unreleased.
11. All Stood Still (Recorded live in rehearsals at The Lyceum, 17 Aug 1980) Previously unreleased.

Ultravox - 6 Chrysalis Album Collection (1981-86) [11CD+DVD] {2009, UK, Remastered Definitive Edition} [combined repost]

Ultravox - 6 Chrysalis Album Collection (1981-86) [11CD+DVD] {2009, UK, Remastered Definitive Edition} [combined repost]

Exact Audio Copy V1.0 beta 3 from 29. August 2011

EAC extraction logfile from 9. February 2012, 7:19

Ultravox / Vienna CD1

Used drive : HL-DT-STDVDRAM GSA-H60N Adapter: 4 ID: 0

Read mode : Secure
Utilize accurate stream : Yes
Defeat audio cache : Yes
Make use of C2 pointers : No

Read offset correction : 667
Overread into Lead-In and Lead-Out : No
Fill up missing offset samples with silence : Yes
Delete leading and trailing silent blocks : No
Null samples used in CRC calculations : Yes
Used interface : Native Win32 interface for Win NT & 2000
Gap handling : Appended to previous track

Used output format : User Defined Encoder
Selected bitrate : 1024 kBit/s
Quality : High
Add ID3 tag : No
Command line compressor : C:\Program Files (x86)\Exact Audio Copy\Flac\flac.exe
Additional command line options : -8 -V -T "ARTIST=%artist%" -T "TITLE=%title%" -T "ALBUM=%albumtitle%" -T "DATE=%year%" -T "TRACKNUMBER=%tracknr%" -T "GENRE=%genre%" -T "PERFORMER=%albuminterpret%" -T "COMPOSER=%composer%" %haslyrics%–tag-from-file=LYRICS="%lyricsfile%"%haslyrics% -T "ALBUMARTIST=%albumartist%" -T "DISCNUMBER=%cdnumber%" -T "TOTALDISCS=%totalcds%" -T "TOTALTRACKS=%numtracks%" -T "COMMENT=EAC V1.0 beta 3, Secure Mode, Test & Copy, FLAC -8%comment%" %source% -o %dest%


TOC of the extracted CD

Track | Start | Length | Start sector | End sector
––––––––––––––––––––––––––––-
1 | 0:00.00 | 7:08.66 | 0 | 32165
2 | 7:08.66 | 4:04.58 | 32166 | 50523
3 | 11:13.49 | 4:08.53 | 50524 | 69176
4 | 15:22.27 | 3:50.72 | 69177 | 86498
5 | 19:13.24 | 3:12.54 | 86499 | 100952
6 | 22:26.03 | 6:35.26 | 100953 | 130603
7 | 29:01.29 | 5:18.42 | 130604 | 154495
8 | 34:19.71 | 4:56.12 | 154496 | 176707
9 | 39:16.08 | 4:25.57 | 176708 | 196639


Track 1

Filename c:\Ultravox - Vienna CD1 (1983) [FLAC]\01 - Astradyne.wav

Pre-gap length 0:00:02.00

Peak level 98.9 %
Extraction speed 4.1 X
Track quality 100.0 %
Test CRC 6D5D01DC
Copy CRC 6D5D01DC
Copy OK

Track 2

Filename c:\Ultravox - Vienna CD1 (1983) [FLAC]\02 - New Europeans.wav

Peak level 98.9 %
Extraction speed 4.4 X
Track quality 100.0 %
Test CRC 80BDD1BA
Copy CRC 80BDD1BA
Copy OK

Track 3

Filename c:\Ultravox - Vienna CD1 (1983) [FLAC]\03 - Private Lives.wav

Pre-gap length 0:00:02.09

Peak level 98.6 %
Extraction speed 4.4 X
Track quality 100.0 %
Test CRC ABA50A27
Copy CRC ABA50A27
Copy OK

Track 4

Filename c:\Ultravox - Vienna CD1 (1983) [FLAC]\04 - Passing Strangers.wav

Pre-gap length 0:00:00.44

Peak level 98.6 %
Extraction speed 4.4 X
Track quality 100.0 %
Test CRC 6495A7A5
Copy CRC 6495A7A5
Copy OK

Track 5

Filename c:\Ultravox - Vienna CD1 (1983) [FLAC]\05 - Sleepwalk.wav

Pre-gap length 0:00:00.93

Peak level 98.9 %
Extraction speed 4.1 X
Track quality 100.0 %
Test CRC 4C7B9AC9
Copy CRC 4C7B9AC9
Copy OK

Track 6

Filename c:\Ultravox - Vienna CD1 (1983) [FLAC]\06 - Mr. X.wav

Pre-gap length 0:00:01.14

Peak level 98.1 %
Extraction speed 4.3 X
Track quality 100.0 %
Test CRC 12FA5ADF
Copy CRC 12FA5ADF
Copy OK

Track 7

Filename c:\Ultravox - Vienna CD1 (1983) [FLAC]\07 - Western Promise.wav

Peak level 98.3 %
Extraction speed 4.4 X
Track quality 100.0 %
Test CRC 55337A83
Copy CRC 55337A83
Copy OK

Track 8

Filename c:\Ultravox - Vienna CD1 (1983) [FLAC]\08 - Vienna.wav

Peak level 99.0 %
Extraction speed 4.0 X
Track quality 100.0 %
Test CRC 45924CD5
Copy CRC 45924CD5
Copy OK

Track 9

Filename c:\Ultravox - Vienna CD1 (1983) [FLAC]\09 - All Stood Still.wav

Pre-gap length 0:00:00.17

Peak level 99.4 %
Extraction speed 4.3 X
Track quality 100.0 %
Test CRC 482D78A5
Copy CRC 482D78A5
Copy OK

No errors occurred

End of status report

==== Log checksum CF333D103352EEDD140184B41EE3AE333EE96FF1D2F25848A7CD320DA6CE02D2 ====

Exact Audio Copy V1.0 beta 3 from 29. August 2011

EAC extraction logfile from 9. February 2012, 8:33

Ultravox / Vienna (CD2)

Used drive : HL-DT-STDVDRAM GSA-H60N Adapter: 4 ID: 0

Read mode : Secure
Utilize accurate stream : Yes
Defeat audio cache : Yes
Make use of C2 pointers : No

Read offset correction : 667
Overread into Lead-In and Lead-Out : No
Fill up missing offset samples with silence : Yes
Delete leading and trailing silent blocks : No
Null samples used in CRC calculations : Yes
Used interface : Native Win32 interface for Win NT & 2000
Gap handling : Appended to previous track

Used output format : User Defined Encoder
Selected bitrate : 1024 kBit/s
Quality : High
Add ID3 tag : No
Command line compressor : C:\Program Files (x86)\Exact Audio Copy\Flac\flac.exe
Additional command line options : -8 -V -T "ARTIST=%artist%" -T "TITLE=%title%" -T "ALBUM=%albumtitle%" -T "DATE=%year%" -T "TRACKNUMBER=%tracknr%" -T "GENRE=%genre%" -T "PERFORMER=%albuminterpret%" -T "COMPOSER=%composer%" %haslyrics%–tag-from-file=LYRICS="%lyricsfile%"%haslyrics% -T "ALBUMARTIST=%albumartist%" -T "DISCNUMBER=%cdnumber%" -T "TOTALDISCS=%totalcds%" -T "TOTALTRACKS=%numtracks%" -T "COMMENT=EAC V1.0 beta 3, Secure Mode, Test & Copy, FLAC -8%comment%" %source% -o %dest%


TOC of the extracted CD

Track | Start | Length | Start sector | End sector
––––––––––––––––––––––––––––-
1 | 0:00.00 | 3:23.06 | 0 | 15230
2 | 3:23.06 | 3:52.57 | 15231 | 32687
3 | 7:15.63 | 6:04.17 | 32688 | 60004
4 | 13:20.05 | 4:07.36 | 60005 | 78565
5 | 17:27.41 | 4:45.43 | 78566 | 99983
6 | 22:13.09 | 5:52.12 | 99984 | 126395
7 | 28:05.21 | 5:06.51 | 126396 | 149396
8 | 33:11.72 | 4:56.08 | 149397 | 171604
9 | 38:08.05 | 6:22.65 | 171605 | 200319
10 | 44:30.70 | 3:43.13 | 200320 | 217057
11 | 48:14.08 | 4:35.26 | 217058 | 237708


Track 1

Filename c:\Ultravox - Vienna (CD2) (2008) [FLAC]\01 - Sleepwalk (Early Version).wav

Pre-gap length 0:00:02.00

Peak level 98.7 %
Extraction speed 4.4 X
Track quality 100.0 %
Test CRC A103C7FD
Copy CRC A103C7FD
Copy OK

Track 2

Filename c:\Ultravox - Vienna (CD2) (2008) [FLAC]\02 - Waiting.wav

Pre-gap length 0:00:00.73

Peak level 98.7 %
Extraction speed 4.3 X
Track quality 100.0 %
Test CRC A9F937C8
Copy CRC A9F937C8
Copy OK

Track 3

Filename c:\Ultravox - Vienna (CD2) (2008) [FLAC]\03 - Face To Face (Live).wav

Pre-gap length 0:00:00.61

Peak level 98.7 %
Extraction speed 4.1 X
Track quality 100.0 %
Test CRC 38C3B640
Copy CRC 38C3B640
Copy OK

Track 4

Filename c:\Ultravox - Vienna (CD2) (2008) [FLAC]\04 - King's Lead Hat (Live).wav

Peak level 98.8 %
Extraction speed 4.1 X
Track quality 100.0 %
Test CRC 6FD34430
Copy CRC 6FD34430
Copy OK

Track 5

Filename c:\Ultravox - Vienna (CD2) (2008) [FLAC]\05 - Passionate Reply.wav

Pre-gap length 0:00:00.66

Peak level 98.8 %
Extraction speed 4.4 X
Track quality 100.0 %
Test CRC E0880DD6
Copy CRC E0880DD6
Copy OK

Track 6

Filename c:\Ultravox - Vienna (CD2) (2008) [FLAC]\06 - Herr X.wav

Pre-gap length 0:00:00.14

Peak level 98.8 %
Extraction speed 4.1 X
Track quality 100.0 %
Test CRC 5D60AD20
Copy CRC 5D60AD20
Copy OK

Track 7

Filename c:\Ultravox - Vienna (CD2) (2008) [FLAC]\07 - All Stood Still (12-inch Version).wav

Pre-gap length 0:00:00.17

Peak level 98.8 %
Extraction speed 4.1 X
Track quality 100.0 %
Test CRC 1677E956
Copy CRC 1677E956
Copy OK

Track 8

Filename c:\Ultravox - Vienna (CD2) (2008) [FLAC]\08 - Alles Klar.wav

Pre-gap length 0:00:00.49

Peak level 98.8 %
Extraction speed 4.4 X
Track quality 100.0 %
Test CRC C18F4A52
Copy CRC C18F4A52
Copy OK

Track 9

Filename c:\Ultravox - Vienna (CD2) (2008) [FLAC]\09 - Keep Talking.wav

Peak level 98.6 %
Extraction speed 4.4 X
Track quality 100.0 %
Test CRC 55365F99
Copy CRC 55365F99
Copy OK

Track 10

Filename c:\Ultravox - Vienna (CD2) (2008) [FLAC]\10 - Sleepwalk (Live).wav

Pre-gap length 0:00:01.00

Peak level 98.7 %
Extraction speed 4.0 X
Track quality 100.0 %
Test CRC E8CC4C40
Copy CRC E8CC4C40
Copy OK

Track 11

Filename c:\Ultravox - Vienna (CD2) (2008) [FLAC]\11 - All Stood Still (Live).wav

Pre-gap length 0:00:01.10

Peak level 98.7 %
Extraction speed 4.0 X
Track quality 100.0 %
Test CRC B4F5E180
Copy CRC B4F5E180
Copy OK

No errors occurred

End of status report

==== Log checksum 8894E417E852548AFCBBD750F02CAC99FEDFAB00A067452B548835F0E5D4C773 ====



Ultravox - 6 Chrysalis Album Collection (1981-86) [11CD+DVD] {2009, UK, Remastered Definitive Edition} [combined repost]

Ultravox - Rage In Eden (1981) [2CD] {2008, UK, Remastered Definitive Edition}
EAC rip (secure mode) | FLAC (tracks)+CUE+LOG -> 793 Mb | MP3 @320 -> 281 Mb
Full Artwork (JPG) -> 11 Mb | 5% repair rar
© 2008 Chrysalis / EMI | 5099923437029, CHRX 1338

Following on from the success of Vienna, Ultravox cemented their position as a New Romantic phenomenon with their follow-up, 1981's Rage in Eden. The martial beats and political undertones of "The Thin Wall" single acted as a potent taster for the album, to be joined in the U.K. Top 20 by the even more powerful message of "The Voice." The latter song opened the album, but nothing that followed equaled its strength, its sequencing a flaw in an otherwise excellent set. That said, propulsive numbers like "We Stand Alone" and "I Remember (Death in the Afternoon)," the rebellious angst of "Accent on Youth," the exotic strains of "Stranger Within," and the haunting "Your Name Has Slipped My Mind Again" all contained their own power. And even if the instrumental "The Ascent" harkened back to "Vienna," it was obvious that with Eden, Ultravox was climbing to grand new heights.

Personnel: Midge Ure (voc), Billy Currie (synth), Chris Cross (bass) and Warren Cann (dr).

tracklist:
CD1

01. The Voice
02. We Stand Alone
03. Rage in Eden
04. I Remember (Death in the Afternoon)
05. The Thin Wall
06. Stranger Within
07. Accent on Youth
08. The Ascent
09. Your Name (Has Slipped My Mind Again)

CD2
01. I Never Wanted to Begin B-side of ‘The Thin Wall’ 7 inch single.
02. Paths and Angles B-side of ‘The Voice’ 7 inch single and A-side of ‘The Voice’ 12 inch single.
03. I Never Wanted to Begin (Extended Version) B-side of ‘The Thin Wall’ 12 inch single.
04. Private Lives (Recorded live at Crystal Palace, 13 Jun 1981) Extra track on the B-side of ‘The Voice’ 12 inch single.
05. All Stood Still (Recorded live at Crystal Palace, 13 Jun 1981) Extra track on the B-side of ‘The Voice’ 12 inch single.
06. I Remember (Death in the Afternoon)(Recorded live at Hammersmith Odeon, 17 Oct 1981) Previously unreleased.
07. Stranger Within (Recorded live at Hammersmith Odeon, 17 Oct 1981) Previously unreleased.
08. Rage in Eden (Recorded live at Hammersmith Odeon, 17 Oct 1981) Previously unreleased.
09. Accent on Youth (Recorded live at Hammersmith Odeon, 17 Oct 1981) Previously unreleased.
10. The Ascent (Recorded live at Hammersmith Odeon, 17 Oct 1981) Previously unreleased.
11. Your Name (Has Slipped My Mind Again) (Recorded live at Hammersmith Odeon, 17 Oct 1981) Previously unreleased.
12. Stranger Within (Work in progress mix) Previously unreleased.
13. The Thin Wall (Work in progress mix) Previously unreleased.

Ultravox - 6 Chrysalis Album Collection (1981-86) [11CD+DVD] {2009, UK, Remastered Definitive Edition} [combined repost]

Ultravox - 6 Chrysalis Album Collection (1981-86) [11CD+DVD] {2009, UK, Remastered Definitive Edition} [combined repost]

Exact Audio Copy V1.0 beta 3 from 29. August 2011

EAC extraction logfile from 9. February 2012, 11:35

Ultravox / Rage In Eden (CD1)

Used drive : HL-DT-STDVDRAM GSA-H60N Adapter: 4 ID: 0

Read mode : Secure
Utilize accurate stream : Yes
Defeat audio cache : Yes
Make use of C2 pointers : No

Read offset correction : 667
Overread into Lead-In and Lead-Out : No
Fill up missing offset samples with silence : Yes
Delete leading and trailing silent blocks : No
Null samples used in CRC calculations : Yes
Used interface : Native Win32 interface for Win NT & 2000
Gap handling : Appended to previous track

Used output format : User Defined Encoder
Selected bitrate : 1024 kBit/s
Quality : High
Add ID3 tag : No
Command line compressor : C:\Program Files (x86)\Exact Audio Copy\Flac\flac.exe
Additional command line options : -8 -V -T "ARTIST=%artist%" -T "TITLE=%title%" -T "ALBUM=%albumtitle%" -T "DATE=%year%" -T "TRACKNUMBER=%tracknr%" -T "GENRE=%genre%" -T "PERFORMER=%albuminterpret%" -T "COMPOSER=%composer%" %haslyrics%–tag-from-file=LYRICS="%lyricsfile%"%haslyrics% -T "ALBUMARTIST=%albumartist%" -T "DISCNUMBER=%cdnumber%" -T "TOTALDISCS=%totalcds%" -T "TOTALTRACKS=%numtracks%" -T "COMMENT=EAC V1.0 beta 3, Secure Mode, Test & Copy, FLAC -8%comment%" %source% -o %dest%


TOC of the extracted CD

Track | Start | Length | Start sector | End sector
––––––––––––––––––––––––––––-
1 | 0:00.00 | 6:02.38 | 0 | 27187
2 | 6:02.38 | 5:39.70 | 27188 | 52682
3 | 11:42.33 | 4:12.53 | 52683 | 71635
4 | 15:55.11 | 4:57.28 | 71636 | 93938
5 | 20:52.39 | 5:41.69 | 93939 | 119582
6 | 26:34.33 | 7:28.55 | 119583 | 153237
7 | 34:03.13 | 4:44.53 | 153238 | 174590
8 | 38:47.66 | 2:19.61 | 174591 | 185076
9 | 41:07.52 | 4:32.70 | 185077 | 205546


Track 1

Filename c:\Ultravox - Rage In Eden (CD1) (2008) [FLAC]\01 - The Voice.wav

Pre-gap length 0:00:02.00

Peak level 98.0 %
Extraction speed 4.4 X
Track quality 100.0 %
Test CRC BE689E9A
Copy CRC BE689E9A
Copy OK

Track 2

Filename c:\Ultravox - Rage In Eden (CD1) (2008) [FLAC]\02 - We Stand Alone.wav

Pre-gap length 0:00:01.09

Peak level 99.1 %
Extraction speed 4.4 X
Track quality 100.0 %
Test CRC 3ECDE791
Copy CRC 3ECDE791
Copy OK

Track 3

Filename c:\Ultravox - Rage In Eden (CD1) (2008) [FLAC]\03 - Rage In Eden.wav

Pre-gap length 0:00:00.66

Peak level 98.6 %
Extraction speed 4.3 X
Track quality 100.0 %
Test CRC 01D1A44E
Copy CRC 01D1A44E
Copy OK

Track 4

Filename c:\Ultravox - Rage In Eden (CD1) (2008) [FLAC]\04 - I Remember (Death In The Afternoon).wav

Peak level 98.8 %
Extraction speed 4.1 X
Track quality 100.0 %
Test CRC 75A1558F
Copy CRC 75A1558F
Copy OK

Track 5

Filename c:\Ultravox - Rage In Eden (CD1) (2008) [FLAC]\05 - The Thin Wall.wav

Pre-gap length 0:00:00.36

Peak level 98.9 %
Extraction speed 4.3 X
Track quality 100.0 %
Test CRC 49881BDC
Copy CRC 49881BDC
Copy OK

Track 6

Filename c:\Ultravox - Rage In Eden (CD1) (2008) [FLAC]\06 - Stranger Within.wav

Pre-gap length 0:00:00.82

Peak level 98.4 %
Extraction speed 4.2 X
Track quality 100.0 %
Test CRC 768DB36B
Copy CRC 768DB36B
Copy OK

Track 7

Filename c:\Ultravox - Rage In Eden (CD1) (2008) [FLAC]\07 - Accent On Youth.wav

Pre-gap length 0:00:02.02

Peak level 98.5 %
Extraction speed 4.3 X
Track quality 100.0 %
Test CRC B508A82B
Copy CRC B508A82B
Copy OK

Track 8

Filename c:\Ultravox - Rage In Eden (CD1) (2008) [FLAC]\08 - The Ascent.wav

Peak level 99.2 %
Extraction speed 4.0 X
Track quality 100.0 %
Test CRC DF480EC3
Copy CRC DF480EC3
Copy OK

Track 9

Filename c:\Ultravox - Rage In Eden (CD1) (2008) [FLAC]\09 - Your Name (Has Slipped My Mind Again).wav

Peak level 98.0 %
Extraction speed 4.2 X
Track quality 100.0 %
Test CRC 1BF145C2
Copy CRC 1BF145C2
Copy OK

No errors occurred

End of status report

==== Log checksum 11948C8296412D3F7DC61EF0E799C6EB4D1FF93A800F8DAD85EE4AEE98CC19B9 ====

Exact Audio Copy V1.0 beta 3 from 29. August 2011

EAC extraction logfile from 9. February 2012, 13:54

Ultravox / Rage In Eden (CD2)

Used drive : HL-DT-STDVDRAM GSA-H60N Adapter: 4 ID: 0

Read mode : Secure
Utilize accurate stream : Yes
Defeat audio cache : Yes
Make use of C2 pointers : No

Read offset correction : 667
Overread into Lead-In and Lead-Out : No
Fill up missing offset samples with silence : Yes
Delete leading and trailing silent blocks : No
Null samples used in CRC calculations : Yes
Used interface : Native Win32 interface for Win NT & 2000
Gap handling : Appended to previous track

Used output format : User Defined Encoder
Selected bitrate : 1024 kBit/s
Quality : High
Add ID3 tag : No
Command line compressor : C:\Program Files (x86)\Exact Audio Copy\Flac\flac.exe
Additional command line options : -8 -V -T "ARTIST=%artist%" -T "TITLE=%title%" -T "ALBUM=%albumtitle%" -T "DATE=%year%" -T "TRACKNUMBER=%tracknr%" -T "GENRE=%genre%" -T "PERFORMER=%albuminterpret%" -T "COMPOSER=%composer%" %haslyrics%–tag-from-file=LYRICS="%lyricsfile%"%haslyrics% -T "ALBUMARTIST=%albumartist%" -T "DISCNUMBER=%cdnumber%" -T "TOTALDISCS=%totalcds%" -T "TOTALTRACKS=%numtracks%" -T "COMMENT=EAC V1.0 beta 3, Secure Mode, Test & Copy, FLAC -8%comment%" %source% -o %dest%


TOC of the extracted CD

Track | Start | Length | Start sector | End sector
––––––––––––––––––––––––––––-
1 | 0:00.00 | 3:33.32 | 0 | 16006
2 | 3:33.32 | 4:22.61 | 16007 | 35717
3 | 7:56.18 | 6:19.20 | 35718 | 64162
4 | 14:15.38 | 4:51.28 | 64163 | 86015
5 | 19:06.66 | 4:22.11 | 86016 | 105676
6 | 23:29.02 | 5:47.32 | 105677 | 131733
7 | 29:16.34 | 8:02.29 | 131734 | 167912
8 | 37:18.63 | 4:26.65 | 167913 | 187927
9 | 41:45.53 | 4:45.40 | 187928 | 209342
10 | 46:31.18 | 2:27.54 | 209343 | 220421
11 | 48:58.72 | 4:45.08 | 220422 | 241804
12 | 53:44.05 | 7:11.57 | 241805 | 274186
13 | 60:55.62 | 5:16.57 | 274187 | 297943


Track 1

Filename c:\Ultravox - Rage In Eden (CD2) (2008) [FLAC]\01 - I Never Wanted To Begin.wav

Pre-gap length 0:00:02.00

Peak level 98.9 %
Extraction speed 4.0 X
Track quality 100.0 %
Test CRC 18865F28
Copy CRC 18865F28
Copy OK

Track 2

Filename c:\Ultravox - Rage In Eden (CD2) (2008) [FLAC]\02 - Paths And Angles.wav

Peak level 98.8 %
Extraction speed 4.4 X
Track quality 100.0 %
Test CRC AC84DD56
Copy CRC AC84DD56
Copy OK

Track 3

Filename c:\Ultravox - Rage In Eden (CD2) (2008) [FLAC]\03 - I Never Wanted To Begin (extended version).wav

Pre-gap length 0:00:00.37

Peak level 98.8 %
Extraction speed 4.4 X
Track quality 100.0 %
Test CRC D2727B9E
Copy CRC D2727B9E
Copy OK

Track 4

Filename c:\Ultravox - Rage In Eden (CD2) (2008) [FLAC]\04 - Private Lives (live).wav

Peak level 98.8 %
Extraction speed 4.3 X
Track quality 100.0 %
Test CRC D3306D15
Copy CRC D3306D15
Copy OK

Track 5

Filename c:\Ultravox - Rage In Eden (CD2) (2008) [FLAC]\05 - All Stood Still (live).wav

Peak level 99.0 %
Extraction speed 4.4 X
Track quality 100.0 %
Test CRC B4C474FF
Copy CRC B4C474FF
Copy OK

Track 6

Filename c:\Ultravox - Rage In Eden (CD2) (2008) [FLAC]\06 - I Remember (death in the afternoon) (live).wav

Pre-gap length 0:00:00.22

Peak level 98.9 %
Extraction speed 4.0 X
Track quality 100.0 %
Test CRC 4A5E14F6
Copy CRC 4A5E14F6
Copy OK

Track 7

Filename c:\Ultravox - Rage In Eden (CD2) (2008) [FLAC]\07 - Stranger Within (live).wav

Peak level 98.7 %
Extraction speed 4.0 X
Track quality 100.0 %
Test CRC 171E9855
Copy CRC 171E9855
Copy OK

Track 8

Filename c:\Ultravox - Rage In Eden (CD2) (2008) [FLAC]\08 - Rage In Eden (live).wav

Peak level 98.5 %
Extraction speed 4.3 X
Track quality 100.0 %
Test CRC 82FD4A0E
Copy CRC 82FD4A0E
Copy OK

Track 9

Filename c:\Ultravox - Rage In Eden (CD2) (2008) [FLAC]\09 - Accent On Youth (live).wav

Peak level 98.6 %
Extraction speed 4.3 X
Track quality 100.0 %
Test CRC A292FB1D
Copy CRC A292FB1D
Copy OK

Track 10

Filename c:\Ultravox - Rage In Eden (CD2) (2008) [FLAC]\10 - The Ascent (live).wav

Peak level 99.2 %
Extraction speed 4.4 X
Track quality 100.0 %
Test CRC F623BC44
Copy CRC F623BC44
Copy OK

Track 11

Filename c:\Ultravox - Rage In Eden (CD2) (2008) [FLAC]\11 - Your Name (has slipped my mind again) (live).wav

Peak level 98.5 %
Extraction speed 4.0 X
Track quality 100.0 %
Test CRC 6052FB52
Copy CRC 6052FB52
Copy OK

Track 12

Filename c:\Ultravox - Rage In Eden (CD2) (2008) [FLAC]\12 - Stranger Within (work in progress mix).wav

Pre-gap length 0:00:00.97

Peak level 98.3 %
Extraction speed 4.2 X
Track quality 100.0 %
Test CRC 2A3BE1B3
Copy CRC 2A3BE1B3
Copy OK

Track 13

Filename c:\Ultravox - Rage In Eden (CD2) (2008) [FLAC]\13 - The Thin Wall (work in progress mix).wav

Pre-gap length 0:00:00.82

Peak level 98.7 %
Extraction speed 4.4 X
Track quality 100.0 %
Test CRC 9F7B49B5
Copy CRC 9F7B49B5
Copy OK

No errors occurred

End of status report

==== Log checksum 0979F98F447FA3F653FC84F941A3B394E6BD6BB0A6F6770DE8FF3FA13ABB2B3F ====



Ultravox - 6 Chrysalis Album Collection (1981-86) [11CD+DVD] {2009, UK, Remastered Definitive Edition} [combined repost]

Ultravox - Quartet (1982) [2CD] {2009, UK, Remastered Definitive Edition}
EAC rip (secure mode) | FLAC (tracks)+CUE+LOG -> 759 Mb | MP3 @320 -> 265 Mb
Full Artwork (JPG) -> 8 Mb | 5% repair rar
© 2009 Chrysalis / EMI | 5099926870922, CDLX 1394

With the successes of Vienna and its follow-up, Rage in Eden, Ultravox's position in the music scene was unassailable, further fortified by frontman Midge Ure's foray into solo-dom with the summer 1982 hit cover of the Walker Brothers' "No Regrets." The band's "Reap the Wild Wind" followed it up the U.K. chart that fall, a taster for the band's sixth album. And what a portentous taste it was. While "Wind" buffeted and whooshed once again around nostalgia for a past never lived, "Hymn" (its melody lifted from "Mourning Star" by Ure's last band, the Zones) wrestled with faith in a faithless age and prayed its way up the chart later that fall, while the dirge "Visions in Blue" saw the spring caught in its icy grip. But it was the fourth song spun off the album, "We Came to Dance," that best defined the overall themes of the set. Having helped create a movement renowned for its fashion victims and superficiality, Ultravox recoiled from the Frankenstein they'd birthed. "The Song (We Go)" may have been a cry of welcome, but both "Dance" and "Serenade" make clear the music scene's terrifying capacity to unleash both Dionysian abandon and militaristic conformity. "When the Scream Subsides" further fuels the album's existential angst, which reaches its emotional nadir on the suicidal "Cut and Run." With their toe-tapping rhythms, billowing synths, and rousing melodies, one is often tempted to ignore the darkness of Ultravox's themes, but with Quartet, the band deliberately made that nigh on impossible.

Personnel: Midge Ure (voc), Billy Currie (synth), Chris Cross (bass) and Warren Cann (dr).

tracklist:
CD1

01. Reap the Wild Wind
02. Serenade
03. Mine For Life
04. Hymn
05. Visions in Blue
06. When the Scream Subsides
07. We Came to Dance
08. Cut and Run
09. The Song (We Go)

CD2
01. Reap the Wild Wind (Extended Version) A-side of the ‘Reap the Wild Wind’ 12 inch single.
02. Hosanna (in Excelsis Deo) B-side of the ‘Reap the Wild Wind’ 7 & 12 inch singles.
03. Monument B-side of the ‘Hymn’ 7 & 12 inch singles.
04. The Thin Wall (Recorded live at Hammersmith Odeon, Oct 1981) Extra track on the ‘Hymn’ 12 inch single.
05. Break Your Back B-side of the ‘Visions in Blue’ 7 & 12 inch singles.
06. Reap the Wild Wind (Recorded live at Hammersmith Odeon, Dec 1982) Extra track on the ‘Visions in Blue’ 12 inch single.
07. We Came to Dance (Extended Version) A-side of the ‘We Came to Dance’ 12 inch single.
08. Overlook B-side of the ‘We Came to Dance’ 7 & 12 inch singles.
09. The Voice (Flexi-Disc Edit) (Recorded live at Hammersmith Odeon, Dec 1982) From the Ultravox Information Service flexi-disc.
10. Serenade (Special Re-Mix) From the bonus record that came with initial copies of ‘The Collection’.
11. New Europeans (Recorded live at Hammersmith Odeon, 05 Dec 1982) Previously unreleased.
12. We Stand Alone (Recorded live at Hammersmith Odeon, 05 Dec 1982) Previously unreleased.
13. I Remember (Death in the Afternoon) (Recorded live at Hammersmith Odeon, 05 Dec 1982) Previously unreleased.

Ultravox - 6 Chrysalis Album Collection (1981-86) [11CD+DVD] {2009, UK, Remastered Definitive Edition} [combined repost]

Ultravox - 6 Chrysalis Album Collection (1981-86) [11CD+DVD] {2009, UK, Remastered Definitive Edition} [combined repost]

Exact Audio Copy V1.0 beta 3 from 29. August 2011

EAC extraction logfile from 9. February 2012, 14:31

Ultravox / Quartet (CD1)

Used drive : HL-DT-STDVDRAM GSA-H60N Adapter: 4 ID: 0

Read mode : Secure
Utilize accurate stream : Yes
Defeat audio cache : Yes
Make use of C2 pointers : No

Read offset correction : 667
Overread into Lead-In and Lead-Out : No
Fill up missing offset samples with silence : Yes
Delete leading and trailing silent blocks : No
Null samples used in CRC calculations : Yes
Used interface : Native Win32 interface for Win NT & 2000
Gap handling : Appended to previous track

Used output format : User Defined Encoder
Selected bitrate : 1024 kBit/s
Quality : High
Add ID3 tag : No
Command line compressor : C:\Program Files (x86)\Exact Audio Copy\Flac\flac.exe
Additional command line options : -8 -V -T "ARTIST=%artist%" -T "TITLE=%title%" -T "ALBUM=%albumtitle%" -T "DATE=%year%" -T "TRACKNUMBER=%tracknr%" -T "GENRE=%genre%" -T "PERFORMER=%albuminterpret%" -T "COMPOSER=%composer%" %haslyrics%–tag-from-file=LYRICS="%lyricsfile%"%haslyrics% -T "ALBUMARTIST=%albumartist%" -T "DISCNUMBER=%cdnumber%" -T "TOTALDISCS=%totalcds%" -T "TOTALTRACKS=%numtracks%" -T "COMMENT=EAC V1.0 beta 3, Secure Mode, Test & Copy, FLAC -8%comment%" %source% -o %dest%


TOC of the extracted CD

Track | Start | Length | Start sector | End sector
––––––––––––––––––––––––––––-
1 | 0:00.00 | 3:49.26 | 0 | 17200
2 | 3:49.26 | 5:05.74 | 17201 | 40149
3 | 8:55.25 | 4:46.62 | 40150 | 61661
4 | 13:42.12 | 5:49.02 | 61662 | 87838
5 | 19:31.14 | 4:40.10 | 87839 | 108848
6 | 24:11.24 | 4:16.56 | 108849 | 128104
7 | 28:28.05 | 4:13.64 | 128105 | 147143
8 | 32:41.69 | 4:17.44 | 147144 | 166462
9 | 36:59.38 | 3:59.57 | 166463 | 184444


Track 1

Filename c:\Ultravox - Quartet (CD1) (2009) [FLAC]\01 - Reap The Wild Wind.wav

Pre-gap length 0:00:02.00

Peak level 98.5 %
Extraction speed 4.2 X
Track quality 100.0 %
Test CRC D504851F
Copy CRC D504851F
Copy OK

Track 2

Filename c:\Ultravox - Quartet (CD1) (2009) [FLAC]\02 - Serenade.wav

Pre-gap length 0:00:00.28

Peak level 98.8 %
Extraction speed 4.4 X
Track quality 100.0 %
Test CRC 05C5A917
Copy CRC 05C5A917
Copy OK

Track 3

Filename c:\Ultravox - Quartet (CD1) (2009) [FLAC]\03 - Mine For Life.wav

Pre-gap length 0:00:00.36

Peak level 99.0 %
Extraction speed 4.4 X
Track quality 100.0 %
Test CRC BFA61B70
Copy CRC BFA61B70
Copy OK

Track 4

Filename c:\Ultravox - Quartet (CD1) (2009) [FLAC]\04 - Hymn.wav

Pre-gap length 0:00:01.49

Peak level 98.6 %
Extraction speed 4.0 X
Track quality 100.0 %
Test CRC 5C1E73A9
Copy CRC 5C1E73A9
Copy OK

Track 5

Filename c:\Ultravox - Quartet (CD1) (2009) [FLAC]\05 - Visions In Blue.wav

Pre-gap length 0:00:02.12

Peak level 98.8 %
Extraction speed 4.2 X
Track quality 100.0 %
Test CRC 5B053FA3
Copy CRC 5B053FA3
Copy OK

Track 6

Filename c:\Ultravox - Quartet (CD1) (2009) [FLAC]\06 - When The Scream Subsides.wav

Pre-gap length 0:00:00.68

Peak level 98.9 %
Extraction speed 4.4 X
Track quality 100.0 %
Test CRC 033AE984
Copy CRC 033AE984
Copy OK

Track 7

Filename c:\Ultravox - Quartet (CD1) (2009) [FLAC]\07 - We Came To Dance.wav

Pre-gap length 0:00:00.21

Peak level 98.7 %
Extraction speed 4.1 X
Track quality 100.0 %
Test CRC FE959241
Copy CRC FE959241
Copy OK

Track 8

Filename c:\Ultravox - Quartet (CD1) (2009) [FLAC]\08 - Cut And Run.wav

Peak level 99.0 %
Extraction speed 4.0 X
Track quality 100.0 %
Test CRC D89C6722
Copy CRC D89C6722
Copy OK

Track 9

Filename c:\Ultravox - Quartet (CD1) (2009) [FLAC]\09 - The Song (We Go).wav

Peak level 98.6 %
Extraction speed 4.2 X
Track quality 100.0 %
Test CRC 02B60F93
Copy CRC 02B60F93
Copy OK

No errors occurred

End of status report

==== Log checksum 4E89A66FBEEA776A8E2ADA7B925ABE51EBA5257AB4A9822C99EC95523A8EB21B ====

Exact Audio Copy V1.0 beta 3 from 29. August 2011

EAC extraction logfile from 9. February 2012, 15:09

Ultravox / Quartet (CD2)

Used drive : HL-DT-STDVDRAM GSA-H60N Adapter: 4 ID: 0

Read mode : Secure
Utilize accurate stream : Yes
Defeat audio cache : Yes
Make use of C2 pointers : No

Read offset correction : 667
Overread into Lead-In and Lead-Out : No
Fill up missing offset samples with silence : Yes
Delete leading and trailing silent blocks : No
Null samples used in CRC calculations : Yes
Used interface : Native Win32 interface for Win NT & 2000
Gap handling : Appended to previous track

Used output format : User Defined Encoder
Selected bitrate : 1024 kBit/s
Quality : High
Add ID3 tag : No
Command line compressor : C:\Program Files (x86)\Exact Audio Copy\Flac\flac.exe
Additional command line options : -8 -V -T "ARTIST=%artist%" -T "TITLE=%title%" -T "ALBUM=%albumtitle%" -T "DATE=%year%" -T "TRACKNUMBER=%tracknr%" -T "GENRE=%genre%" -T "PERFORMER=%albuminterpret%" -T "COMPOSER=%composer%" %haslyrics%–tag-from-file=LYRICS="%lyricsfile%"%haslyrics% -T "ALBUMARTIST=%albumartist%" -T "DISCNUMBER=%cdnumber%" -T "TOTALDISCS=%totalcds%" -T "TOTALTRACKS=%numtracks%" -T "COMMENT=EAC V1.0 beta 3, Secure Mode, Test & Copy, FLAC -8%comment%" %source% -o %dest%


TOC of the extracted CD

Track | Start | Length | Start sector | End sector
––––––––––––––––––––––––––––-
1 | 0:00.00 | 4:45.44 | 0 | 21418
2 | 4:45.44 | 4:21.46 | 21419 | 41039
3 | 9:07.15 | 3:14.04 | 41040 | 55593
4 | 12:21.19 | 5:54.27 | 55594 | 82170
5 | 18:15.46 | 3:25.61 | 82171 | 97606
6 | 21:41.32 | 4:04.26 | 97607 | 115932
7 | 25:45.58 | 7:35.26 | 115933 | 150083
8 | 33:21.09 | 4:03.55 | 150084 | 168363
9 | 37:24.64 | 4:36.41 | 168364 | 189104
10 | 42:01.30 | 6:03.61 | 189105 | 216390
11 | 48:05.16 | 4:18.04 | 216391 | 235744
12 | 52:23.20 | 5:35.38 | 235745 | 260907
13 | 57:58.58 | 6:25.19 | 260908 | 289801


Track 1

Filename c:\Ultravox - Quartet (CD2) (2009) [FLAC]\01 - Reap The Wild Wind [Extended Version].wav

Pre-gap length 0:00:02.00

Peak level 98.5 %
Extraction speed 4.1 X
Track quality 100.0 %
Test CRC 9DBB2A90
Copy CRC 9DBB2A90
Copy OK

Track 2

Filename c:\Ultravox - Quartet (CD2) (2009) [FLAC]\02 - Hosanna (In Excelsis Deo).wav

Peak level 98.2 %
Extraction speed 4.0 X
Track quality 100.0 %
Test CRC F3237623
Copy CRC F3237623
Copy OK

Track 3

Filename c:\Ultravox - Quartet (CD2) (2009) [FLAC]\03 - Monument.wav

Pre-gap length 0:00:00.33

Peak level 98.0 %
Extraction speed 4.2 X
Track quality 100.0 %
Test CRC 1AA96091
Copy CRC 1AA96091
Copy OK

Track 4

Filename c:\Ultravox - Quartet (CD2) (2009) [FLAC]\04 - The Thin Wall [Live].wav

Peak level 99.2 %
Extraction speed 4.3 X
Track quality 100.0 %
Test CRC 09EB60EC
Copy CRC 09EB60EC
Copy OK

Track 5

Filename c:\Ultravox - Quartet (CD2) (2009) [FLAC]\05 - Break Your Back.wav

Peak level 99.1 %
Extraction speed 4.1 X
Track quality 100.0 %
Test CRC 37CCFD91
Copy CRC 37CCFD91
Copy OK

Track 6

Filename c:\Ultravox - Quartet (CD2) (2009) [FLAC]\06 - Reap The Wild Wind [Live].wav

Pre-gap length 0:00:00.20

Peak level 98.9 %
Extraction speed 4.0 X
Track quality 100.0 %
Test CRC F885FA77
Copy CRC F885FA77
Copy OK

Track 7

Filename c:\Ultravox - Quartet (CD2) (2009) [FLAC]\07 - We Came To Dance [Extended Version].wav

Pre-gap length 0:00:00.58

Peak level 98.6 %
Extraction speed 4.3 X
Track quality 100.0 %
Test CRC 21F82ACC
Copy CRC 21F82ACC
Copy OK

Track 8

Filename c:\Ultravox - Quartet (CD2) (2009) [FLAC]\08 - Overlook.wav

Peak level 99.2 %
Extraction speed 4.1 X
Track quality 100.0 %
Test CRC A3DA6E54
Copy CRC A3DA6E54
Copy OK

Track 9

Filename c:\Ultravox - Quartet (CD2) (2009) [FLAC]\09 - The Voice [Live][Flexi-Disc Edit].wav

Peak level 98.3 %
Extraction speed 4.1 X
Track quality 100.0 %
Test CRC DF81A685
Copy CRC DF81A685
Copy OK

Track 10

Filename c:\Ultravox - Quartet (CD2) (2009) [FLAC]\10 - Serenade [Special Re-mix].wav

Pre-gap length 0:00:01.22

Peak level 99.1 %
Extraction speed 4.4 X
Track quality 100.0 %
Test CRC 59BC23AE
Copy CRC 59BC23AE
Copy OK

Track 11

Filename c:\Ultravox - Quartet (CD2) (2009) [FLAC]\11 - New Europeans [Live].wav

Peak level 98.1 %
Extraction speed 4.4 X
Track quality 100.0 %
Test CRC CCEDD5F2
Copy CRC CCEDD5F2
Copy OK

Track 12

Filename c:\Ultravox - Quartet (CD2) (2009) [FLAC]\12 - We Stand Alone [Live].wav

Peak level 98.1 %
Extraction speed 4.4 X
Track quality 100.0 %
Test CRC 525122CF
Copy CRC 525122CF
Copy OK

Track 13

Filename c:\Ultravox - Quartet (CD2) (2009) [FLAC]\13 - I Remember (Death In The Afternoon) [Live].wav

Peak level 98.0 %
Extraction speed 4.3 X
Track quality 100.0 %
Test CRC 963C17E3
Copy CRC 963C17E3
Copy OK

No errors occurred

End of status report

==== Log checksum 201CDABDE975025216D3EA393ACFC6EB0AFAE133B8CD9443AFC59190F8ACE4CA ====



Ultravox - 6 Chrysalis Album Collection (1981-86) [11CD+DVD] {2009, UK, Remastered Definitive Edition} [combined repost]

Ultravox - Monument (1983) [CD+DVD] {2009, UK, Remastered Definitive Edition}
EAC rip (secure mode) | FLAC (tracks)+CUE+LOG -> 338 Mb | MP3 @320 -> 114 Mb
DVD -> 2.37 Gb | All Regions | NTSC 4:3 | English (LinearPCM, 2 ch) | ~ 35 m | ISO Image
Full Artwork (JPG) -> 6 Mb | 5% repair rar
© 2009 Chrysalis / EMI | 5099926870625, CUXX 1452

Originally released in 1983 as an EP, this is the soundtrack to the live video of Ultravox, from their 1983 tour (hence the subtitle, "The Soundtrack"). This is Ultravox at their live best, and thankfully the reissued CD is expanded, containing all of the songs from the video (but still not the entire concert). "Reap the Wild Wind" is brilliant live and comes screaming at the listener with an extreme amount of energy and emotion. The same can be said for "The Voice." Midge Ure gives his all throughout, but here he is the voice. "Vienna" sounds wonderful and is certainly a crowd-pleaser. Fans will enjoy this live collection.

Personnel: Midge Ure (voc), Billy Currie (synth), Chris Cross (bass) and Warren Cann (dr).

tracklist:
CD

01. Monument
02. Reap the Wild Wind
03. Visions in Blue
04. The Voice
05. Vienna
06. Passing Strangers
07. Mine For Life
08. Hymn
09. The Song (We Go) Previously unreleased.

DVD
01. Introduction
02. Reap The Wild Wind
03. The Voice
04. Vienna
05. Mine For Life
06. Hymn
07. End Credits

Ultravox - 6 Chrysalis Album Collection (1981-86) [11CD+DVD] {2009, UK, Remastered Definitive Edition} [combined repost]

Ultravox - 6 Chrysalis Album Collection (1981-86) [11CD+DVD] {2009, UK, Remastered Definitive Edition} [combined repost]

Ultravox - 6 Chrysalis Album Collection (1981-86) [11CD+DVD] {2009, UK, Remastered Definitive Edition} [combined repost]

Ultravox - 6 Chrysalis Album Collection (1981-86) [11CD+DVD] {2009, UK, Remastered Definitive Edition} [combined repost]

Ultravox - 6 Chrysalis Album Collection (1981-86) [11CD+DVD] {2009, UK, Remastered Definitive Edition} [combined repost]

Ultravox - 6 Chrysalis Album Collection (1981-86) [11CD+DVD] {2009, UK, Remastered Definitive Edition} [combined repost]

Ultravox - 6 Chrysalis Album Collection (1981-86) [11CD+DVD] {2009, UK, Remastered Definitive Edition} [combined repost]

Ultravox - 6 Chrysalis Album Collection (1981-86) [11CD+DVD] {2009, UK, Remastered Definitive Edition} [combined repost]

Ultravox - 6 Chrysalis Album Collection (1981-86) [11CD+DVD] {2009, UK, Remastered Definitive Edition} [combined repost]

Exact Audio Copy V1.0 beta 3 from 29. August 2011

EAC extraction logfile from 9. February 2012, 10:58

Ultravox / Monument (CD1)

Used drive : HL-DT-STDVDRAM GSA-H60N Adapter: 4 ID: 0

Read mode : Secure
Utilize accurate stream : Yes
Defeat audio cache : Yes
Make use of C2 pointers : No

Read offset correction : 667
Overread into Lead-In and Lead-Out : No
Fill up missing offset samples with silence : Yes
Delete leading and trailing silent blocks : No
Null samples used in CRC calculations : Yes
Used interface : Native Win32 interface for Win NT & 2000
Gap handling : Appended to previous track

Used output format : User Defined Encoder
Selected bitrate : 1024 kBit/s
Quality : High
Add ID3 tag : No
Command line compressor : C:\Program Files (x86)\Exact Audio Copy\Flac\flac.exe
Additional command line options : -8 -V -T "ARTIST=%artist%" -T "TITLE=%title%" -T "ALBUM=%albumtitle%" -T "DATE=%year%" -T "TRACKNUMBER=%tracknr%" -T "GENRE=%genre%" -T "PERFORMER=%albuminterpret%" -T "COMPOSER=%composer%" %haslyrics%–tag-from-file=LYRICS="%lyricsfile%"%haslyrics% -T "ALBUMARTIST=%albumartist%" -T "DISCNUMBER=%cdnumber%" -T "TOTALDISCS=%totalcds%" -T "TOTALTRACKS=%numtracks%" -T "COMMENT=EAC V1.0 beta 3, Secure Mode, Test & Copy, FLAC -8%comment%" %source% -o %dest%


TOC of the extracted CD

Track | Start | Length | Start sector | End sector
––––––––––––––––––––––––––––-
1 | 0:00.00 | 3:15.42 | 0 | 14666
2 | 3:15.42 | 4:10.33 | 14667 | 33449
3 | 7:26.00 | 4:41.29 | 33450 | 54553
4 | 12:07.29 | 6:50.46 | 54554 | 85349
5 | 18:58.00 | 5:23.43 | 85350 | 109617
6 | 24:21.43 | 5:12.29 | 109618 | 133046
7 | 29:33.72 | 4:38.27 | 133047 | 153923
8 | 34:12.24 | 5:46.37 | 153924 | 179910
9 | 39:58.61 | 5:12.61 | 179911 | 203371


Track 1

Filename c:\Ultravox - Monument (CD1) (2009) [FLAC]\01 - Monument.wav

Pre-gap length 0:00:02.00

Peak level 98.1 %
Extraction speed 4.1 X
Track quality 100.0 %
Test CRC 676BDA0E
Copy CRC 676BDA0E
Copy OK

Track 2

Filename c:\Ultravox - Monument (CD1) (2009) [FLAC]\02 - Reap The Wild Wind.wav

Pre-gap length 0:00:00.25

Peak level 98.0 %
Extraction speed 4.3 X
Track quality 100.0 %
Test CRC F149B886
Copy CRC F149B886
Copy OK

Track 3

Filename c:\Ultravox - Monument (CD1) (2009) [FLAC]\03 - Visions In Blue.wav

Peak level 98.2 %
Extraction speed 4.0 X
Track quality 100.0 %
Test CRC 506A7BC2
Copy CRC 506A7BC2
Copy OK

Track 4

Filename c:\Ultravox - Monument (CD1) (2009) [FLAC]\04 - The Voice.wav

Peak level 98.9 %
Extraction speed 4.2 X
Track quality 100.0 %
Test CRC 869C9400
Copy CRC 869C9400
Copy OK

Track 5

Filename c:\Ultravox - Monument (CD1) (2009) [FLAC]\05 - Vienna.wav

Peak level 99.1 %
Extraction speed 4.2 X
Track quality 100.0 %
Test CRC 0D896400
Copy CRC 0D896400
Copy OK

Track 6

Filename c:\Ultravox - Monument (CD1) (2009) [FLAC]\06 - Passing Strangers.wav

Peak level 98.1 %
Extraction speed 4.2 X
Track quality 100.0 %
Test CRC 50A80207
Copy CRC 50A80207
Copy OK

Track 7

Filename c:\Ultravox - Monument (CD1) (2009) [FLAC]\07 - Mine For Life.wav

Peak level 98.7 %
Extraction speed 4.3 X
Track quality 100.0 %
Test CRC 765B9C48
Copy CRC 765B9C48
Copy OK

Track 8

Filename c:\Ultravox - Monument (CD1) (2009) [FLAC]\08 - Hymn.wav

Peak level 98.8 %
Extraction speed 4.1 X
Track quality 100.0 %
Test CRC 397DCFBA
Copy CRC 397DCFBA
Copy OK

Track 9

Filename c:\Ultravox - Monument (CD1) (2009) [FLAC]\09 - The Song (We Go).wav

Peak level 98.9 %
Extraction speed 4.2 X
Track quality 100.0 %
Test CRC B548B29B
Copy CRC B548B29B
Copy OK

No errors occurred

End of status report

==== Log checksum 55B7A7EFE1F28D5DB612288BB419F40E8689FE2569BE04782FB998B910B70E7D ====



Ultravox - 6 Chrysalis Album Collection (1981-86) [11CD+DVD] {2009, UK, Remastered Definitive Edition} [combined repost]

Ultravox - Lament (1984) [2CD] {2009, UK, Remastered Definitive Edition}
EAC rip (secure mode) | FLAC (tracks)+CUE+LOG -> 768 Mb | MP3 @320 -> 276 Mb
Full Artwork (JPG) -> 9 Mb | 5% repair rar
© 2009 Chrysalis / EMI | 509996802229, CDLX 1459

As the title suggests, Ultravox were in a gray mood as they launched into their seventh studio LP, their previous existential angst now pooling around personal anguish. The album's title track was a study in languorous melancholy, where the emotional pain lingered on and on. And why would it ever dissipate, when romance is forever doomed, as "When the Time Comes" exquisitely illustrated? Even "One Small Day," the most musically celebratory song on the set, battles depression but dismally loses the war. No wonder Ultravox were so keen to escape far into the past, with "Man of Two Worlds" taking them back to the gloriously romanticized days of the Celts. The modern world, in contrast, was filled with terrors, both emotional ("A Friend I Call Desire") and global. There was the omnipresent yellow peril to fear; but if "White China" warned of the dangers of creeping communism, the nation sworn to protect its citizens from a Stalinistic embrace proves just as nefarious on "Heart of the Country." Each side is as bad as the other, together threatening the globe with annihilation, with the mini-epic "Dancing with Tears in My Eyes" poignantly pointing out the richness of life the world's leaders hold so carelessly in their hands. This was to be Ultravox's final album, at least in this form, and in many ways, the set was the band's perfect epitaph, as lavish musically as it was desolate thematically.

Personnel: Midge Ure (voc), Billy Currie (synth), Chris Cross (bass) and Warren Cann (dr).

tracklist:
CD1

01. White China
02. One Small Day
03. Dancing With Tears in My Eyes
04. Lament
05. Man of Two Worlds
06. Heart of the Country
07. When the Time Comes
08. A Friend I Call Desire

CD2
01. One Small Day (Special Re-Mix) A-side of the ‘One Small Day’ 12 inch single.
02. Easterly B-side of the ‘One Small Day’ 7 & 12 inch singles.
03. Lament (Extended Mix) A-side of the ‘Lament’ 12 inch single.
04. One Small Day (Special Re-Mix Extra) A-side of the ‘One Small Day’ limited edition 12 inch single.
05. Dancing With Tears in My Eyes (Special Re-Mix) A-side of the ‘Dancing With Tears in My Eyes’ 12 inch single.
06. Building B-side of the ‘Dancing With Tears in My Eyes’ 7 & 12 inch singles.
07. White China (Special Mix) From the original compact disc version of ‘Lament’.
08. Heart of the Country (Instrumental) B-side of the ‘Lament’ 7 & 12 inch singles.
09. One Small Day (Final Mix) From the bonus record that came with initial copies of ‘The Collection’.
10. A Friend I Call Desire (Work in progress mix) Previously unreleased.
11. Lament (Work in progress mix) Previously unreleased.

Ultravox - 6 Chrysalis Album Collection (1981-86) [11CD+DVD] {2009, UK, Remastered Definitive Edition} [combined repost]

Ultravox - 6 Chrysalis Album Collection (1981-86) [11CD+DVD] {2009, UK, Remastered Definitive Edition} [combined repost]

Exact Audio Copy V1.0 beta 3 from 29. August 2011

EAC extraction logfile from 9. February 2012, 17:05

Ultravox / Lament (CD1)

Used drive : HL-DT-STDVDRAM GSA-H60N Adapter: 4 ID: 0

Read mode : Secure
Utilize accurate stream : Yes
Defeat audio cache : Yes
Make use of C2 pointers : No

Read offset correction : 667
Overread into Lead-In and Lead-Out : No
Fill up missing offset samples with silence : Yes
Delete leading and trailing silent blocks : No
Null samples used in CRC calculations : Yes
Used interface : Native Win32 interface for Win NT & 2000
Gap handling : Appended to previous track

Used output format : User Defined Encoder
Selected bitrate : 1024 kBit/s
Quality : High
Add ID3 tag : No
Command line compressor : C:\Program Files (x86)\Exact Audio Copy\Flac\flac.exe
Additional command line options : -8 -V -T "ARTIST=%artist%" -T "TITLE=%title%" -T "ALBUM=%albumtitle%" -T "DATE=%year%" -T "TRACKNUMBER=%tracknr%" -T "GENRE=%genre%" -T "PERFORMER=%albuminterpret%" -T "COMPOSER=%composer%" %haslyrics%–tag-from-file=LYRICS="%lyricsfile%"%haslyrics% -T "ALBUMARTIST=%albumartist%" -T "DISCNUMBER=%cdnumber%" -T "TOTALDISCS=%totalcds%" -T "TOTALTRACKS=%numtracks%" -T "COMMENT=EAC V1.0 beta 3, Secure Mode, Test & Copy, FLAC -8%comment%" %source% -o %dest%


TOC of the extracted CD

Track | Start | Length | Start sector | End sector
––––––––––––––––––––––––––––-
1 | 0:00.00 | 3:53.26 | 0 | 17500
2 | 3:53.26 | 4:33.35 | 17501 | 38010
3 | 8:26.61 | 4:40.68 | 38011 | 59078
4 | 13:07.54 | 4:41.11 | 59079 | 80164
5 | 17:48.65 | 4:28.47 | 80165 | 100311
6 | 22:17.37 | 5:06.64 | 100312 | 123325
7 | 27:24.26 | 4:57.06 | 123326 | 145606
8 | 32:21.32 | 5:11.62 | 145607 | 168993


Track 1

Filename c:\Ultravox - Lament (CD1) (1984) [FLAC]\01 - White China.wav

Pre-gap length 0:00:02.00

Peak level 98.7 %
Extraction speed 4.1 X
Track quality 100.0 %
Test CRC 14552182
Copy CRC 14552182
Copy OK

Track 2

Filename c:\Ultravox - Lament (CD1) (1984) [FLAC]\02 - One Small Day.wav

Pre-gap length 0:00:01.25

Peak level 98.8 %
Extraction speed 4.4 X
Track quality 100.0 %
Test CRC F6533EA0
Copy CRC F6533EA0
Copy OK

Track 3

Filename c:\Ultravox - Lament (CD1) (1984) [FLAC]\03 - Dancing With Tears in My Eyes.wav

Pre-gap length 0:00:00.34

Peak level 98.6 %
Extraction speed 4.0 X
Track quality 100.0 %
Test CRC A277EDDA
Copy CRC A277EDDA
Copy OK

Track 4

Filename c:\Ultravox - Lament (CD1) (1984) [FLAC]\04 - Lament.wav

Pre-gap length 0:00:00.74

Peak level 98.6 %
Extraction speed 4.0 X
Track quality 100.0 %
Test CRC F3F4D194
Copy CRC F3F4D194
Copy OK

Track 5

Filename c:\Ultravox - Lament (CD1) (1984) [FLAC]\05 - Man of Two Worlds.wav

Pre-gap length 0:00:00.45

Peak level 98.6 %
Extraction speed 4.1 X
Track quality 100.0 %
Test CRC 368C63B3
Copy CRC 368C63B3
Copy OK

Track 6

Filename c:\Ultravox - Lament (CD1) (1984) [FLAC]\06 - Heart of the Country.wav

Peak level 98.6 %
Extraction speed 4.3 X
Track quality 100.0 %
Test CRC 1CBEB800
Copy CRC 1CBEB800
Copy OK

Track 7

Filename c:\Ultravox - Lament (CD1) (1984) [FLAC]\07 - When the Time Comes.wav

Pre-gap length 0:00:00.68

Peak level 98.7 %
Extraction speed 4.4 X
Track quality 100.0 %
Test CRC 5D7571B2
Copy CRC 5D7571B2
Copy OK

Track 8

Filename c:\Ultravox - Lament (CD1) (1984) [FLAC]\08 - A Friend I Call Desire.wav

Peak level 98.6 %
Extraction speed 4.2 X
Track quality 100.0 %
Test CRC 66E1D3EB
Copy CRC 66E1D3EB
Copy OK

No errors occurred

End of status report

==== Log checksum BF1EE9DB431886D588F77F131CDAA241CD98AA11F7CBF880F46A999036CD78A4 ====

Exact Audio Copy V1.0 beta 3 from 29. August 2011

EAC extraction logfile from 9. February 2012, 19:30

Ultravox / Lament (CD2)

Used drive : HL-DT-STDVDRAM GSA-H60N Adapter: 4 ID: 0

Read mode : Secure
Utilize accurate stream : Yes
Defeat audio cache : Yes
Make use of C2 pointers : No

Read offset correction : 667
Overread into Lead-In and Lead-Out : No
Fill up missing offset samples with silence : Yes
Delete leading and trailing silent blocks : No
Null samples used in CRC calculations : Yes
Used interface : Native Win32 interface for Win NT & 2000
Gap handling : Appended to previous track

Used output format : User Defined Encoder
Selected bitrate : 1024 kBit/s
Quality : High
Add ID3 tag : No
Command line compressor : C:\Program Files (x86)\Exact Audio Copy\Flac\flac.exe
Additional command line options : -8 -V -T "ARTIST=%artist%" -T "TITLE=%title%" -T "ALBUM=%albumtitle%" -T "DATE=%year%" -T "TRACKNUMBER=%tracknr%" -T "GENRE=%genre%" -T "PERFORMER=%albuminterpret%" -T "COMPOSER=%composer%" %haslyrics%–tag-from-file=LYRICS="%lyricsfile%"%haslyrics% -T "ALBUMARTIST=%albumartist%" -T "DISCNUMBER=%cdnumber%" -T "TOTALDISCS=%totalcds%" -T "TOTALTRACKS=%numtracks%" -T "COMMENT=EAC V1.0 beta 3, Secure Mode, Test & Copy, FLAC -8%comment%" %source% -o %dest%


TOC of the extracted CD

Track | Start | Length | Start sector | End sector
––––––––––––––––––––––––––––-
1 | 0:00.00 | 7:51.25 | 0 | 35349
2 | 7:51.25 | 3:48.12 | 35350 | 52461
3 | 11:39.37 | 8:02.12 | 52462 | 88623
4 | 19:41.49 | 8:31.70 | 88624 | 127018
5 | 28:13.44 | 10:02.59 | 127019 | 172227
6 | 38:16.28 | 3:11.57 | 172228 | 186609
7 | 41:28.10 | 8:23.48 | 186610 | 224382
8 | 49:51.58 | 4:24.67 | 224383 | 244249
9 | 54:16.50 | 7:45.10 | 244250 | 279134
10 | 62:01.60 | 5:39.59 | 279135 | 304618
11 | 67:41.44 | 4:53.74 | 304619 | 326667


Track 1

Filename c:\Ultravox - Lament (CD2) (1984) [FLAC]\01 - One Small Day (Special Remix).wav

Pre-gap length 0:00:02.00

Peak level 98.8 %
Extraction speed 4.1 X
Track quality 100.0 %
Test CRC D0D4C96D
Copy CRC D0D4C96D
Copy OK

Track 2

Filename c:\Ultravox - Lament (CD2) (1984) [FLAC]\02 - Easterly.wav

Pre-gap length 0:00:00.77

Peak level 98.6 %
Extraction speed 4.0 X
Track quality 100.0 %
Test CRC D15C3F53
Copy CRC D15C3F53
Copy OK

Track 3

Filename c:\Ultravox - Lament (CD2) (1984) [FLAC]\03 - Lament (Extended Mix).wav

Pre-gap length 0:00:00.66

Peak level 98.6 %
Extraction speed 4.1 X
Track quality 100.0 %
Test CRC 8F2EFC24
Copy CRC 8F2EFC24
Copy OK

Track 4

Filename c:\Ultravox - Lament (CD2) (1984) [FLAC]\04 - One Small Day (Special Remix Extra).wav

Pre-gap length 0:00:00.77

Peak level 98.6 %
Extraction speed 4.1 X
Track quality 100.0 %
Test CRC 3F18F2CD
Copy CRC 3F18F2CD
Copy OK

Track 5

Filename c:\Ultravox - Lament (CD2) (1984) [FLAC]\05 - Dancing With Tears In My Eyes (Special Remix).wav

Pre-gap length 0:00:01.12

Peak level 98.6 %
Extraction speed 4.2 X
Track quality 100.0 %
Test CRC 70A67D23
Copy CRC 70A67D23
Copy OK

Track 6

Filename c:\Ultravox - Lament (CD2) (1984) [FLAC]\06 - Building.wav

Pre-gap length 0:00:02.28

Peak level 95.2 %
Extraction speed 4.0 X
Track quality 100.0 %
Test CRC CD55BD09
Copy CRC CD55BD09
Copy OK

Track 7

Filename c:\Ultravox - Lament (CD2) (1984) [FLAC]\07 - White China (Special Mix).wav

Pre-gap length 0:00:01.04

Peak level 98.8 %
Extraction speed 4.1 X
Track quality 100.0 %
Test CRC 7AEB65F4
Copy CRC 7AEB65F4
Copy OK

Track 8

Filename c:\Ultravox - Lament (CD2) (1984) [FLAC]\08 - Heart Of The Country (Instrumental).wav

Pre-gap length 0:00:00.60

Peak level 98.7 %
Extraction speed 4.0 X
Track quality 100.0 %
Test CRC F3CFAB85
Copy CRC F3CFAB85
Copy OK

Track 9

Filename c:\Ultravox - Lament (CD2) (1984) [FLAC]\09 - One Small Day (Final Mix).wav

Peak level 98.6 %
Extraction speed 4.2 X
Track quality 100.0 %
Test CRC CA7240AB
Copy CRC CA7240AB
Copy OK

Track 10

Filename c:\Ultravox - Lament (CD2) (1984) [FLAC]\10 - A Friend I Call Desire (WIP Mix).wav

Pre-gap length 0:00:00.82

Peak level 98.7 %
Extraction speed 4.4 X
Track quality 100.0 %
Test CRC 0034FDB7
Copy CRC 0034FDB7
Copy OK

Track 11

Filename c:\Ultravox - Lament (CD2) (1984) [FLAC]\11 - Lament (WIP Mix).wav

Pre-gap length 0:00:00.80

Peak level 98.5 %
Extraction speed 4.4 X
Track quality 100.0 %
Test CRC C4DF9449
Copy CRC C4DF9449
Copy OK

No errors occurred

End of status report

==== Log checksum 5E30D9F342F7256DBEADAADFABE1419830E1B2B817970A42C825A20D85743263 ====



Ultravox - 6 Chrysalis Album Collection (1981-86) [11CD+DVD] {2009, UK, Remastered Definitive Edition} [combined repost]

Ultravox - U-VOX (1986) [2CD] {2009, UK, Remastered Definitive Edition}
EAC rip (secure mode) | FLAC (tracks)+CUE+LOG -> 825 Mb | MP3 @320 -> 293 Mb
Full Artwork (JPG) -> 21 Mb | 5% repair rar
© 2009 Chrysalis / EMI | 5099996802526, CDLX 1545

Digitally remastered and expanded two CD edition of the British band's 1986 album including a bonus disc featuring alternate, extended and live tracks. U-Vox was their eighth full album and the fifth of the band's most-recognizable incarnation, fronted by Midge Ure. It was also the last Ultravox album to reach the Top 10 in the UK Album Chart. Following the departure of original drummer Warren Cann, U Vox featured his replacement: Mark Brzezicki from Big Country. The sound moved away from the Electronic sound of earlier recordings and some unusual instrumentation was used, such as the Celtic sound of "All Fall Down" with instrumentation by The Chieftains. The album's final track, "All in One Day", was arranged and conducted by George Martin. U-Vox was the last Ultravox album with Midge Ure before the band split in 1988. Featuring new drummer Mark Brzezicki (formerly of Big Country), the prosaically titled U-Vox offered more of the same from these by-now-redundant synth stylists. The one exception was the single "All Fall Down," a slightly more imaginative variant on the formula. (The other two singles drawn from the album, "Same Old Story" and "All in One Day," were shallow echoes of the band's earlier releases.) "All Fall Down" was to prove their final chart entry.

tracklist:
CD1 (U-VOX)

01. Same Old Story
02. Sweet Surrender
03. Dream On
04. Prize
05. All Fall Down
06. Time To Kill
07. Moon Madness
08. Follow Your Heart
09. All In One Day

CD2 (Further Listening)
01. Same Old Story (extended version)
02. 3
03. All In One Day (instrumental)
04. All Fall Down (extended mix)
05. Dreams
06. All Fall Down (instrumental)
07. Dream On (live at Wembley Arena, 6th November 1986)
08. Prize (live at Wembley Arena, 6th November 1986)
09. All Fall Down (live at Wembley Arena, 6th November 1986)
10. Stateless
11. Same Old Story (live at Glasgow Barrowlands, 1st November 1986)
12. Sweet Surrender (live at Glasgow Barrowlands, 1st November 1986)
13. All In One Day (live at Glasgow Barrowlands, 1st November 1986)
14. Time To Kill (live at Glasgow Barrowlands, 1st November 1986)
15. All In One Day (Work In Progress mix)

Ultravox - 6 Chrysalis Album Collection (1981-86) [11CD+DVD] {2009, UK, Remastered Definitive Edition} [combined repost]

Ultravox - 6 Chrysalis Album Collection (1981-86) [11CD+DVD] {2009, UK, Remastered Definitive Edition} [combined repost]

Exact Audio Copy V1.0 beta 3 from 29. August 2011

EAC extraction logfile from 10. February 2012, 2:11

Ultravox / U-VOX

Used drive : HL-DT-STDVDRAM GSA-H60N Adapter: 4 ID: 0

Read mode : Secure
Utilize accurate stream : Yes
Defeat audio cache : Yes
Make use of C2 pointers : No

Read offset correction : 667
Overread into Lead-In and Lead-Out : No
Fill up missing offset samples with silence : Yes
Delete leading and trailing silent blocks : No
Null samples used in CRC calculations : Yes
Used interface : Native Win32 interface for Win NT & 2000
Gap handling : Appended to previous track

Used output format : User Defined Encoder
Selected bitrate : 1024 kBit/s
Quality : High
Add ID3 tag : No
Command line compressor : C:\Program Files (x86)\Exact Audio Copy\Flac\flac.exe
Additional command line options : -8 -V -T "ARTIST=%artist%" -T "TITLE=%title%" -T "ALBUM=%albumtitle%" -T "DATE=%year%" -T "TRACKNUMBER=%tracknr%" -T "GENRE=%genre%" -T "PERFORMER=%albuminterpret%" -T "COMPOSER=%composer%" %haslyrics%–tag-from-file=LYRICS="%lyricsfile%"%haslyrics% -T "ALBUMARTIST=%albumartist%" -T "DISCNUMBER=%cdnumber%" -T "TOTALDISCS=%totalcds%" -T "TOTALTRACKS=%numtracks%" -T "COMMENT=EAC V1.0 beta 3, Secure Mode, Test & Copy, FLAC -8%comment%" %source% -o %dest%


TOC of the extracted CD

Track | Start | Length | Start sector | End sector
––––––––––––––––––––––––––––-
1 | 0:00.00 | 4:39.37 | 0 | 20961
2 | 4:39.37 | 4:34.48 | 20962 | 41559
3 | 9:14.10 | 4:47.68 | 41560 | 63152
4 | 14:02.03 | 5:37.29 | 63153 | 88456
5 | 19:39.32 | 5:09.18 | 88457 | 111649
6 | 24:48.50 | 4:26.16 | 111650 | 131615
7 | 29:14.66 | 3:28.21 | 131616 | 147236
8 | 32:43.12 | 4:52.26 | 147237 | 169162
9 | 37:35.38 | 5:12.61 | 169163 | 192623


Track 1

Filename c:\Ultravox - U-VOX (1986) [FLAC]\01 - Same Old Story.wav

Pre-gap length 0:00:02.00

Peak level 98.2 %
Extraction speed 4.1 X
Track quality 100.0 %
Test CRC 75F4798D
Copy CRC 75F4798D
Copy OK

Track 2

Filename c:\Ultravox - U-VOX (1986) [FLAC]\02 - Sweet Surrender.wav

Peak level 98.8 %
Extraction speed 4.3 X
Track quality 100.0 %
Test CRC C35FA0ED
Copy CRC C35FA0ED
Copy OK

Track 3

Filename c:\Ultravox - U-VOX (1986) [FLAC]\03 - Dream On.wav

Pre-gap length 0:00:00.22

Peak level 98.0 %
Extraction speed 4.0 X
Track quality 100.0 %
Test CRC 5D6539D2
Copy CRC 5D6539D2
Copy OK

Track 4

Filename c:\Ultravox - U-VOX (1986) [FLAC]\04 - The Prize.wav

Peak level 98.5 %
Extraction speed 4.0 X
Track quality 100.0 %
Test CRC D37209A4
Copy CRC D37209A4
Copy OK

Track 5

Filename c:\Ultravox - U-VOX (1986) [FLAC]\05 - All Fall Down.wav

Pre-gap length 0:00:01.58

Peak level 98.0 %
Extraction speed 4.0 X
Track quality 100.0 %
Test CRC 577DDA15
Copy CRC 577DDA15
Copy OK

Track 6

Filename c:\Ultravox - U-VOX (1986) [FLAC]\06 - Time To Kill.wav

Pre-gap length 0:00:00.05

Peak level 98.8 %
Extraction speed 4.4 X
Track quality 100.0 %
Test CRC D070C26B
Copy CRC D070C26B
Copy OK

Track 7

Filename c:\Ultravox - U-VOX (1986) [FLAC]\07 - Moon Madness.wav

Pre-gap length 0:00:01.53

Peak level 98.0 %
Extraction speed 4.2 X
Track quality 100.0 %
Test CRC 294D1751
Copy CRC 294D1751
Copy OK

Track 8

Filename c:\Ultravox - U-VOX (1986) [FLAC]\08 - Follow Your Heart.wav

Pre-gap length 0:00:00.25

Peak level 98.1 %
Extraction speed 4.4 X
Track quality 100.0 %
Test CRC 5A1A9F52
Copy CRC 5A1A9F52
Copy OK

Track 9

Filename c:\Ultravox - U-VOX (1986) [FLAC]\09 - All In One Day.wav

Pre-gap length 0:00:01.30

Peak level 98.0 %
Extraction speed 4.3 X
Track quality 100.0 %
Test CRC C1A550C6
Copy CRC C1A550C6
Copy OK

No errors occurred

End of status report

==== Log checksum 00C7A5A09A6C5F30193BB9633721797F3D6F7C89CE34D344FC8DE41CE90D64D4 ====

Exact Audio Copy V1.0 beta 3 from 29. August 2011

EAC extraction logfile from 10. February 2012, 20:33

Ultravox / U-VOX (Further Listening)

Used drive : HL-DT-STDVDRAM GSA-H60N Adapter: 4 ID: 0

Read mode : Secure
Utilize accurate stream : Yes
Defeat audio cache : Yes
Make use of C2 pointers : No

Read offset correction : 667
Overread into Lead-In and Lead-Out : No
Fill up missing offset samples with silence : Yes
Delete leading and trailing silent blocks : No
Null samples used in CRC calculations : Yes
Used interface : Native Win32 interface for Win NT & 2000
Gap handling : Appended to previous track

Used output format : User Defined Encoder
Selected bitrate : 1024 kBit/s
Quality : High
Add ID3 tag : No
Command line compressor : C:\Program Files (x86)\Exact Audio Copy\Flac\flac.exe
Additional command line options : -8 -V -T "ARTIST=%artist%" -T "TITLE=%title%" -T "ALBUM=%albumtitle%" -T "DATE=%year%" -T "TRACKNUMBER=%tracknr%" -T "GENRE=%genre%" -T "PERFORMER=%albuminterpret%" -T "COMPOSER=%composer%" %haslyrics%–tag-from-file=LYRICS="%lyricsfile%"%haslyrics% -T "ALBUMARTIST=%albumartist%" -T "DISCNUMBER=%cdnumber%" -T "TOTALDISCS=%totalcds%" -T "TOTALTRACKS=%numtracks%" -T "COMMENT=EAC V1.0 beta 3, Secure Mode, Test & Copy, FLAC -8%comment%" %source% -o %dest%


TOC of the extracted CD

Track | Start | Length | Start sector | End sector
––––––––––––––––––––––––––––-
1 | 0:00.00 | 6:59.57 | 0 | 31481
2 | 6:59.57 | 4:01.33 | 31482 | 49589
3 | 11:01.15 | 6:13.28 | 49590 | 77592
4 | 17:14.43 | 7:41.34 | 77593 | 112201
5 | 24:56.02 | 2:31.21 | 112202 | 123547
6 | 27:27.23 | 5:36.20 | 123548 | 148767
7 | 33:03.43 | 3:49.68 | 148768 | 166010
8 | 36:53.36 | 4:57.70 | 166011 | 188355
9 | 41:51.31 | 5:41.24 | 188356 | 213954
10 | 47:32.55 | 2:52.27 | 213955 | 226881
11 | 50:25.07 | 4:31.65 | 226882 | 247271
12 | 54:56.72 | 3:01.63 | 247272 | 260909
13 | 57:58.60 | 6:46.16 | 260910 | 291375
14 | 64:45.01 | 2:52.58 | 291376 | 304333
15 | 67:37.59 | 6:30.49 | 304334 | 333632


Track 1

Filename c:\Ultravox - U-VOX (Further Listening) (1986) [FLAC]\01 - Same Old Story (Extended Version).wav

Pre-gap length 0:00:02.00

Peak level 98.9 %
Extraction speed 4.0 X
Track quality 100.0 %
Test CRC B4521CAA
Copy CRC B4521CAA
Copy OK

Track 2

Filename c:\Ultravox - U-VOX (Further Listening) (1986) [FLAC]\02 - 3.wav

Pre-gap length 0:00:00.94

Peak level 98.0 %
Extraction speed 4.3 X
Track quality 100.0 %
Test CRC EE0E355A
Copy CRC EE0E355A
Copy OK

Track 3

Filename c:\Ultravox - U-VOX (Further Listening) (1986) [FLAC]\03 - All In One Day (Instrumental).wav

Pre-gap length 0:00:00.30

Peak level 98.0 %
Extraction speed 4.2 X
Track quality 100.0 %
Test CRC D16F8F3D
Copy CRC D16F8F3D
Copy OK

Track 4

Filename c:\Ultravox - U-VOX (Further Listening) (1986) [FLAC]\04 - All Fall Down (Extended Mix).wav

Pre-gap length 0:00:00.24

Peak level 98.1 %
Extraction speed 4.3 X
Track quality 100.0 %
Test CRC 2CC6EDE6
Copy CRC 2CC6EDE6
Copy OK

Track 5

Filename c:\Ultravox - U-VOX (Further Listening) (1986) [FLAC]\05 - Dreams.wav

Pre-gap length 0:00:00.69

Peak level 84.1 %
Extraction speed 4.2 X
Track quality 100.0 %
Test CRC 7BE125F7
Copy CRC 7BE125F7
Copy OK

Track 6

Filename c:\Ultravox - U-VOX (Further Listening) (1986) [FLAC]\06 - All Fall Down (Instrumental).wav

Pre-gap length 0:00:00.54

Peak level 98.1 %
Extraction speed 4.0 X
Track quality 100.0 %
Test CRC C8BB2067
Copy CRC C8BB2067
Copy OK

Track 7

Filename c:\Ultravox - U-VOX (Further Listening) (1986) [FLAC]\07 - Dream On (Recordered Live At Wembley Arena, 06 Nov 1986).wav

Pre-gap length 0:00:00.60

Peak level 98.0 %
Extraction speed 4.0 X
Track quality 100.0 %
Test CRC 886A220E
Copy CRC 886A220E
Copy OK

Track 8

Filename c:\Ultravox - U-VOX (Further Listening) (1986) [FLAC]\08 - The Prize (Recordered Live At Wembley Arena, 06 Nov 1986).wav

Pre-gap length 0:00:00.36

Peak level 98.8 %
Extraction speed 4.3 X
Track quality 100.0 %
Test CRC CC5ED679
Copy CRC CC5ED679
Copy OK

Track 9

Filename c:\Ultravox - U-VOX (Further Listening) (1986) [FLAC]\09 - All Fall Down (Recordered Live At Wembley Arena, 06 Nov 1986).wav

Pre-gap length 0:00:00.80

Peak level 98.6 %
Extraction speed 4.1 X
Track quality 100.0 %
Test CRC BE352886
Copy CRC BE352886
Copy OK

Track 10

Filename c:\Ultravox - U-VOX (Further Listening) (1986) [FLAC]\10 - Stateless.wav

Pre-gap length 0:00:01.02

Peak level 98.0 %
Extraction speed 4.0 X
Track quality 100.0 %
Test CRC 4BEB67EC
Copy CRC 4BEB67EC
Copy OK

Track 11

Filename c:\Ultravox - U-VOX (Further Listening) (1986) [FLAC]\11 - Same Old Story (Recordered Live At Glasgow Barrowlands, 01 Nov 1986).wav

Pre-gap length 0:00:00.94

Peak level 98.0 %
Extraction speed 4.4 X
Track quality 100.0 %
Test CRC B067ADF6
Copy CRC B067ADF6
Copy OK

Track 12

Filename c:\Ultravox - U-VOX (Further Listening) (1986) [FLAC]\12 - Sweet Surrender (Recordered Live At Glasgow Barrowlands, 01 Nov 1986).wav

Peak level 98.0 %
Extraction speed 4.2 X
Track quality 100.0 %
Test CRC 3F5DC6BF
Copy CRC 3F5DC6BF
Copy OK

Track 13

Filename c:\Ultravox - U-VOX (Further Listening) (1986) [FLAC]\13 - All In One Day (Recordered Live At Glasgow Barrowlands, 01 Nov 1986).wav

Peak level 98.3 %
Extraction speed 4.0 X
Track quality 100.0 %
Test CRC EA18DE75
Copy CRC EA18DE75
Copy OK

Track 14

Filename c:\Ultravox - U-VOX (Further Listening) (1986) [FLAC]\14 - Time To Kill (Recordered Live At Glasgow Barrowlands, 01 Nov 1986).wav

Peak level 98.5 %
Extraction speed 4.0 X
Track quality 100.0 %
Test CRC 03B7F76D
Copy CRC 03B7F76D
Copy OK

Track 15

Filename c:\Ultravox - U-VOX (Further Listening) (1986) [FLAC]\15 - All In One Day (Work In Progress Mix).wav

Pre-gap length 0:00:01.53

Peak level 94.3 %
Extraction speed 4.1 X
Track quality 100.0 %
Test CRC 60D91A2B
Copy CRC 60D91A2B
Copy OK

No errors occurred

End of status report

==== Log checksum E0C746521DCF0CCFEBBED610766C6116B7E8083835A7C93F4C78A5F67EA1E62E ====


All thanks goes to the original releaser!


Ultravox - Vienna (1981) [2CD] {2008, UK, Remastered Definitive Edition}

UPLOADED Linkz

BITSHARE Linkz



Ultravox - Rage In Eden (1981) [2CD] {2008, UK, Remastered Definitive Edition}

UPLOADED Linkz

BITSHARE Linkz



Ultravox - Quartet (1982) [2CD] {2009, UK, Remastered Definitive Edition}

UPLOADED Linkz

BITSHARE Linkz



Ultravox - Monument (1983) [CD+DVD] {2009, UK, Remastered Definitive Edition}

CD
UPLOADED Linkz

BITSHARE Linkz


DVD
UPLOADED Linkz

BITSHARE Linkz



Ultravox - Lament (1984) [2CD] {2009, UK, Remastered Definitive Edition}

UPLOADED Linkz

BITSHARE Linkz



Ultravox - U-VOX (1986) [2CD] {2009, UK, Remastered Definitive Edition}

UPLOADED Linkz

BITSHARE Linkz