Subcategories

VA - Billboard Greatest Christmas Hits 1935-1954 (1989) *Re-Up*

Posted By: firepower
VA - Billboard Greatest Christmas Hits 1935-1954 (1989) *Re-Up*

VA - Billboard Greatest Christmas Hits 1935-1954 (1989)
EAC, FLAC image, CUE+LOG - 117 MB | MP3 320 CBR - 72 MB | Artwork - 24 MB
Christmas | Rhino R2 70637 | 5% recovery record | Source: Internet

This charming collection of golden classic Christmas favorites stretches from 1935 to 1954. Rhino scores big with the idea of marketing music of such quality for a lesser cost. This record features everybody and everything from the Bing himself to Gene Autry's "Rudolph the Red-Nosed Reindeer" to "All I Want for Christmas," a comedic, hilarious family favorite. What would Christmas be without "Let It Snow! Let It Snow! Let It Snow!," a wintry cry for a snow-white landscape, sung proudly here by Vaughn Monroe? With its goal of making Christmas memorable, this collection of songs – from the youthful "Here Comes Santa Claus" to "White Christmas," Bing Crosby's dreamy, reflective hit – should appeal to all ages. At least one can imagine and dream for a white Christmas with the help of Bing, though most of the world really never receives one.
VA - Billboard Greatest Christmas Hits 1935-1954 (1989) *Re-Up*

Tracklist:

01 - Bing Crosby - White Christmas
02 - Vaughn Monroe - Let It Snow! Let It Snow! Let It Snow!
03 - Gene Autry - Rudolph The Red-Nosed Reindeer
04 - Nat King Cole - The Christmas Song
05 - Spike Jones - All I Want For Christmas (Is My Two Front Teeth)
06 - Jimmy Boyd - I Saw Mommy Kissing Santa Claus
07 - The Andrews Sisters And Guy Lombardo - Christmas Island
08 - Bing Crosby - Silent Night
09 - Gene Autry - Here Comes Santa Claus (Down Santa Claus Lane)
10 - Eartha Kitt - Santa Baby

VA - Billboard Greatest Christmas Hits 1935-1954 (1989) *Re-Up*

VA - Billboard Greatest Christmas Hits 1935-1954 (1989) *Re-Up*

Exact Audio Copy V0.99 prebeta 3 from 28. July 2007

EAC extraction logfile from 15. December 2007, 2:27

Various / Billboard Greatest Christmas Hits 1935-1954

Used drive : HL-DT-STRW/DVD GCC-4241N Adapter: 1 ID: 0

Read mode : Secure
Utilize accurate stream : Yes
Defeat audio cache : No
Make use of C2 pointers : Yes

Read offset correction : 102
Overread into Lead-In and Lead-Out : No
Fill up missing offset samples with silence : Yes
Delete leading and trailing silent blocks : No
Null samples used in CRC calculations : No
Used interface : Native Win32 interface for Win NT & 2000

Used output format : User Defined Encoder
Selected bitrate : 768 kBit/s
Quality : High
Add ID3 tag : No
Command line compressor : C:\Program Files\Exact Audio Copy\FLAC\FLAC.EXE
Additional command line options : -6 -V -T "ARTIST=%a" -T "TITLE=%t" -T "ALBUM=%g" -T "DATE=%y" -T "TRACKNUMBER=%n" -T "GENRE=%m" -T "COMMENT=%e" %s -o %d


TOC of the extracted CD

Track | Start | Length | Start sector | End sector
––––––––––––––––––––––––––––-
1 | 0:00.00 | 3:07.03 | 0 | 14027
2 | 3:07.03 | 3:07.72 | 14028 | 28124
3 | 6:15.00 | 3:15.65 | 28125 | 42814
4 | 9:30.65 | 3:13.08 | 42815 | 57297
5 | 12:43.73 | 3:09.70 | 57298 | 71542
6 | 15:53.68 | 2:33.20 | 71543 | 83037
7 | 18:27.13 | 2:38.32 | 83038 | 94919
8 | 21:05.45 | 2:39.25 | 94920 | 106869
9 | 23:44.70 | 2:34.23 | 106870 | 118442
10 | 26:19.18 | 3:25.22 | 118443 | 133839


Range status and errors

Selected range

Filename C:\Documents and Settings\User1\My Documents\My Music\Various - Billboard Greatest Christmas Hits 1935-1954\Various - Billboard Greatest Christmas Hits 1935-1954.wav

Peak level 100.0 %
Range quality 100.0 %
Copy CRC 1C547ED0
Copy OK

No errors occurred


AccurateRip summary

Track 1 accurately ripped (confidence 6) [07C41E6D]
Track 2 accurately ripped (confidence 5) [EE306C05]
Track 3 accurately ripped (confidence 6) [9C68D683]
Track 4 accurately ripped (confidence 5) [77E80BD1]
Track 5 accurately ripped (confidence 7) [CA45A6A6]
Track 6 accurately ripped (confidence 6) [EA1DFCED]
Track 7 accurately ripped (confidence 6) [7B72903B]
Track 8 accurately ripped (confidence 6) [622E9689]
Track 9 accurately ripped (confidence 6) [88D025B2]
Track 10 accurately ripped (confidence 6) [29C920E1]

All tracks accurately ripped

End of status report

Note that the artwork is included in the music archives.
All files are fully tagged
5% recovery record
Thanks a lot to the original ripper!!
-NF-FP-

I have shared several Christmas albums. Some are classics, some novelty and some unusual.
You can find them here!

No Mirrors Please
Password = avaxhome