Subcategories

VA - Cafe Brazillia - The Cream Of Latino Lounge (2CD)

Posted By: FLESH
VA - Cafe Brazillia - The Cream Of Latino Lounge (2CD)

VA - Cafe Brazillia - The Cream Of Latino Lounge (2CD)
Electronic, Lounge, Latino, Summer Brasil
APE+cue+log | 733.9 Mb | MP3, 192 Kbps | 151.2 Mb | Covers
Label: Park Lane Recordings | Catalog#: YAM318002 | Country: U.K. | Released: 2008

Tracklisting:
CD1:
01. Bossa De Botinho - Spacestar Feat. Liliana Giminez
02. Sambastique - Panaphonic
03. Vibracao - Pauline London
04. St. Denis Ceara [Panaphonic Bossa Remix] - Mona Gadelha
05. Sheer Emotion - Safari Ways
06. Time Will Tell - Outcold feat. Cathy Battistessa
07. Playa Del Sol - Clelia Felix
08. Manouche Dream - Mr. Untel
09. You Make Me Say - Blue Sky Blonde
10. In My Head Again [Exclusive Bossa Mix] - Rebecca Poole
11. Siento [Extended Dub] - Sylvia feat. Liasla

CD2:
01. S’Estanol - Afterlife Feat. Dos Hombres
02. Seu Olhar [Extended Mahjonb Mix] - Madrugada
03. Minha Loucura - Bungalove
04. Dawn [Nardis Brazilectro Mix] - Sun & Soul Shades
05. Sing A Lullaby - Pauline London
06. Exotic Guitars - Safari Ways
07. Presence - Outcold Feat. Cathy Battistessa
08. Peaceful Life - Clelia Felix
09. Contas Novas [Vintage Bossa Cut] - Panaphonic Feat. Liliana Giminez
10. Electro Flamenco - Mr. Untel
11. Evil Ways - Cuban Jazz Combo

Exact Audio Copy V0.99 prebeta 4 from 23. January 2008

Отчёт EAC об извлечении, выполненном 1. ноября 2008, 15:47

Various / Cafe Brazillia cd1

Дисковод: SlimtypeDVD A DS8A1P Adapter: 0 ID: 0

Режим чтения : Достоверность
Использование точного потока : Да
Отключение кэша аудио : Да
Использование указателей C2 : Нет

Коррекция смещения при чтении : 594
Способность читать области Lead-in и Lead-out : Нет
Заполнение пропущенных сэмплов тишиной : Да
Удаление блоков с тишиной в начале и конце : Нет
При вычислениях CRC использовались нулевые сэмплы : Да
Интерфейс : Встроенный Win32-интерфейс для Win NT/2000

Выходной формат : Внутренние WAV-операции
Формат сэмплов : 44.100 Гц; 16 бит; стерео


TOC извлечённого CD

Трек | Старт | Длительность | Начальный сектор | Конечный сектор
––––––––––––––––––––––––––––––––––-
1 | 0:00.00 | 4:36.68 | 0 | 20767
2 | 4:36.68 | 4:38.00 | 20768 | 41617
3 | 9:14.68 | 5:05.54 | 41618 | 64546
4 | 14:20.47 | 4:58.71 | 64547 | 86967
5 | 19:19.43 | 5:10.71 | 86968 | 110288
6 | 24:30.39 | 5:43.60 | 110289 | 136073
7 | 30:14.24 | 3:17.62 | 136074 | 150910
8 | 33:32.11 | 4:01.32 | 150911 | 169017
9 | 37:33.43 | 3:25.30 | 169018 | 184422
10 | 40:58.73 | 5:28.16 | 184423 | 209038
11 | 46:27.14 | 8:13.72 | 209039 | 246085


Характеристики диапазона извлечения и сообщения об ошибках

Выбранный диапазон

Имя файла C:\www.subj.biz\Documents and Settings\User\My Documents\Various - Cafe Brazillia cd1 2008.wav

Пиковый уровень 100.0 %
Качество диапазона 99.9 %
CRC копии 449AC80F
Копирование… OK

Ошибок не произошло


AccurateRip: сводка

Трек 1 нет в базе данных
Трек 2 нет в базе данных
Трек 3 нет в базе данных
Трек 4 нет в базе данных
Трек 5 нет в базе данных
Трек 6 нет в базе данных
Трек 7 нет в базе данных
Трек 8 нет в базе данных
Трек 9 нет в базе данных
Трек 10 нет в базе данных
Трек 11 нет в базе данных

Ни одного трека нет в базе AccurateRip

Конец отчёта

Exact Audio Copy V0.99 prebeta 4 from 23. January 2008

Отчёт EAC об извлечении, выполненном 1. ноября 2008, 16:21

Various / Cafe Brazillia cd2

Дисковод: SlimtypeDVD A DS8A1P Adapter: 0 ID: 0

Режим чтения : Достоверность
Использование точного потока : Да
Отключение кэша аудио : Да
Использование указателей C2 : Нет

Коррекция смещения при чтении : 594
Способность читать области Lead-in и Lead-out : Нет
Заполнение пропущенных сэмплов тишиной : Да
Удаление блоков с тишиной в начале и конце : Нет
При вычислениях CRC использовались нулевые сэмплы : Да
Интерфейс : Встроенный Win32-интерфейс для Win NT/2000

Выходной формат : Внутренние WAV-операции
Формат сэмплов : 44.100 Гц; 16 бит; стерео


TOC извлечённого CD

Трек | Старт | Длительность | Начальный сектор | Конечный сектор
––––––––––––––––––––––––––––––––––-
1 | 0:00.00 | 5:24.17 | 0 | 24316
2 | 5:24.17 | 6:59.52 | 24317 | 55793
3 | 12:23.69 | 4:15.33 | 55794 | 74951
4 | 16:39.27 | 4:42.70 | 74952 | 96171
5 | 21:22.22 | 4:00.60 | 96172 | 114231
6 | 25:23.07 | 5:38.48 | 114232 | 139629
7 | 31:01.55 | 5:18.69 | 139630 | 163548
8 | 36:20.49 | 4:06.12 | 163549 | 182010
9 | 40:26.61 | 5:29.67 | 182011 | 206752
10 | 45:56.53 | 5:41.52 | 206753 | 232379
11 | 51:38.30 | 4:14.25 | 232380 | 251454


Характеристики диапазона извлечения и сообщения об ошибках

Выбранный диапазон

Имя файла C:\www.subj.biz\Documents and Settings\User\My Documents\Various - Cafe Brazillia cd2 2008.wav

Пиковый уровень 100.0 %
Качество диапазона 100.0 %
CRC копии B74C0548
Копирование… OK

Ошибок не произошло


AccurateRip: сводка

Трек 1 нет в базе данных
Трек 2 нет в базе данных
Трек 3 нет в базе данных
Трек 4 нет в базе данных
Трек 5 нет в базе данных
Трек 6 нет в базе данных
Трек 7 нет в базе данных
Трек 8 нет в базе данных
Трек 9 нет в базе данных
Трек 10 нет в базе данных
Трек 11 нет в базе данных

Ни одного трека нет в базе AccurateRip

Конец отчёта


lossless
Скачать с RapidShare
CD1
Part 1 | Part 2 | Part 3 | Part 4
CD2
Part 1 | Part 2 | Part 3 | Part 4

MP3
Скачать с RapidShare
CD1
MP3
CD2
MP3

Covers
Covers

Folder1 Music RapidShare
Folder2 Music RapidShare

Welcome to my Blog