Subcategories

VA - Gary Crowley's Punk & New Wave (2017)

Posted By: El Misha
VA - Gary Crowley's Punk & New Wave (2017)

VA - Gary Crowley's Punk & New Wave (2017)
EAC Rip | FLAC (tracks & cue & log) | Front cover | 3:55:58 | 1.57 GB + 5% Recovery
Punk, New Wave, Power Pop | Label: Edsel Records ‎– EDSL0015

UK three CD set. Contains 77 tracks of punk, new wave, post punk, power pop and mod revival originally released between 1977 - 1982 including many for the first time on CD. Some of these tracks are super-rare and very hard to find having only been pressed on very limited 7" singles. Media book format package, with three CDs and 40 page book. Introduction and track by track notes by Gary Crowley and Jim Lahat, plus punk memories from Richard Jobson (The Skids), Clare Grogan (Altered Images), Duncan Reid (The Boys), Jane Perry Woodgate (The Mo-Dettes) and Spizz.



Tracklist:

Disc 1

1. The Vibrators - We Vibrate
2. Mo - Dettes – White Mice
3. Automatics - When The Tanks Roll Over Poland Again
4. The Saints - Do The Robot
5. Ultravox! - Young Savage
6. Scars - All About You
7. Starjets - School Days
8. Suburban Studs - I Hate School
9. Advertising - Lipstick
10. TV 21 - Ambition
11. The Nice Men - Nuclear Summer
12. Eater - Thinking of the USA
13. Alternative TV - How Much Longer
14. 999 - Emergency
15. Altered Images - Dead Pop Stars
16. The Stiffs - Inside Out
17. The Carpettes - Small Wonder
18. The Fall - It's The New Thing
19. The Drones - Bone Idol
20. Skunks - Good From The Bad
21. The Nips - All The Time In The World
22. The Boys - First Time
23. Bee Bee Cee - You Gotta Know Girl
24. The Circles - Opening Up
25. Glaxo Babies - This Is Your Life
26. John Cooper Clarke - Suspended Sentence

Exact Audio Copy V1.3 from 2. September 2016

EAC extraction logfile from 16. April 2018, 9:27

Various Artists / Gary Crowley's Punk And New Wave

Used drive : HL-DT-STDVDRAM GE20LU10 Adapter: 1 ID: 0

Read mode : Secure
Utilize accurate stream : Yes
Defeat audio cache : No
Make use of C2 pointers : No

Read offset correction : 667
Overread into Lead-In and Lead-Out : No
Fill up missing offset samples with silence : Yes
Delete leading and trailing silent blocks : No
Null samples used in CRC calculations : Yes
Used interface : Native Win32 interface for Win NT & 2000
Gap handling : Appended to previous track

Used output format : User Defined Encoder
Selected bitrate : 1024 kBit/s
Quality : High
Add ID3 tag : No
Command line compressor : C:\Program Files (x86)\Exact Audio Copy\Flac\flac.exe
Additional command line options : -8 -V -T "ARTIST=%artist%" -T "TITLE=%title%" -T "ALBUM=%albumtitle%" -T "DATE=%year%" -T "TRACKNUMBER=%tracknr%" -T "GENRE=%genre%" -T "PERFORMER=%albuminterpret%" -T "COMPOSER=%composer%" %haslyrics%–tag-from-file=LYRICS="%lyricsfile%"%haslyrics% -T "ALBUMARTIST=%albumartist%" -T "DISCNUMBER=%cdnumber%" -T "TOTALDISCS=%totalcds%" -T "TOTALTRACKS=%numtracks%" -T "COMMENT=%comment%" %source% -o %dest%


TOC of the extracted CD

Track | Start | Length | Start sector | End sector
––––––––––––––––––––––––––––-
1 | 0:00.00 | 2:09.18 | 0 | 9692
2 | 2:09.18 | 3:37.43 | 9693 | 26010
3 | 5:46.61 | 2:52.22 | 26011 | 38932
4 | 8:39.08 | 2:44.06 | 38933 | 51238
5 | 11:23.14 | 2:58.17 | 51239 | 64605
6 | 14:21.31 | 3:54.10 | 64606 | 82165
7 | 18:15.41 | 3:22.03 | 82166 | 97318
8 | 21:37.44 | 2:36.60 | 97319 | 109078
9 | 24:14.29 | 2:13.04 | 109079 | 119057
10 | 26:27.33 | 3:49.11 | 119058 | 136243
11 | 30:16.44 | 3:05.40 | 136244 | 150158
12 | 33:22.09 | 3:01.49 | 150159 | 163782
13 | 36:23.58 | 2:36.41 | 163783 | 175523
14 | 39:00.24 | 2:50.51 | 175524 | 188324
15 | 41:51.00 | 3:15.54 | 188325 | 203003
16 | 45:06.54 | 3:52.74 | 203004 | 220477
17 | 48:59.53 | 2:01.69 | 220478 | 229621
18 | 51:01.47 | 3:26.28 | 229622 | 245099
19 | 54:28.00 | 1:54.30 | 245100 | 253679
20 | 56:22.30 | 3:40.23 | 253680 | 270202
21 | 60:02.53 | 3:23.65 | 270203 | 285492
22 | 63:26.43 | 2:19.50 | 285493 | 295967
23 | 65:46.18 | 2:40.23 | 295968 | 307990
24 | 68:26.41 | 3:11.21 | 307991 | 322336
25 | 71:37.62 | 3:08.11 | 322337 | 336447
26 | 74:45.73 | 2:49.63 | 336448 | 349185


Track 1

Filename C:\EAC Rips\01 We Vibrate.wav

Pre-gap length 0:00:02.00

Peak level 94.3 %
Extraction speed 7.9 X
Track quality 100.0 %
Test CRC 288EF004
Copy CRC 288EF004
Accurately ripped (confidence 4) [A3DCFF96] (AR v2)
Copy OK

Track 2

Filename C:\EAC Rips\02 White Mice.wav

Pre-gap length 0:00:00.78

Peak level 94.3 %
Extraction speed 8.5 X
Track quality 100.0 %
Test CRC 87670490
Copy CRC 87670490
Accurately ripped (confidence 4) [8D2B9143] (AR v2)
Copy OK

Track 3

Filename C:\EAC Rips\03 When The Tanks Roll Over Poland Again.wav

Pre-gap length 0:00:00.84

Peak level 79.4 %
Extraction speed 8.3 X
Track quality 99.9 %
Test CRC 6905E879
Copy CRC 6905E879
Accurately ripped (confidence 4) [AE71DB37] (AR v2)
Copy OK

Track 4

Filename C:\EAC Rips\04 Do The Robot.wav

Pre-gap length 0:00:00.88

Peak level 91.1 %
Extraction speed 9.6 X
Track quality 100.0 %
Test CRC B7AAE7BF
Copy CRC B7AAE7BF
Accurately ripped (confidence 4) [6B601A93] (AR v2)
Copy OK

Track 5

Filename C:\EAC Rips\05 Young Savage.wav

Pre-gap length 0:00:00.84

Peak level 94.3 %
Extraction speed 9.3 X
Track quality 100.0 %
Test CRC FAFBB2D0
Copy CRC FAFBB2D0
Accurately ripped (confidence 4) [E7CABE16] (AR v2)
Copy OK

Track 6

Filename C:\EAC Rips\06 All About You.wav

Pre-gap length 0:00:00.80

Peak level 94.3 %
Extraction speed 10.4 X
Track quality 100.0 %
Test CRC D7F1A15E
Copy CRC D7F1A15E
Accurately ripped (confidence 4) [0E86D853] (AR v2)
Copy OK

Track 7

Filename C:\EAC Rips\07 School Days.wav

Pre-gap length 0:00:01.01

Peak level 94.3 %
Extraction speed 10.0 X
Track quality 100.0 %
Test CRC 9B5FD439
Copy CRC 9B5FD439
Accurately ripped (confidence 4) [77BCCC5C] (AR v2)
Copy OK

Track 8

Filename C:\EAC Rips\08 I Hate School.wav

Pre-gap length 0:00:00.77

Peak level 94.3 %
Extraction speed 10.9 X
Track quality 100.0 %
Test CRC 45B69E2F
Copy CRC 45B69E2F
Accurately ripped (confidence 4) [789D2289] (AR v2)
Copy OK

Track 9

Filename C:\EAC Rips\09 Lipstick.wav

Pre-gap length 0:00:00.78

Peak level 94.3 %
Extraction speed 10.2 X
Track quality 100.0 %
Test CRC B16A1BC9
Copy CRC B16A1BC9
Accurately ripped (confidence 4) [972E87AF] (AR v2)
Copy OK

Track 10

Filename C:\EAC Rips\10 Ambition.wav

Pre-gap length 0:00:01.12

Peak level 94.3 %
Extraction speed 11.4 X
Track quality 100.0 %
Test CRC 7CF8629A
Copy CRC 7CF8629A
Accurately ripped (confidence 4) [09834489] (AR v2)
Copy OK

Track 11

Filename C:\EAC Rips\11 Nuclear Summer.wav

Pre-gap length 0:00:00.77

Peak level 97.3 %
Extraction speed 11.0 X
Track quality 100.0 %
Test CRC 40ED6A3C
Copy CRC 40ED6A3C
Accurately ripped (confidence 4) [F1E9CD24] (AR v2)
Copy OK

Track 12

Filename C:\EAC Rips\12 Thinking Of The USA.wav

Pre-gap length 0:00:01.41

Peak level 94.3 %
Extraction speed 11.8 X
Track quality 100.0 %
Test CRC F489F361
Copy CRC F489F361
Accurately ripped (confidence 4) [213B9E04] (AR v2)
Copy OK

Track 13

Filename C:\EAC Rips\13 How Much Longer.wav

Pre-gap length 0:00:00.81

Peak level 94.3 %
Extraction speed 11.3 X
Track quality 100.0 %
Test CRC 52FC63CF
Copy CRC 52FC63CF
Accurately ripped (confidence 4) [58B7EBB4] (AR v2)
Copy OK

Track 14

Filename C:\EAC Rips\14 Emergency.wav

Pre-gap length 0:00:00.81

Peak level 94.3 %
Extraction speed 12.1 X
Track quality 100.0 %
Test CRC D3AA8765
Copy CRC D3AA8765
Accurately ripped (confidence 4) [B935A395] (AR v2)
Copy OK

Track 15

Filename C:\EAC Rips\15 Dead Pop Stars.wav

Pre-gap length 0:00:00.72

Peak level 94.3 %
Extraction speed 11.8 X
Track quality 100.0 %
Test CRC 4BFCE417
Copy CRC 4BFCE417
Accurately ripped (confidence 4) [C285D133] (AR v2)
Copy OK

Track 16

Filename C:\EAC Rips\16 Inside Out.wav

Pre-gap length 0:00:01.06

Peak level 94.3 %
Extraction speed 12.1 X
Track quality 100.0 %
Test CRC C16268D6
Copy CRC C16268D6
Accurately ripped (confidence 4) [ED758389] (AR v2)
Copy OK

Track 17

Filename C:\EAC Rips\17 Small Wonder.wav

Pre-gap length 0:00:00.88

Peak level 99.9 %
Extraction speed 12.7 X
Track quality 100.0 %
Test CRC 74680058
Copy CRC 74680058
Accurately ripped (confidence 4) [B027BDD7] (AR v2)
Copy OK

Track 18

Filename C:\EAC Rips\18 It's The New Thing.wav

Pre-gap length 0:00:00.90

Peak level 94.3 %
Extraction speed 12.1 X
Track quality 100.0 %
Test CRC 68B8C15A
Copy CRC 68B8C15A
Accurately ripped (confidence 4) [B0358E4D] (AR v2)
Copy OK

Track 19

Filename C:\EAC Rips\19 Bone Idol.wav

Pre-gap length 0:00:00.80

Peak level 99.9 %
Extraction speed 11.8 X
Track quality 100.0 %
Test CRC 9E52B039
Copy CRC 9E52B039
Accurately ripped (confidence 4) [D4E808D5] (AR v2)
Copy OK

Track 20

Filename C:\EAC Rips\20 Good From The Bad.wav

Pre-gap length 0:00:00.89

Peak level 94.3 %
Extraction speed 12.7 X
Track quality 100.0 %
Test CRC 429651E5
Copy CRC 429651E5
Accurately ripped (confidence 4) [4A80BED9] (AR v2)
Copy OK

Track 21

Filename C:\EAC Rips\21 All The Time In The World.wav

Pre-gap length 0:00:00.72

Peak level 94.3 %
Extraction speed 12.3 X
Track quality 99.9 %
Test CRC D0D1BCE0
Copy CRC D0D1BCE0
Accurately ripped (confidence 4) [92A40EE0] (AR v2)
Copy OK

Track 22

Filename C:\EAC Rips\22 First Time.wav

Pre-gap length 0:00:00.58

Peak level 94.3 %
Extraction speed 12.3 X
Track quality 100.0 %
Test CRC 39FA9F51
Copy CRC 39FA9F51
Accurately ripped (confidence 4) [41D748A3] (AR v2)
Copy OK

Track 23

Filename C:\EAC Rips\23 You Gotta Know Girl.wav

Pre-gap length 0:00:00.96

Peak level 94.3 %
Extraction speed 12.1 X
Track quality 99.9 %
Test CRC 27906103
Copy CRC 27906103
Accurately ripped (confidence 4) [58B896DE] (AR v2)
Copy OK

Track 24

Filename C:\EAC Rips\24 Opening Up.wav

Pre-gap length 0:00:01.18

Peak level 91.1 %
Extraction speed 13.8 X
Track quality 100.0 %
Test CRC 39738B28
Copy CRC 39738B28
Accurately ripped (confidence 4) [967582FD] (AR v2)
Copy OK

Track 25

Filename C:\EAC Rips\25 This Is Your Life.wav

Pre-gap length 0:00:00.84

Peak level 94.3 %
Extraction speed 13.0 X
Track quality 100.0 %
Test CRC CDC3E3CA
Copy CRC CDC3E3CA
Accurately ripped (confidence 4) [E567CF68] (AR v2)
Copy OK

Track 26

Filename C:\EAC Rips\26 Suspended Sentence.wav

Pre-gap length 0:00:01.41

Peak level 94.3 %
Extraction speed 13.4 X
Track quality 100.0 %
Test CRC 7C02FAB2
Copy CRC 7C02FAB2
Accurately ripped (confidence 4) [1F5AFA28] (AR v2)
Copy OK


All tracks accurately ripped

No errors occurred

End of status report

–– CUETools DB Plugin V2.1.6

[CTDB TOCID: i9FNPZheSyKLnMX1vJObdJIPfFM-] found
Submit result: i9FNPZheSyKLnMX1vJObdJIPfFM- has been confirmed
Track | CTDB Status
1 | (6/6) Accurately ripped
2 | (6/6) Accurately ripped
3 | (6/6) Accurately ripped
4 | (6/6) Accurately ripped
5 | (6/6) Accurately ripped
6 | (6/6) Accurately ripped
7 | (6/6) Accurately ripped
8 | (6/6) Accurately ripped
9 | (6/6) Accurately ripped
10 | (6/6) Accurately ripped
11 | (6/6) Accurately ripped
12 | (6/6) Accurately ripped
13 | (6/6) Accurately ripped
14 | (6/6) Accurately ripped
15 | (6/6) Accurately ripped
16 | (6/6) Accurately ripped
17 | (6/6) Accurately ripped
18 | (6/6) Accurately ripped
19 | (6/6) Accurately ripped
20 | (6/6) Accurately ripped
21 | (6/6) Accurately ripped
22 | (6/6) Accurately ripped
23 | (6/6) Accurately ripped
24 | (6/6) Accurately ripped
25 | (6/6) Accurately ripped
26 | (6/6) Accurately ripped


==== Log checksum CF11EB55D0E51CBB352D3F985D1E11DA73555EE3E5243DA10965293CEBCEDC0F ====


Disc 2

1. Fast Cars - The Kids Just Wanna Dance
2. New Hearts - Just Another Teenage Anthem
3. Clive Culbertson - Time To Kill
4. The Only Ones - You've Got To Pay
5. Lori And The Chameleons - Touch
6. The Things - Pieces of You
7. The Negatives - Love Is Not Real
8. The Photos - Barbarellas
9. Expressos - Tango in Mono
10. The Stukas Klean Living Kids
11. Tonight - Drummer Man
12. The Quads - There Must Be Thousands
13. Shake - Culture Shock
14. Girls At Our Best - Getting Nowhere Fast
15. The Cuban Heels - Downtown
16. The Donkees Listen To Your Radio
17. Spizzenergi - Soldier Soldier
18. The Telegents - Get Out
19. The Collectors - Talking Hands
20. The Stripes - One Step Ahead
21. The Doubt - Time Out
22. Bobalouis - Go Ahead
23. The Letters - Nobody Loves Me
24. Perfectors - YT502951D
25. Fun 4 - Singing In The Showers
26. Tours - Language School

Exact Audio Copy V1.3 from 2. September 2016

EAC extraction logfile from 16. April 2018, 13:00

Various Artists / Gary Crowley's Punk And New Wave

Used drive : HL-DT-STDVDRAM GE20LU10 Adapter: 1 ID: 0

Read mode : Secure
Utilize accurate stream : Yes
Defeat audio cache : No
Make use of C2 pointers : No

Read offset correction : 667
Overread into Lead-In and Lead-Out : No
Fill up missing offset samples with silence : Yes
Delete leading and trailing silent blocks : No
Null samples used in CRC calculations : Yes
Used interface : Native Win32 interface for Win NT & 2000
Gap handling : Appended to previous track

Used output format : User Defined Encoder
Selected bitrate : 1024 kBit/s
Quality : High
Add ID3 tag : No
Command line compressor : C:\Program Files (x86)\Exact Audio Copy\Flac\flac.exe
Additional command line options : -8 -V -T "ARTIST=%artist%" -T "TITLE=%title%" -T "ALBUM=%albumtitle%" -T "DATE=%year%" -T "TRACKNUMBER=%tracknr%" -T "GENRE=%genre%" -T "PERFORMER=%albuminterpret%" -T "COMPOSER=%composer%" %haslyrics%–tag-from-file=LYRICS="%lyricsfile%"%haslyrics% -T "ALBUMARTIST=%albumartist%" -T "DISCNUMBER=%cdnumber%" -T "TOTALDISCS=%totalcds%" -T "TOTALTRACKS=%numtracks%" -T "COMMENT=%comment%" %source% -o %dest%


TOC of the extracted CD

Track | Start | Length | Start sector | End sector
––––––––––––––––––––––––––––-
1 | 0:00.00 | 3:28.31 | 0 | 15630
2 | 3:28.31 | 1:57.46 | 15631 | 24451
3 | 5:26.02 | 2:31.55 | 24452 | 35831
4 | 7:57.57 | 2:47.09 | 35832 | 48365
5 | 10:44.66 | 4:19.42 | 48366 | 67832
6 | 15:04.33 | 2:42.51 | 67833 | 80033
7 | 17:47.09 | 2:26.55 | 80034 | 91038
8 | 20:13.64 | 3:00.55 | 91039 | 104593
9 | 23:14.44 | 3:22.43 | 104594 | 119786
10 | 26:37.12 | 2:07.18 | 119787 | 129329
11 | 28:44.30 | 2:44.05 | 129330 | 141634
12 | 31:28.35 | 3:21.59 | 141635 | 156768
13 | 34:50.19 | 3:45.27 | 156769 | 173670
14 | 38:35.46 | 2:00.25 | 173671 | 182695
15 | 40:35.71 | 1:47.65 | 182696 | 190785
16 | 42:23.61 | 2:35.34 | 190786 | 202444
17 | 44:59.20 | 3:49.24 | 202445 | 219643
18 | 48:48.44 | 2:55.28 | 219644 | 232796
19 | 51:43.72 | 2:57.52 | 232797 | 246123
20 | 54:41.49 | 3:48.26 | 246124 | 263249
21 | 58:30.00 | 2:44.47 | 263250 | 275596
22 | 61:14.47 | 2:13.33 | 275597 | 285604
23 | 63:28.05 | 2:11.41 | 285605 | 295470
24 | 65:39.46 | 2:43.32 | 295471 | 307727
25 | 68:23.03 | 2:09.60 | 307728 | 317462
26 | 70:32.63 | 2:10.21 | 317463 | 327233


Track 1

Filename C:\EAC Rips\01 The Kids Just Wanna Dance.wav

Pre-gap length 0:00:02.00

Peak level 75.8 %
Extraction speed 3.2 X
Track quality 100.0 %
Test CRC B6C57EA8
Copy CRC B6C57EA8
Accurately ripped (confidence 3) [9975AA51] (AR v2)
Copy OK

Track 2

Filename C:\EAC Rips\02 Just Another Teenage Anthem.wav

Pre-gap length 0:00:00.25

Peak level 94.3 %
Extraction speed 3.5 X
Track quality 100.0 %
Test CRC AFAD721E
Copy CRC AFAD721E
Accurately ripped (confidence 3) [7F85A490] (AR v2)
Copy OK

Track 3

Filename C:\EAC Rips\03 Time To Kill.wav

Pre-gap length 0:00:00.45

Peak level 94.3 %
Extraction speed 3.5 X
Track quality 99.9 %
Test CRC 2058A960
Copy CRC 2058A960
Accurately ripped (confidence 3) [4F5FE2F9] (AR v2)
Copy OK

Track 4

Filename C:\EAC Rips\04 You've Got To Pay.wav

Pre-gap length 0:00:01.14

Peak level 94.3 %
Extraction speed 3.9 X
Track quality 100.0 %
Test CRC 1CDA5AE8
Copy CRC 1CDA5AE8
Accurately ripped (confidence 3) [D8AB8EBA] (AR v2)
Copy OK

Track 5

Filename C:\EAC Rips\05 Touch.wav

Pre-gap length 0:00:01.41

Peak level 94.3 %
Extraction speed 4.0 X
Track quality 100.0 %
Test CRC 55B7ED38
Copy CRC 55B7ED38
Accurately ripped (confidence 3) [66DCDF32] (AR v2)
Copy OK

Track 6

Filename C:\EAC Rips\06 Pieces Of You.wav

Pre-gap length 0:00:01.17

Peak level 75.8 %
Extraction speed 4.2 X
Track quality 99.9 %
Test CRC 3A0B96EC
Copy CRC 3A0B96EC
Accurately ripped (confidence 3) [5202E152] (AR v2)
Copy OK

Track 7

Filename C:\EAC Rips\07 Love Is Not Real.wav

Pre-gap length 0:00:00.88

Peak level 94.3 %
Extraction speed 4.3 X
Track quality 99.9 %
Test CRC 19805732
Copy CRC 19805732
Accurately ripped (confidence 3) [935694A1] (AR v2)
Copy OK

Track 8

Filename C:\EAC Rips\08 Barbarellas.wav

Pre-gap length 0:00:01.18

Peak level 94.3 %
Extraction speed 4.8 X
Track quality 100.0 %
Test CRC B5869445
Copy CRC B5869445
Accurately ripped (confidence 3) [004576E3] (AR v2)
Copy OK

Track 9

Filename C:\EAC Rips\09 Tango In Mono.wav

Pre-gap length 0:00:01.09

Peak level 94.3 %
Extraction speed 5.0 X
Track quality 100.0 %
Test CRC D5F5E93A
Copy CRC D5F5E93A
Accurately ripped (confidence 3) [5E02336F] (AR v2)
Copy OK

Track 10

Filename C:\EAC Rips\10 Klean Living Kids.wav

Pre-gap length 0:00:00.68

Peak level 94.3 %
Extraction speed 5.1 X
Track quality 100.0 %
Test CRC 0F506947
Copy CRC 0F506947
Accurately ripped (confidence 3) [64586894] (AR v2)
Copy OK

Track 11

Filename C:\EAC Rips\11 Drummer Man.wav

Pre-gap length 0:00:01.08

Peak level 94.3 %
Extraction speed 5.2 X
Track quality 100.0 %
Test CRC FFFD956A
Copy CRC FFFD956A
Accurately ripped (confidence 3) [BA383BE1] (AR v2)
Copy OK

Track 12

Filename C:\EAC Rips\12 There Must Be Thousands.wav

Pre-gap length 0:00:01.12

Peak level 94.3 %
Extraction speed 5.2 X
Track quality 100.0 %
Test CRC 318F1BEF
Copy CRC 318F1BEF
Accurately ripped (confidence 3) [A68FFF64] (AR v2)
Copy OK

Track 13

Filename C:\EAC Rips\13 Culture Shock.wav

Pre-gap length 0:00:00.85

Peak level 94.3 %
Extraction speed 5.4 X
Track quality 100.0 %
Test CRC AAE2A935
Copy CRC AAE2A935
Accurately ripped (confidence 3) [54821B86] (AR v2)
Copy OK

Track 14

Filename C:\EAC Rips\14 Getting Nowhere Fast.wav

Pre-gap length 0:00:00.62

Peak level 94.3 %
Extraction speed 5.3 X
Track quality 100.0 %
Test CRC FFFE3E60
Copy CRC FFFE3E60
Accurately ripped (confidence 3) [292EB28A] (AR v2)
Copy OK

Track 15

Filename C:\EAC Rips\15 Downtown.wav

Pre-gap length 0:00:01.02

Peak level 94.3 %
Extraction speed 5.3 X
Track quality 99.9 %
Test CRC 5E9395CB
Copy CRC 5E9395CB
Accurately ripped (confidence 3) [D552E3F1] (AR v2)
Copy OK

Track 16

Filename C:\EAC Rips\16 Listen To Your Radio.wav

Pre-gap length 0:00:00.90

Peak level 94.3 %
Extraction speed 5.9 X
Track quality 100.0 %
Test CRC DC69240B
Copy CRC DC69240B
Accurately ripped (confidence 3) [F812703E] (AR v2)
Copy OK

Track 17

Filename C:\EAC Rips\17 Soldier Soldier.wav

Pre-gap length 0:00:00.96

Peak level 89.1 %
Extraction speed 5.9 X
Track quality 100.0 %
Test CRC A5DF33A0
Copy CRC A5DF33A0
Accurately ripped (confidence 3) [F1EB402A] (AR v2)
Copy OK

Track 18

Filename C:\EAC Rips\18 Get Out.wav

Pre-gap length 0:00:00.69

Peak level 94.3 %
Extraction speed 6.2 X
Track quality 100.0 %
Test CRC BFDF153B
Copy CRC BFDF153B
Accurately ripped (confidence 3) [51EA8374] (AR v2)
Copy OK

Track 19

Filename C:\EAC Rips\19 Talking Hands.wav

Pre-gap length 0:00:00.97

Peak level 85.1 %
Extraction speed 6.4 X
Track quality 100.0 %
Test CRC 2D533C7F
Copy CRC 2D533C7F
Accurately ripped (confidence 3) [C7EF833C] (AR v2)
Copy OK

Track 20

Filename C:\EAC Rips\20 One Step Ahead.wav

Pre-gap length 0:00:01.29

Suspicious position 0:03:10
Suspicious position 0:03:18 - 0:03:20
Suspicious position 0:03:26

Peak level 85.1 %
Extraction speed 0.9 X
Track quality 97.9 %
Test CRC 32F31488
Copy CRC 3924FEE5
Cannot be verified as accurate (confidence 3) [0A7BB0DB], AccurateRip returned [54A39B35] (AR v2)
Copy finished

Track 21

Filename C:\EAC Rips\21 Time Out.wav

Pre-gap length 0:00:01.04

Peak level 94.3 %
Extraction speed 6.3 X
Track quality 100.0 %
Test CRC DF401053
Copy CRC DF401053
Accurately ripped (confidence 3) [34ADBFFF] (AR v2)
Copy OK

Track 22

Filename C:\EAC Rips\22 Go Ahead.wav

Pre-gap length 0:00:00.86

Peak level 94.3 %
Extraction speed 6.2 X
Track quality 99.9 %
Test CRC 7616A224
Copy CRC 7616A224
Accurately ripped (confidence 3) [BD7900E9] (AR v2)
Copy OK

Track 23

Filename C:\EAC Rips\23 Nobody Loves Me.wav

Pre-gap length 0:00:01.49

Peak level 94.3 %
Extraction speed 6.8 X
Track quality 100.0 %
Test CRC 2F4ABF8E
Copy CRC 2F4ABF8E
Accurately ripped (confidence 3) [D6E76F66] (AR v2)
Copy OK

Track 24

Filename C:\EAC Rips\24 YT502951D.wav

Pre-gap length 0:00:00.53

Peak level 94.3 %
Extraction speed 7.0 X
Track quality 100.0 %
Test CRC E99BDB50
Copy CRC E99BDB50
Accurately ripped (confidence 3) [992FE63C] (AR v2)
Copy OK

Track 25

Filename C:\EAC Rips\25 Singing In The Showers.wav

Pre-gap length 0:00:00.93

Peak level 100.0 %
Extraction speed 6.5 X
Track quality 99.9 %
Test CRC 4383A86D
Copy CRC 4383A86D
Accurately ripped (confidence 4) [9499FCB0] (AR v2)
Copy OK

Track 26

Filename C:\EAC Rips\26 Language School.wav

Pre-gap length 0:00:00.69

Peak level 85.1 %
Extraction speed 7.1 X
Track quality 100.0 %
Test CRC 39AB9C84
Copy CRC 39AB9C84
Accurately ripped (confidence 4) [F9CFAA18] (AR v2)
Copy OK


25 track(s) accurately ripped
1 track(s) could not be verified as accurate

Some tracks could not be verified as accurate

There were errors

End of status report

–– CUETools DB Plugin V2.1.6

[CTDB TOCID: 3k9p_meBwdpYiFjl1gR26Bm9gD8-] found
Submit result: insufficient quality
Track | CTDB Status
1 | (4/4) Accurately ripped
2 | (4/4) Accurately ripped
3 | (4/4) Accurately ripped
4 | (4/4) Accurately ripped
5 | (4/4) Accurately ripped
6 | (4/4) Accurately ripped
7 | (4/4) Accurately ripped
8 | (4/4) Accurately ripped
9 | (4/4) Accurately ripped
10 | (4/4) Accurately ripped
11 | (4/4) Accurately ripped
12 | (4/4) Accurately ripped
13 | (4/4) Accurately ripped
14 | (4/4) Accurately ripped
15 | (4/4) Accurately ripped
16 | (4/4) Accurately ripped
17 | (4/4) Accurately ripped
18 | (4/4) Accurately ripped
19 | (4/4) Accurately ripped
20 | (4/4) Differs in 9 samples @03:19:13,03:19:31,03:20:51,03:26:02,03:26:59
21 | (4/4) Accurately ripped
22 | (4/4) Accurately ripped
23 | (4/4) Accurately ripped
24 | (4/4) Accurately ripped
25 | (4/4) Accurately ripped
26 | (4/4) Accurately ripped
If you are sure that your rip contains errors, you can use CUETools to repair it.


==== Log checksum 5E407D15AF0A67E17F367C9CA0D8746C70D5A4ED8E6EB67305ACC4D92FEC425C ====


Disc 3

1. The Skids - Charles
2. The Tights - Howard Hughes
3. The Form - Start Again
4. The Head - Nothing To Do In a Town Like Leatherhead
5. Pop - Tones – Wooden Heart
6. Disguise - Juvenile Delinquent
7. Dolly Mixture - Been Teen
8. The Teenage Filmstars - Helped Patrick McGoohan Escape
9. Apocalypse - Teddy
10. Tinopeners - Set Me Free
11. The Plague - In Love
12. The Crack - Easy Street
13. The Smirks - Angry With Myself
14. Straightshooter - She's So Fine
15. Bleeding Hearts - This is the Way…OK?
16. Apartment - The Car
17. Knife Edge - Say You Will
18. The Tea Set - Parry Thomas
19. The Zips - Take Me Down
20. Really 3rds - Everyday, Everyway
21. The Kicks - If Looks Could Kill
22. TPI - She's Too Clever For Me
23. Gobblinz - Love Me Too
24. The Moondogs - She's Nineteen
25. Generation X - Wild Dub

Exact Audio Copy V1.3 from 2. September 2016

EAC extraction logfile from 16. April 2018, 22:31

Various Artists / Gary Crowley's Punk And New Wave

Used drive : HL-DT-STDVDRAM GE20LU10 Adapter: 1 ID: 0

Read mode : Secure
Utilize accurate stream : Yes
Defeat audio cache : No
Make use of C2 pointers : No

Read offset correction : 667
Overread into Lead-In and Lead-Out : No
Fill up missing offset samples with silence : Yes
Delete leading and trailing silent blocks : No
Null samples used in CRC calculations : Yes
Used interface : Native Win32 interface for Win NT & 2000
Gap handling : Appended to previous track

Used output format : User Defined Encoder
Selected bitrate : 1024 kBit/s
Quality : High
Add ID3 tag : No
Command line compressor : C:\Program Files (x86)\Exact Audio Copy\Flac\flac.exe
Additional command line options : -8 -V -T "ARTIST=%artist%" -T "TITLE=%title%" -T "ALBUM=%albumtitle%" -T "DATE=%year%" -T "TRACKNUMBER=%tracknr%" -T "GENRE=%genre%" -T "PERFORMER=%albuminterpret%" -T "COMPOSER=%composer%" %haslyrics%–tag-from-file=LYRICS="%lyricsfile%"%haslyrics% -T "ALBUMARTIST=%albumartist%" -T "DISCNUMBER=%cdnumber%" -T "TOTALDISCS=%totalcds%" -T "TOTALTRACKS=%numtracks%" -T "COMMENT=%comment%" %source% -o %dest%


TOC of the extracted CD

Track | Start | Length | Start sector | End sector
––––––––––––––––––––––––––––-
1 | 0:00.00 | 2:43.19 | 0 | 12243
2 | 2:43.19 | 4:37.51 | 12244 | 33069
3 | 7:20.70 | 3:12.23 | 33070 | 47492
4 | 10:33.18 | 2:28.62 | 47493 | 58654
5 | 13:02.05 | 2:57.09 | 58655 | 71938
6 | 15:59.14 | 3:00.43 | 71939 | 85481
7 | 18:59.57 | 2:27.29 | 85482 | 96535
8 | 21:27.11 | 2:54.71 | 96536 | 109656
9 | 24:22.07 | 3:09.39 | 109657 | 123870
10 | 27:31.46 | 2:36.50 | 123871 | 135620
11 | 30:08.21 | 4:04.52 | 135621 | 153972
12 | 34:12.73 | 3:37.43 | 153973 | 170290
13 | 37:50.41 | 3:12.42 | 170291 | 184732
14 | 41:03.08 | 2:40.48 | 184733 | 196780
15 | 43:43.56 | 2:54.50 | 196781 | 209880
16 | 46:38.31 | 2:08.68 | 209881 | 219548
17 | 48:47.24 | 3:08.50 | 219549 | 233698
18 | 51:55.74 | 4:42.74 | 233699 | 254922
19 | 56:38.73 | 2:38.37 | 254923 | 266809
20 | 59:17.35 | 2:49.59 | 266810 | 279543
21 | 62:07.19 | 3:25.47 | 279544 | 294965
22 | 65:32.66 | 3:53.42 | 294966 | 312482
23 | 69:26.33 | 2:36.44 | 312483 | 324226
24 | 72:03.02 | 2:46.10 | 324227 | 336686
25 | 74:49.12 | 3:46.21 | 336687 | 353657


Track 1

Filename C:\EAC Rips\01 Charles.wav

Pre-gap length 0:00:02.00

Peak level 94.3 %
Extraction speed 6.0 X
Track quality 100.0 %
Test CRC 3F23D195
Copy CRC 3F23D195
Accurately ripped (confidence 4) [496FD4E4] (AR v2)
Copy OK

Track 2

Filename C:\EAC Rips\02 Howard Hughes.wav

Pre-gap length 0:00:00.64

Peak level 94.3 %
Extraction speed 7.0 X
Track quality 100.0 %
Test CRC D0A520C9
Copy CRC D0A520C9
Accurately ripped (confidence 4) [A8BE3F3F] (AR v2)
Copy OK

Track 3

Filename C:\EAC Rips\03 Start Again.wav

Pre-gap length 0:00:01.12

Peak level 94.3 %
Extraction speed 7.5 X
Track quality 100.0 %
Test CRC 7C25247F
Copy CRC 7C25247F
Accurately ripped (confidence 4) [1E423EEC] (AR v2)
Copy OK

Track 4

Filename C:\EAC Rips\04 Nothing To Do In A Town Like Leather head.wav

Pre-gap length 0:00:01.18

Peak level 88.0 %
Extraction speed 7.9 X
Track quality 100.0 %
Test CRC A8ADF432
Copy CRC A8ADF432
Accurately ripped (confidence 4) [60535135] (AR v2)
Copy OK

Track 5

Filename C:\EAC Rips\05 Wooden Heart.wav

Pre-gap length 0:00:01.20

Peak level 94.3 %
Extraction speed 7.8 X
Track quality 100.0 %
Test CRC 6FA502E7
Copy CRC 6FA502E7
Accurately ripped (confidence 4) [A6CDD2B1] (AR v2)
Copy OK

Track 6

Filename C:\EAC Rips\06 Juvenile Delinquent.wav

Pre-gap length 0:00:01.20

Peak level 94.3 %
Extraction speed 7.8 X
Track quality 99.9 %
Test CRC 9FAF3524
Copy CRC 9FAF3524
Accurately ripped (confidence 4) [9608EE7E] (AR v2)
Copy OK

Track 7

Filename C:\EAC Rips\07 Been Teen.wav

Pre-gap length 0:00:01.28

Peak level 94.3 %
Extraction speed 7.9 X
Track quality 99.9 %
Test CRC EFF19BB6
Copy CRC EFF19BB6
Accurately ripped (confidence 4) [B49BD1E6] (AR v2)
Copy OK

Track 8

Filename C:\EAC Rips\08 I Helped Patrick McGoohan Escape.wav

Pre-gap length 0:00:01.20

Peak level 94.3 %
Extraction speed 8.4 X
Track quality 99.9 %
Test CRC 789E0A0D
Copy CRC 789E0A0D
Accurately ripped (confidence 4) [76CADDCE] (AR v2)
Copy OK

Track 9

Filename C:\EAC Rips\09 Teddy.wav

Pre-gap length 0:00:01.42

Peak level 94.3 %
Extraction speed 9.1 X
Track quality 100.0 %
Test CRC 593FF105
Copy CRC 593FF105
Accurately ripped (confidence 4) [85F90F2C] (AR v2)
Copy OK

Track 10

Filename C:\EAC Rips\10 Set Me Free.wav

Pre-gap length 0:00:01.14

Peak level 85.1 %
Extraction speed 8.8 X
Track quality 99.9 %
Test CRC 1547DD18
Copy CRC 1547DD18
Accurately ripped (confidence 4) [2242CE74] (AR v2)
Copy OK

Track 11

Filename C:\EAC Rips\11 In Love.wav

Pre-gap length 0:00:01.32

Peak level 94.3 %
Extraction speed 9.5 X
Track quality 99.9 %
Test CRC 0FF0266B
Copy CRC 0FF0266B
Accurately ripped (confidence 4) [246B3FDC] (AR v2)
Copy OK

Track 12

Filename C:\EAC Rips\12 Easy Street.wav

Pre-gap length 0:00:01.57

Peak level 94.3 %
Extraction speed 10.6 X
Track quality 100.0 %
Test CRC A41E4454
Copy CRC A41E4454
Accurately ripped (confidence 4) [0948CFB9] (AR v2)
Copy OK

Track 13

Filename C:\EAC Rips\13 Angry With Myself.wav

Pre-gap length 0:00:01.16

Peak level 94.3 %
Extraction speed 9.9 X
Track quality 99.9 %
Test CRC A6B73322
Copy CRC A6B73322
Accurately ripped (confidence 4) [22C4AF84] (AR v2)
Copy OK

Track 14

Filename C:\EAC Rips\14 She's So Fine.wav

Pre-gap length 0:00:01.06

Peak level 94.3 %
Extraction speed 9.7 X
Track quality 99.9 %
Test CRC F617A469
Copy CRC F617A469
Accurately ripped (confidence 4) [8C1E2AB4] (AR v2)
Copy OK

Track 15

Filename C:\EAC Rips\15 This Is The Way…OK.wav

Pre-gap length 0:00:00.69

Peak level 94.3 %
Extraction speed 10.9 X
Track quality 100.0 %
Test CRC 1A84E241
Copy CRC 1A84E241
Accurately ripped (confidence 4) [9852D883] (AR v2)
Copy OK

Track 16

Filename C:\EAC Rips\16 The Car.wav

Pre-gap length 0:00:01.30

Peak level 94.3 %
Extraction speed 11.0 X
Track quality 100.0 %
Test CRC B63B526C
Copy CRC B63B526C
Accurately ripped (confidence 4) [64C26666] (AR v2)
Copy OK

Track 17

Filename C:\EAC Rips\17 Say You Will.wav

Pre-gap length 0:00:00.77

Peak level 94.3 %
Extraction speed 11.2 X
Track quality 100.0 %
Test CRC 1E36F914
Copy CRC 1E36F914
Accurately ripped (confidence 4) [813BA5DD] (AR v2)
Copy OK

Track 18

Filename C:\EAC Rips\18 Parry Thomas.wav

Pre-gap length 0:00:00.92

Peak level 94.3 %
Extraction speed 9.4 X
Track quality 99.9 %
Test CRC 3F06085E
Copy CRC 3F06085E
Accurately ripped (confidence 4) [93BA43FB] (AR v2)
Copy OK

Track 19

Filename C:\EAC Rips\19 Take Me Down.wav

Pre-gap length 0:00:01.17

Peak level 94.3 %
Extraction speed 8.5 X
Track quality 99.8 %
Test CRC EC365BB1
Copy CRC EC365BB1
Accurately ripped (confidence 4) [01979DC3] (AR v2)
Copy OK

Track 20

Filename C:\EAC Rips\20 Everday, Everyway.wav

Pre-gap length 0:00:01.24

Peak level 94.3 %
Extraction speed 11.6 X
Track quality 100.0 %
Test CRC EEDB3A19
Copy CRC EEDB3A19
Accurately ripped (confidence 4) [D2DAEF7B] (AR v2)
Copy OK

Track 21

Filename C:\EAC Rips\21 If Looks Could Kill.wav

Pre-gap length 0:00:00.78

Peak level 94.3 %
Extraction speed 12.0 X
Track quality 100.0 %
Test CRC C718644D
Copy CRC C718644D
Accurately ripped (confidence 4) [11C8DFA1] (AR v2)
Copy OK

Track 22

Filename C:\EAC Rips\22 She's Too Clever For Me.wav

Pre-gap length 0:00:01.37

Peak level 94.3 %
Extraction speed 11.5 X
Track quality 100.0 %
Test CRC A02A9799
Copy CRC A02A9799
Accurately ripped (confidence 4) [8D3CD2B2] (AR v2)
Copy OK

Track 23

Filename C:\EAC Rips\23 Love Me Too.wav

Pre-gap length 0:00:01.21

Peak level 94.3 %
Extraction speed 11.4 X
Track quality 100.0 %
Test CRC B37DF3FC
Copy CRC B37DF3FC
Accurately ripped (confidence 4) [57129EC6] (AR v2)
Copy OK

Track 24

Filename C:\EAC Rips\24 She's Nineteen.wav

Pre-gap length 0:00:00.70

Peak level 94.3 %
Extraction speed 12.2 X
Track quality 100.0 %
Test CRC B89DDB1C
Copy CRC B89DDB1C
Accurately ripped (confidence 4) [4DC8B081] (AR v2)
Copy OK

Track 25

Filename C:\EAC Rips\25 Wild Dub.wav

Pre-gap length 0:00:01.00

Peak level 94.3 %
Extraction speed 11.9 X
Track quality 100.0 %
Test CRC 14E6A589
Copy CRC 14E6A589
Accurately ripped (confidence 4) [E7510C56] (AR v2)
Copy OK


All tracks accurately ripped

No errors occurred

End of status report

–– CUETools DB Plugin V2.1.6

[CTDB TOCID: 93YPTyfUkfCVQNz6bh50t_wMLVE-] found
Submit result: already submitted
Track | CTDB Status
1 | (6/6) Accurately ripped
2 | (6/6) Accurately ripped
3 | (6/6) Accurately ripped
4 | (6/6) Accurately ripped
5 | (6/6) Accurately ripped
6 | (6/6) Accurately ripped
7 | (6/6) Accurately ripped
8 | (6/6) Accurately ripped
9 | (6/6) Accurately ripped
10 | (6/6) Accurately ripped
11 | (6/6) Accurately ripped
12 | (6/6) Accurately ripped
13 | (6/6) Accurately ripped
14 | (6/6) Accurately ripped
15 | (6/6) Accurately ripped
16 | (6/6) Accurately ripped
17 | (6/6) Accurately ripped
18 | (6/6) Accurately ripped
19 | (6/6) Accurately ripped
20 | (6/6) Accurately ripped
21 | (6/6) Accurately ripped
22 | (6/6) Accurately ripped
23 | (6/6) Accurately ripped
24 | (6/6) Accurately ripped
25 | (6/6) Accurately ripped


==== Log checksum 13A6518CB64412C142315C9E93515733941B1F6094F78EB18E150C79595B832F ====