VA - Girls Will Be Girls, Vol 1 (1999) *Re-Up*

Posted By: firepower
VA - Girls Will Be Girls, Vol 1 (1999) *Re-Up*

VA - Girls Will Be Girls, Vol 1 (1999)
EAC, FLAC image, CUE+LOG - 331 MB | MP3 CBR 320 - 182 MB | Complete 600dpi Artwork, JPEG - 60 MB or TIFF - 251 MB
Rock | Westside WESM 600 | 5% recovery record | Source: My CD

Girls Will Be Girls, Vol. 1 is for collectors whose interest in 1960s girl groups has taken them beyond hits into the realm of demos, obscurities, and previously unreleased material. The recordings, made between 1962-1966, are drawn from a number of labels such as Colpix, Dimension, Roulette, Jubilee, and DynoVoice. The Jewels' "But I Do" is the sole chart hit, having peaked at a lofty number 130 in 1965. The Tammys, Diane Renay, and the Bobbettes will be familiar to many listeners, while Jessica James (aka Peggy Santiglia) may not be well known on her own but was the lead singer of the Angels. An obscure hitless group called the Boyd Sisters steal the show with their dramatic renditions of angst-ridden teen ballads like "I Can't Wait ('Till I Grow Up)." The Barry Sisters show that they could make passable '60s-style girl group records, and Marie Applebee delivers – in master and demo versions – the bizarre "The Boy Who Took My Heart (Took My Mind)." The centerpiece for collectors may be the three cuts from the long-lost demonstration tape that got the Essex signed to Roulette Records. The recordings on Girls Will Be Girls, Vol. 1, commercial failure notwithstanding, were held to high production standards and masterminded by talented people, so fans of the genre will find much of interest.
VA - Girls Will Be Girls, Vol 1 (1999) *Re-Up*

Tracklist:

01 - Lorie Burton - Yeh Yeh Yeh (That Boy Of Mine)
02 - Emeralds - Did You Ever Love A Guy
03 - Boyd Sisters - I'm Just Barely Sixteen
04 - Jet Set - The Jet Set
05 - Elena - 007
06 - Bernadette Castro - A Girl In Love Forgives
07 - Jessica James & The Outlaws - Give Her Up (Baby)
08 - Pearlettes - Because We're Very Young
09 - Renee St. Clair - My Hero
10 - Boyd Sisters - I Can't Wait ('til I Grow Up)
11 - Chic-Lets - I Want You To Be My Boyfriend
12 - Tammys - The Big Time
13 - Anita Humes & The Essex - I'll Let The Boys Know
14 - Emeralds - Dancing Alone
15 - Toni Wine - A Boy Like You
16 - Stacey Cane - Funny Face
17 - Barry Sisters - I Must Be Dreaming
18 - Diane Renay - The Company You Keep
19 - Anita Humes & The Essex - You Better Go For Yourself
20 - Sherrel Townsend - He Thinks I Still Care
21 - Caroline Day - Teenage Prayer
22 - Spandells - The Boy Next Door
23 - Jewels - But I Do
24 - Boyd Sisters - I Can Get Him
25 - Barbara English & The Fashions - We Need Them
26 - Bobbettes - Over There
27 - Cinderellas - Good Good Lovin'
28 - Anita Humes & The Essex - You Don't Owe Me Anything
29 - Annabelle Fox - Lonely Girl
30 - Marie Applebee - The Boy Who Took My Heart (Took My Mind) (Demo)
31 - Marie Applebee - The Boy Who Took My Heart (Took My Mind)

VA - Girls Will Be Girls, Vol 1 (1999) *Re-Up*

VA - Girls Will Be Girls, Vol 1 (1999) *Re-Up*

VA - Girls Will Be Girls, Vol 1 (1999) *Re-Up*

Exact Audio Copy V1.0 beta 2 from 29. April 2011

EAC extraction logfile from 4. January 2012, 11:56

VA / Girls Will Be Girls, Vol 1

Used drive : LITE-ON LTR-52327S Adapter: 0 ID: 1

Read mode : Secure
Utilize accurate stream : Yes
Defeat audio cache : Yes
Make use of C2 pointers : No

Read offset correction : 6
Overread into Lead-In and Lead-Out : No
Fill up missing offset samples with silence : Yes
Delete leading and trailing silent blocks : No
Null samples used in CRC calculations : Yes
Used interface : Native Win32 interface for Win NT & 2000

Used output format : Internal WAV Routines
Sample format : 44.100 Hz; 16 Bit; Stereo


TOC of the extracted CD

Track | Start | Length | Start sector | End sector
––––––––––––––––––––––––––––-
1 | 0:00.00 | 2:38.05 | 0 | 11854
2 | 2:38.05 | 2:42.12 | 11855 | 24016
3 | 5:20.17 | 2:14.10 | 24017 | 34076
4 | 7:34.27 | 2:40.58 | 34077 | 46134
5 | 10:15.10 | 2:12.65 | 46135 | 56099
6 | 12:28.00 | 2:21.52 | 56100 | 66726
7 | 14:49.52 | 2:28.58 | 66727 | 77884
8 | 17:18.35 | 2:02.22 | 77885 | 87056
9 | 19:20.57 | 2:15.55 | 87057 | 97236
10 | 21:36.37 | 2:35.18 | 97237 | 108879
11 | 24:11.55 | 1:58.55 | 108880 | 117784
12 | 26:10.35 | 2:49.62 | 117785 | 130521
13 | 29:00.22 | 1:55.48 | 130522 | 139194
14 | 30:55.70 | 2:47.40 | 139195 | 151759
15 | 33:43.35 | 2:19.67 | 151760 | 162251
16 | 36:03.27 | 1:59.63 | 162252 | 171239
17 | 38:03.15 | 2:36.35 | 171240 | 182974
18 | 40:39.50 | 2:46.17 | 182975 | 195441
19 | 43:25.67 | 3:09.43 | 195442 | 209659
20 | 46:35.35 | 2:30.40 | 209660 | 220949
21 | 49:06.00 | 2:24.05 | 220950 | 231754
22 | 51:30.05 | 2:29.57 | 231755 | 242986
23 | 53:59.62 | 2:27.28 | 242987 | 254039
24 | 56:27.15 | 2:30.07 | 254040 | 265296
25 | 58:57.22 | 2:17.08 | 265297 | 275579
26 | 61:14.30 | 2:19.45 | 275580 | 286049
27 | 63:34.00 | 2:38.45 | 286050 | 297944
28 | 66:12.45 | 2:35.52 | 297945 | 309621
29 | 68:48.22 | 2:06.53 | 309622 | 319124
30 | 70:55.00 | 2:00.15 | 319125 | 328139
31 | 72:55.15 | 2:54.37 | 328140 | 341226


Range status and errors

Selected range

Filename D:\My Rips\VA - Girls Will Be Girls, Vol 1.wav

Peak level 100.0 %
Extraction speed 10.5 X
Range quality 99.9 %
Test CRC 3FEB48C2
Copy CRC 3FEB48C2
Copy OK

No errors occurred


AccurateRip summary

Track 1 accurately ripped (confidence 1) [2C5D0652] (AR v1)
Track 2 accurately ripped (confidence 1) [F3B246A9] (AR v1)
Track 3 accurately ripped (confidence 1) [A60F5F8E] (AR v1)
Track 4 accurately ripped (confidence 1) [3532FD4A] (AR v1)
Track 5 accurately ripped (confidence 1) [36718BF8] (AR v1)
Track 6 accurately ripped (confidence 1) [FEF4B27F] (AR v1)
Track 7 accurately ripped (confidence 1) [21B020EA] (AR v1)
Track 8 accurately ripped (confidence 1) [592C3BA9] (AR v1)
Track 9 accurately ripped (confidence 1) [533FA84E] (AR v1)
Track 10 accurately ripped (confidence 1) [4F4717B7] (AR v1)
Track 11 accurately ripped (confidence 1) [061BCBDD] (AR v1)
Track 12 accurately ripped (confidence 1) [37480037] (AR v1)
Track 13 accurately ripped (confidence 1) [DF285E2B] (AR v1)
Track 14 accurately ripped (confidence 1) [29823EF2] (AR v1)
Track 15 accurately ripped (confidence 1) [60688EB3] (AR v1)
Track 16 accurately ripped (confidence 1) [901BF922] (AR v1)
Track 17 accurately ripped (confidence 1) [C4A89560] (AR v1)
Track 18 accurately ripped (confidence 1) [6C0D3CBD] (AR v1)
Track 19 accurately ripped (confidence 1) [8912AE1D] (AR v1)
Track 20 accurately ripped (confidence 1) [6588CFDA] (AR v1)
Track 21 accurately ripped (confidence 1) [32D8C68D] (AR v1)
Track 22 accurately ripped (confidence 1) [9C9847D6] (AR v1)
Track 23 accurately ripped (confidence 1) [23069244] (AR v1)
Track 24 accurately ripped (confidence 1) [16A9EA7E] (AR v1)
Track 25 accurately ripped (confidence 1) [0A5CB93E] (AR v1)
Track 26 accurately ripped (confidence 1) [B52DD9A5] (AR v1)
Track 27 accurately ripped (confidence 1) [67668A7A] (AR v1)
Track 28 accurately ripped (confidence 1) [FD6B14AE] (AR v1)
Track 29 accurately ripped (confidence 1) [E818D446] (AR v1)
Track 30 accurately ripped (confidence 1) [363D610C] (AR v1)
Track 31 accurately ripped (confidence 1) [8E619A83] (AR v1)

All tracks accurately ripped

End of status report

==== Log checksum C5C10FBE564DA7261D1E8D45CB706886E93FB733A714C83E268D0F6CD0D337AF ====


Note that there is no artwork included in the music archives. JPEG & TIF are available in separate archives.
This issue has a nice booklet.
All files are fully tagged.
5% recovery record
-NF-

Password = avaxhome