Subcategories

VA - The 80s Tapes: Pop and Wave (2007)

Posted By: El Misha
VA - The 80s Tapes: Pop and Wave (2007)

VA - The 80s Tapes: Pop and Wave (2007)
EAC Rip | FLAC (tracks & cue & log) -> 896 MB | Full Artwork @ (jpg, 600 dpi) -> 51.9 MB | 02:12:37
Genre: Pop, New Wave, Electronic, Rock | Label: Sony BMG Music | # 88697136682

Steep during an era! This music will be lasts eternally if I replace batteries!



Tracklist:

Exact Audio Copy V1.0 beta 6 from 9. April 2015

EAC extraction logfile from 28. August 2015, 10:56

Various Artists / The 80s Tapes (Pop & Wave) - CD1

Used drive : PIONEER DVD-RW DVR-221L Adapter: 1 ID: 0

Read mode : Secure
Utilize accurate stream : Yes
Defeat audio cache : Yes
Make use of C2 pointers : No

Read offset correction : 6
Overread into Lead-In and Lead-Out : No
Fill up missing offset samples with silence : Yes
Delete leading and trailing silent blocks : No
Null samples used in CRC calculations : Yes
Used interface : Native Win32 interface for Win NT & 2000
Gap handling : Appended to previous track

Used output format : User Defined Encoder
Selected bitrate : 1024 kBit/s
Quality : High
Add ID3 tag : Yes
Command line compressor : C:\Program Files (x86)\Exact Audio Copy\FLAC\FLAC.EXE
Additional command line options : -6 -V -T "COMMENT=Ripped by RRCLtd" -T "ARTIST=%artist%" -T "TITLE=%title%" -T "ALBUM=%albumtitle%" -T "DATE=%year%" -T "TRACKNUMBER=%tracknr%" -T "GENRE=%genre%" -T "BAND=%albuminterpret%" -T "ALBUMARTIST=%albuminterpret%" -T "COMPOSER=%composer%" %haslyrics%–tag-from-file=LYRICS="%lyricsfile%"%haslyrics% -T "DISCNUMBER=%cdnumber%" -T "TOTALDISCS=%totalcds%" -T "TOTALTRACKS=%numtracks%" %hascover%–picture="%coverfile%"%hascover% %source%


TOC of the extracted CD

Track | Start | Length | Start sector | End sector
––––––––––––––––––––––––––––-
1 | 0:00.00 | 2:37.29 | 0 | 11803
2 | 2:37.29 | 4:30.45 | 11804 | 32098
3 | 7:07.74 | 3:50.00 | 32099 | 49348
4 | 10:57.74 | 5:35.68 | 49349 | 74541
5 | 16:33.67 | 5:33.15 | 74542 | 99531
6 | 22:07.07 | 3:46.42 | 99532 | 116523
7 | 25:53.49 | 3:51.55 | 116524 | 133903
8 | 29:45.29 | 5:05.05 | 133904 | 156783
9 | 34:50.34 | 3:35.18 | 156784 | 172926
10 | 38:25.52 | 3:41.22 | 172927 | 189523
11 | 42:06.74 | 2:35.07 | 189524 | 201155
12 | 44:42.06 | 3:47.26 | 201156 | 218206
13 | 48:29.32 | 4:00.69 | 218207 | 236275
14 | 52:30.26 | 3:32.48 | 236276 | 252223
15 | 56:02.74 | 5:17.12 | 252224 | 276010
16 | 61:20.11 | 4:36.32 | 276011 | 296742


Track 1

Filename G:\For new-team.org\01-Soft Cell-Tainted Love.wav

Pre-gap length 0:00:02.00

Peak level 90.6 %
Extraction speed 3.4 X
Track quality 99.9 %
Test CRC 4CF8DB98
Copy CRC 4CF8DB98
Accurately ripped (confidence 6) [A469F879] (AR v2)
Copy OK

Track 2

Filename G:\For new-team.org\02-Men Without Hats-Safety Dance.wav

Pre-gap length 0:00:01.44

Peak level 99.8 %
Extraction speed 4.4 X
Track quality 99.9 %
Test CRC 05DA5E72
Copy CRC 05DA5E72
Accurately ripped (confidence 6) [C7F154FB] (AR v2)
Copy OK

Track 3

Filename G:\For new-team.org\03-Propaganda-P-Machinery.wav

Pre-gap length 0:00:01.44

Peak level 94.3 %
Extraction speed 5.5 X
Track quality 100.0 %
Test CRC 2CD7A48B
Copy CRC 2CD7A48B
Accurately ripped (confidence 6) [400E01C0] (AR v2)
Copy OK

Track 4

Filename G:\For new-team.org\04-Animotion-Obsession.wav

Pre-gap length 0:00:01.44

Peak level 99.0 %
Extraction speed 6.2 X
Track quality 100.0 %
Test CRC 88DF30F7
Copy CRC 88DF30F7
Accurately ripped (confidence 6) [C1FF758F] (AR v2)
Copy OK

Track 5

Filename G:\For new-team.org\05-S'Express-Theme From S'Express.wav

Pre-gap length 0:00:01.44

Peak level 93.3 %
Extraction speed 6.7 X
Track quality 100.0 %
Test CRC 48232D70
Copy CRC 48232D70
Accurately ripped (confidence 6) [5CB69479] (AR v2)
Copy OK

Track 6

Filename G:\For new-team.org\06-Sigue Sigue Sputnik-Love Missile.wav

Pre-gap length 0:00:01.44

Peak level 89.0 %
Extraction speed 6.8 X
Track quality 100.0 %
Test CRC 98E54439
Copy CRC 98E54439
Accurately ripped (confidence 6) [816D3B80] (AR v2)
Copy OK

Track 7

Filename G:\For new-team.org\07-Visage-Fade To Grey.wav

Pre-gap length 0:00:01.44

Peak level 99.0 %
Extraction speed 5.6 X
Track quality 99.9 %
Test CRC 19047A5A
Copy CRC 19047A5A
Accurately ripped (confidence 6) [1AAEA69B] (AR v2)
Copy OK

Track 8

Filename G:\For new-team.org\08-Liaisons Dangereuses-Los Niños Del Parque.wav

Pre-gap length 0:00:01.44

Peak level 98.7 %
Extraction speed 7.7 X
Track quality 100.0 %
Test CRC 5D4728B9
Copy CRC 5D4728B9
Accurately ripped (confidence 6) [8F6ED913] (AR v2)
Copy OK

Track 9

Filename G:\For new-team.org\09-Adam & The Ants-Stand And Deliver.wav

Pre-gap length 0:00:01.44

Peak level 92.2 %
Extraction speed 7.6 X
Track quality 100.0 %
Test CRC F5B2FA8C
Copy CRC F5B2FA8C
Accurately ripped (confidence 6) [D11E1F6A] (AR v2)
Copy OK

Track 10

Filename G:\For new-team.org\10-Thomas Dolby-She Blinded Me With Science.wav

Pre-gap length 0:00:01.42

Peak level 98.8 %
Extraction speed 7.8 X
Track quality 100.0 %
Test CRC 74D4C1B4
Copy CRC 74D4C1B4
Accurately ripped (confidence 6) [473C0702] (AR v2)
Copy OK

Track 11

Filename G:\For new-team.org\11-New Model Army-51st State.wav

Pre-gap length 0:00:01.43

Peak level 91.1 %
Extraction speed 7.6 X
Track quality 100.0 %
Test CRC 9A55B507
Copy CRC 9A55B507
Accurately ripped (confidence 6) [2AEAE3A2] (AR v2)
Copy OK

Track 12

Filename G:\For new-team.org\12-Freur-Doot-Doot.wav

Pre-gap length 0:00:01.44

Peak level 88.0 %
Extraction speed 8.2 X
Track quality 100.0 %
Test CRC 6B4D7246
Copy CRC 6B4D7246
Accurately ripped (confidence 6) [C480ED28] (AR v2)
Copy OK

Track 13

Filename G:\For new-team.org\13-Blancmange-Living On The Ceiling.wav

Pre-gap length 0:00:01.44

Peak level 93.3 %
Extraction speed 8.6 X
Track quality 100.0 %
Test CRC 0874BE06
Copy CRC 0874BE06
Accurately ripped (confidence 6) [A6156E24] (AR v2)
Copy OK

Track 14

Filename G:\For new-team.org\14-Psychedelic Furs, The-Love My Way.wav

Pre-gap length 0:00:01.43

Peak level 91.3 %
Extraction speed 8.8 X
Track quality 100.0 %
Test CRC 2664CE5F
Copy CRC 2664CE5F
Accurately ripped (confidence 6) [D7F97A60] (AR v2)
Copy OK

Track 15

Filename G:\For new-team.org\15-Japan-All Tomorrow's Parties.wav

Pre-gap length 0:00:01.43

Peak level 95.4 %
Extraction speed 9.5 X
Track quality 100.0 %
Test CRC AA3E224D
Copy CRC AA3E224D
Accurately ripped (confidence 6) [11DF6332] (AR v2)
Copy OK

Track 16

Filename G:\For new-team.org\16-Art Of Noise-Moments In Love.wav

Pre-gap length 0:00:01.43

Peak level 98.8 %
Extraction speed 9.5 X
Track quality 100.0 %
Test CRC DAC5E5C9
Copy CRC DAC5E5C9
Accurately ripped (confidence 6) [5AEB1B14] (AR v2)
Copy OK


All tracks accurately ripped

No errors occurred

End of status report

–– CUETools DB Plugin V2.1.6

[CTDB TOCID: b4btuZzebNxCnMpQgzqATrX.6MQ-] found
Submit result: already submitted
Track | CTDB Status
1 | (10/10) Accurately ripped
2 | (10/10) Accurately ripped
3 | (10/10) Accurately ripped
4 | (10/10) Accurately ripped
5 | (10/10) Accurately ripped
6 | (10/10) Accurately ripped
7 | (10/10) Accurately ripped
8 | (10/10) Accurately ripped
9 | (10/10) Accurately ripped
10 | (10/10) Accurately ripped
11 | (10/10) Accurately ripped
12 | (10/10) Accurately ripped
13 | (10/10) Accurately ripped
14 | (10/10) Accurately ripped
15 | (10/10) Accurately ripped
16 | (10/10) Accurately ripped


==== Log checksum 25956F5DAB1FBAE2399C2927C3F0F584EB78D5DB0BE942E6F683C28A4832B938 ====


CD 1

01. Tainted Love (Soft Cell) [02:37]
02. Safety Dance (Men Without Hats) [04:30]
03. P-Machinery (Propaganda) [03:49]
04. Obsession (Animotion) [05:35]
05. Theme From Sexpress (SExpress) [05:33]
06. Love Missile (Sigue Sigue Sputnik) [03:46]
07. Fade To Grey (Visage) [03:51]
08. Los Ninos Del Parque (Liaisons Dangereuses) [05:05]
09. Stand And Deliver (Adam & The Ants) [03:35]
10. She Blinded Me With Science (Thomas Dolby) [03:41]
11. 51St State (New Model Army) [02:35]
12. Doot-Doot (Freur) [03:47]
13. Living On The Ceiling (Blancmange) [04:00]
14. Love My Way (Psychedelic Furs, The) [03:32]
15. All Tomorrows Parties (Japan) [05:17]
16. Moments In Love (Art Of Noise) [04:36]

Exact Audio Copy V1.0 beta 6 from 9. April 2015

EAC extraction logfile from 28. August 2015, 11:20

Various Artists / The 80s Tapes: Pop & Wave - Side B

Used drive : PIONEER DVD-RW DVR-221L Adapter: 1 ID: 0

Read mode : Secure
Utilize accurate stream : Yes
Defeat audio cache : Yes
Make use of C2 pointers : No

Read offset correction : 6
Overread into Lead-In and Lead-Out : No
Fill up missing offset samples with silence : Yes
Delete leading and trailing silent blocks : No
Null samples used in CRC calculations : Yes
Used interface : Native Win32 interface for Win NT & 2000
Gap handling : Appended to previous track

Used output format : User Defined Encoder
Selected bitrate : 1024 kBit/s
Quality : High
Add ID3 tag : Yes
Command line compressor : C:\Program Files (x86)\Exact Audio Copy\FLAC\FLAC.EXE
Additional command line options : -6 -V -T "COMMENT=Ripped by RRCLtd" -T "ARTIST=%artist%" -T "TITLE=%title%" -T "ALBUM=%albumtitle%" -T "DATE=%year%" -T "TRACKNUMBER=%tracknr%" -T "GENRE=%genre%" -T "BAND=%albuminterpret%" -T "ALBUMARTIST=%albuminterpret%" -T "COMPOSER=%composer%" %haslyrics%–tag-from-file=LYRICS="%lyricsfile%"%haslyrics% -T "DISCNUMBER=%cdnumber%" -T "TOTALDISCS=%totalcds%" -T "TOTALTRACKS=%numtracks%" %hascover%–picture="%coverfile%"%hascover% %source%


TOC of the extracted CD

Track | Start | Length | Start sector | End sector
––––––––––––––––––––––––––––-
1 | 0:00.00 | 4:15.00 | 0 | 19124
2 | 4:15.00 | 4:26.19 | 19125 | 39093
3 | 8:41.19 | 5:30.61 | 39094 | 63904
4 | 14:12.05 | 3:57.12 | 63905 | 81691
5 | 18:09.17 | 4:46.30 | 81692 | 103171
6 | 22:55.47 | 4:24.28 | 103172 | 122999
7 | 27:20.00 | 4:41.24 | 123000 | 144098
8 | 32:01.24 | 3:22.46 | 144099 | 159294
9 | 35:23.70 | 3:13.42 | 159295 | 173811
10 | 38:37.37 | 3:58.43 | 173812 | 191704
11 | 42:36.05 | 3:40.64 | 191705 | 208268
12 | 46:16.69 | 3:45.14 | 208269 | 225157
13 | 50:02.08 | 3:02.06 | 225158 | 238813
14 | 53:04.14 | 3:56.54 | 238814 | 256567
15 | 57:00.68 | 4:48.62 | 256568 | 278229
16 | 61:49.55 | 4:50.44 | 278230 | 300023


Track 1

Filename G:\For new-team.org\01-Howard Jones-New Song.wav

Pre-gap length 0:00:02.00

Peak level 90.1 %
Extraction speed 4.9 X
Track quality 100.0 %
Test CRC 60D766DF
Copy CRC 60D766DF
Accurately ripped (confidence 6) [83BD3DF4] (AR v2)
Copy OK

Track 2

Filename G:\For new-team.org\02-Tears for Fears-Pale Shelter.wav

Pre-gap length 0:00:01.44

Peak level 94.5 %
Extraction speed 4.5 X
Track quality 99.9 %
Test CRC AADD6AC0
Copy CRC AADD6AC0
Accurately ripped (confidence 6) [9DBB43D4] (AR v2)
Copy OK

Track 3

Filename G:\For new-team.org\03-Frankie Goes to Hollywood-The Power of Love.wav

Pre-gap length 0:00:01.43

Peak level 95.4 %
Extraction speed 6.1 X
Track quality 100.0 %
Test CRC 541CB9DA
Copy CRC 541CB9DA
Accurately ripped (confidence 6) [0584B037] (AR v2)
Copy OK

Track 4

Filename G:\For new-team.org\04-Godley & Creme-Cry.wav

Pre-gap length 0:00:01.44

Peak level 99.8 %
Extraction speed 6.3 X
Track quality 100.0 %
Test CRC C7B31E08
Copy CRC C7B31E08
Accurately ripped (confidence 6) [5FF411A8] (AR v2)
Copy OK

Track 5

Filename G:\For new-team.org\05-Thompson Twins-Hold Me Now.wav

Pre-gap length 0:00:01.44

Peak level 94.5 %
Extraction speed 6.7 X
Track quality 100.0 %
Test CRC FE90C782
Copy CRC FE90C782
Accurately ripped (confidence 6) [CA1927CD] (AR v2)
Copy OK

Track 6

Filename G:\For new-team.org\06-Duran Duran-The Reflex.wav

Pre-gap length 0:00:01.44

Peak level 99.9 %
Extraction speed 7.1 X
Track quality 100.0 %
Test CRC 21081446
Copy CRC 21081446
Accurately ripped (confidence 6) [50433333] (AR v2)
Copy OK

Track 7

Filename G:\For new-team.org\07-The Sisters of Mercy-Temple of Love.wav

Pre-gap length 0:00:01.44

Peak level 86.0 %
Extraction speed 7.5 X
Track quality 100.0 %
Test CRC 3DAD2DC7
Copy CRC 3DAD2DC7
Accurately ripped (confidence 6) [153330D1] (AR v2)
Copy OK

Track 8

Filename G:\For new-team.org\08-King-Love and Pride.wav

Pre-gap length 0:00:01.44

Peak level 99.0 %
Extraction speed 7.4 X
Track quality 100.0 %
Test CRC 6F251769
Copy CRC 6F251769
Accurately ripped (confidence 6) [03B0E1C2] (AR v2)
Copy OK

Track 9

Filename G:\For new-team.org\09-Dead or Alive-You Spin Me Round (Like a Record).wav

Pre-gap length 0:00:01.44

Peak level 94.3 %
Extraction speed 5.9 X
Track quality 99.9 %
Test CRC 560B2653
Copy CRC 560B2653
Accurately ripped (confidence 6) [2AC16B41] (AR v2)
Copy OK

Track 10

Filename G:\For new-team.org\10-Wang Chung-Dance Hall Days.wav

Pre-gap length 0:00:01.44

Peak level 99.0 %
Extraction speed 8.0 X
Track quality 100.0 %
Test CRC 89135F71
Copy CRC 89135F71
Accurately ripped (confidence 6) [42162764] (AR v2)
Copy OK

Track 11

Filename G:\For new-team.org\11-Alphaville-Forever Young.wav

Pre-gap length 0:00:01.43

Peak level 98.8 %
Extraction speed 8.2 X
Track quality 100.0 %
Test CRC 8B90C742
Copy CRC 8B90C742
Accurately ripped (confidence 6) [CC0D755E] (AR v2)
Copy OK

Track 12

Filename G:\For new-team.org\12-Avenue-Imagination.wav

Pre-gap length 0:00:01.44

Peak level 96.5 %
Extraction speed 8.5 X
Track quality 100.0 %
Test CRC 5569A774
Copy CRC 5569A774
Accurately ripped (confidence 6) [3A7ED1E9] (AR v2)
Copy OK

Track 13

Filename G:\For new-team.org\13-Harold Faltermeyer-Axel F.wav

Pre-gap length 0:00:01.43

Peak level 94.4 %
Extraction speed 8.3 X
Track quality 100.0 %
Test CRC 2739F9DB
Copy CRC 2739F9DB
Accurately ripped (confidence 5) [74C4D262] (AR v2)
Copy OK

Track 14

Filename G:\For new-team.org\14-The Catch-25 Years.wav

Pre-gap length 0:00:01.44

Peak level 96.5 %
Extraction speed 7.2 X
Track quality 99.9 %
Test CRC 824B80BC
Copy CRC 824B80BC
Accurately ripped (confidence 5) [02715D79] (AR v2)
Copy OK

Track 15

Filename G:\For new-team.org\15-Billy Idol-Rebel Yell.wav

Pre-gap length 0:00:01.44

Peak level 88.6 %
Extraction speed 7.9 X
Track quality 99.9 %
Test CRC 6FBC1977
Copy CRC 6FBC1977
Accurately ripped (confidence 6) [4458690C] (AR v2)
Copy OK

Track 16

Filename G:\For new-team.org\16-The Communards-Don't Leave Me This Way.wav

Pre-gap length 0:00:01.44

Peak level 99.9 %
Extraction speed 9.6 X
Track quality 100.0 %
Test CRC 2472B0C1
Copy CRC 2472B0C1
Accurately ripped (confidence 6) [EED09324] (AR v2)
Copy OK


All tracks accurately ripped

No errors occurred

End of status report

–– CUETools DB Plugin V2.1.6

[CTDB TOCID: yOuJ7KIg4zSyw8eI1eDSIM31msI-] found
Submit result: already submitted
Track | CTDB Status
1 | (10/10) Accurately ripped
2 | (10/10) Accurately ripped
3 | (10/10) Accurately ripped
4 | (10/10) Accurately ripped
5 | (10/10) Accurately ripped
6 | (10/10) Accurately ripped
7 | (10/10) Accurately ripped
8 | (10/10) Accurately ripped
9 | (10/10) Accurately ripped
10 | (10/10) Accurately ripped
11 | (10/10) Accurately ripped
12 | ( 9/10) Accurately ripped
13 | (10/10) Accurately ripped
14 | (10/10) Accurately ripped
15 | (10/10) Accurately ripped
16 | (10/10) Accurately ripped


==== Log checksum 0D2DB105284EE86B944370388D87688BF509CB655F296AB94D96C450D83ECA43 ====


CD 2

01. New Song (Howard Jones) [04:14]
02. Pale Shelter (Tears for Fears) [04:26]
03. The Power Of Love (Frankie Goes to Hollywood) [05:30]
04. Cry (Godley & Creme) [03:57]
05. Hold Me Now (Thompson Twins) [04:46]
06. The Reflex (Duran Duran) [04:24]
07. Temple Of Love (The Sisters of Mercy) [04:41]
08. Love And Pride (King) [03:22]
09. You Spin Me Round (Like A Record) (Dead or Alive) [03:13]
10. Dance Hall Days (Wang Chung) [03:58]
11. Forever Young (Alphaville) [03:40]
12. Imagination (Avenue) [03:45]
13. Axel F (Harold Faltermeyer) [03:02]
14. 25 Years (The Catch) [03:56]
15. Rebel Yell (Billy Idol) [04:48]
16. Dont Leave Me This Way (The Communards) [04:50]