Subcategories

VA - The Desert Lounge Vol.1

Posted By: FLESH
VA - The Desert Lounge Vol.1

VA - The Desert Lounge Vol.1
Electronic, Arabic lounge
APE+cue+log | 417.2 Mb | MP3, 192 Kbps | 99.6 Mb | Covers
Label: EMI | Catalog#: 7243 860323 2 4 | Country: UAE | Released: 2005

Tracklisting:
01. Damascus - The Natacha Atlas & Marc Eagleton Project [0:00:49.02]
02. Sound of Civilization - Omar Bashir [0:09:02.38]
03. Rain over Beirut - REG Project [0:04:51.70]
04. Winds Melody - Kirpi [0:04:13.40]
05. Yasmina - Guy Manoukian [0:05:18.66]
06. Arabian Sushi - Infernal [0:04:42.06]
07. Son Nefes (deep mix) - Alihan Samedov [0:04:25.50]
08. Western Transitions - Blue Bedouin [0:04:40.37]
09. Jhariye's Dream - Harem [0:04:32.06]
10. Majlis - Oryx [0:03:11.05]
11. Loneliness - Thunder of the Swords [0:05:12.33]
12. Lynn - E Olynn (Elie Attieh) [0:04:19.56]
13. Javida - Christophe Goze [0:05:44.29]
14. Contradiction - 1001 NIGHTSociety [0:05:40.71]
15. Adam's Lullaby - Natacha Atlas [0:05:58.12]

Exact Audio Copy V0.99 prebeta 4 from 23. January 2008

Отчёт EAC об извлечении, выполненном 20. апреля 2009, 18:21

Various / The Desert Lounge

Дисковод: Optiarc DVD RW AD-7200A Adapter: 0 ID: 0

Режим чтения : Достоверность
Использование точного потока : Да
Отключение кэша аудио : Да
Использование указателей C2 : Нет

Коррекция смещения при чтении : 48
Способность читать области Lead-in и Lead-out : Нет
Заполнение пропущенных сэмплов тишиной : Да
Удаление блоков с тишиной в начале и конце : Нет
При вычислениях CRC использовались нулевые сэмплы : Да
Интерфейс : Установленный внешний ASPI-интерфейс

Выходной формат : Внутренние WAV-операции
Формат сэмплов : 44.100 Гц; 16 бит; стерео


TOC извлечённого CD

Трек | Старт | Длительность | Начальный сектор | Конечный сектор
––––––––––––––––––––––––––––––––––-
1 | 0:00.00 | 0:49.02 | 0 | 3676
2 | 0:49.02 | 9:02.38 | 3677 | 44364
3 | 9:51.40 | 4:51.70 | 44365 | 66259
4 | 14:43.35 | 4:13.40 | 66260 | 85274
5 | 18:57.00 | 5:18.66 | 85275 | 109190
6 | 24:15.66 | 4:42.06 | 109191 | 130346
7 | 28:57.72 | 4:25.50 | 130347 | 150271
8 | 33:23.47 | 4:40.37 | 150272 | 171308
9 | 38:04.09 | 4:32.06 | 171309 | 191714
10 | 42:36.15 | 3:11.05 | 191715 | 206044
11 | 45:47.20 | 5:12.33 | 206045 | 229477
12 | 50:59.53 | 4:19.56 | 229478 | 248958
13 | 55:19.34 | 5:44.29 | 248959 | 274787
14 | 61:03.63 | 5:40.71 | 274788 | 300358
15 | 66:44.59 | 5:58.12 | 300359 | 327220


Характеристики диапазона извлечения и сообщения об ошибках

Выбранный диапазон

Имя файла C:\Wav\Various - The Desert Lounge.wav

Пиковый уровень 100.0 %
Качество диапазона 99.9 %
CRC копии 3D10FFFB
Копирование… OK

Ошибок не произошло


AccurateRip: сводка

Трек 1 точное извлечение (доверие 5) [7531B7E6]
Трек 2 точное извлечение (доверие 5) [C1A0D956]
Трек 3 точное извлечение (доверие 5) [B7B43ACC]
Трек 4 точное извлечение (доверие 3) [43FC7932]
Трек 5 точное извлечение (доверие 4) [BC07F251]
Трек 6 точное извлечение (доверие 5) [EEB9BA97]
Трек 7 точное извлечение (доверие 4) [2E279F12]
Трек 8 точное извлечение (доверие 4) [5BCC5A4C]
Трек 9 точное извлечение (доверие 3) [16E6052F]
Трек 10 точное извлечение (доверие 4) [77C5ACF2]
Трек 11 точное извлечение (доверие 3) [B58DA811]
Трек 12 точное извлечение (доверие 4) [D43C2511]
Трек 13 точное извлечение (доверие 5) [8F9B7CB7]
Трек 14 точное извлечение (доверие 4) [1B663ED8]
Трек 15 точное извлечение (доверие 5) [1DB18A67]

Все треки извлечены точно

Конец отчёта

lossless
Скачать с RapidShare
Part 1 | Part 2 | Part 3 | Part 4 | Part 5

MP3
Скачать с RapidShare
Part 1 | Part 2

Covers
Covers

Folder Music RapidShare

Welcome to my Blog