Subcategories

VA - The Perfect Beats Vol. 2 (1998)

Posted By: barker
VA - The Perfect Beats Vol. 2 (1998)

VA - The Perfect Beats Vol. 2 (1998)
EAC Rip | FLAC (tracks+.cue+log) | Covers | 499 MB | 01:13:16
Genre: Freestyle, Electro, Hip Hop, Breaks, Funk | RAR 5% Rec. | Label: Timber!, TRCD 1216

Following the history lesson of volume 1, The Perfect Beats, Volume 2 reaches a little wider in its selection of electro-boogie, hip-hop, and freestyle oldies. This seems to be the set's unofficial "happy" disc–some of the fastest cuts are on this volume, as well as the lightest and most playful. (Even the monochromatic series package design adds to the effect–this volume's a sunny orange.) "Let the Music Play" by Shannon (one of the highest-charting records in the collection) appears in a livelier-than-life remix, and just try to resist the bubbly synth-vibraphone on Dominatrix's "The Dominatrix Sleeps Tonight." Lots of these cuts will be familiar as the source of samples that fueled bigger hits, especially Liquid Liquid's "Cavern," which formed the basis for Grandmaster Flash and Melle Mel's huge rap record "White Lines." –John Sanchez



Tracklist:

01. Shannon - Let the Music Play [00:05:57]
02. Freeez - I.O.U. [00:06:16]
03. Jellybean - Dancing on the Fire [00:05:54]
04. Loleatta Holloway - Crash Goes Love [00:06:02]
05. Chaka Khan - My Love Is Alive [00:04:40]
06. Dominatrix - The Dominatrix Sleeps Tonight [00:03:31]
07. B Beat Girls - For The Same Man [00:02:37]
08. Upfront - Infatuation [00:06:17]
09. Man Parrish - Hip Hop Be-Bop [00:03:51]
10. Strafe - Set It Off [00:06:20]
11. ESG - Moody [00:02:30]
12. Liquid Liquid - Cavern [00:03:52]
13. Exodus - Together Forever [00:05:31]
14. New Order - Confusion [00:05:24]
15. Slack - Slack [00:04:26]

Exact Audio Copy V1.3 from 2. September 2016

EAC extraction logfile from 13. May 2017, 11:46

Various Artists / The Perfect Beats, Volume 2

Used drive : ATAPI iHAS424 A Adapter: 1 ID: 0

Read mode : Secure
Utilize accurate stream : Yes
Defeat audio cache : Yes
Make use of C2 pointers : No

Read offset correction : 6
Overread into Lead-In and Lead-Out : No
Fill up missing offset samples with silence : Yes
Delete leading and trailing silent blocks : No
Null samples used in CRC calculations : Yes
Used interface : Native Win32 interface for Win NT & 2000
Gap handling : Appended to previous track

Used output format : User Defined Encoder
Selected bitrate : 1024 kBit/s
Quality : High
Add ID3 tag : No
Command line compressor : C:\Program Files (x86)\Exact Audio Copy\Flac\flac.exe
Additional command line options : -8 -e -p -V -T "ARTIST=%artist%" -T "TITLE=%title%" -T "ALBUM=%albumtitle%" -T "DATE=%year%" -T "TRACKNUMBER=%tracknr%" -T "GENRE=%genre%" -T "PERFORMER=%albuminterpret%" -T "COMPOSER=%composer%" %haslyrics%–tag-from-file=LYRICS="%lyricsfile%"%haslyrics% -T "ALBUMARTIST=%albumartist%" -T "DISCNUMBER=%cdnumber%" -T "TOTALDISCS=%totalcds%" -T "TOTALTRACKS=%numtracks%" -T "COMMENT=%comment%" %source% -o %dest%


TOC of the extracted CD

Track | Start | Length | Start sector | End sector
––––––––––––––––––––––––––––-
1 | 0:00.00 | 5:57.57 | 0 | 26831
2 | 5:57.57 | 6:16.68 | 26832 | 55099
3 | 12:14.50 | 5:54.47 | 55100 | 81696
4 | 18:09.22 | 6:02.35 | 81697 | 108881
5 | 24:11.57 | 4:40.60 | 108882 | 129941
6 | 28:52.42 | 3:31.18 | 129942 | 145784
7 | 32:23.60 | 2:37.67 | 145785 | 157626
8 | 35:01.52 | 6:17.68 | 157627 | 185969
9 | 41:19.45 | 3:51.72 | 185970 | 203366
10 | 45:11.42 | 6:20.20 | 203367 | 231886
11 | 51:31.62 | 2:30.18 | 231887 | 243154
12 | 54:02.05 | 3:52.05 | 243155 | 260559
13 | 57:54.10 | 5:31.25 | 260560 | 285409
14 | 63:25.35 | 5:24.34 | 285410 | 309743
15 | 68:49.69 | 4:26.36 | 309744 | 329729


Track 1

Filename D:\Ripped\Various Artists - The Perfect Beats Volume 2 (1998) [FLAC]\01 - Shannon - Let the Music Play.wav

Pre-gap length 0:00:02.00

Peak level 93.5 %
Extraction speed 2.2 X
Track quality 100.0 %
Test CRC 34A22FF8
Copy CRC 34A22FF8
Accurately ripped (confidence 8) [21C60DCD] (AR v2)
Copy OK

Track 2

Filename D:\Ripped\Various Artists - The Perfect Beats Volume 2 (1998) [FLAC]\02 - Freeez - I.O.U..wav

Peak level 100.0 %
Extraction speed 2.5 X
Track quality 100.0 %
Test CRC F65F16B3
Copy CRC F65F16B3
Accurately ripped (confidence 9) [9B70E5E0] (AR v2)
Copy OK

Track 3

Filename D:\Ripped\Various Artists - The Perfect Beats Volume 2 (1998) [FLAC]\03 - Jellybean - Dancing on the Fire.wav

Peak level 100.0 %
Extraction speed 2.8 X
Track quality 100.0 %
Test CRC 27D031FE
Copy CRC 27D031FE
Accurately ripped (confidence 9) [8C4CAC43] (AR v2)
Copy OK

Track 4

Filename D:\Ripped\Various Artists - The Perfect Beats Volume 2 (1998) [FLAC]\04 - Loleatta Holloway - Crash Goes Love.wav

Peak level 100.0 %
Extraction speed 3.0 X
Track quality 100.0 %
Test CRC FEAE8D1B
Copy CRC FEAE8D1B
Accurately ripped (confidence 9) [5414D93E] (AR v2)
Copy OK

Track 5

Filename D:\Ripped\Various Artists - The Perfect Beats Volume 2 (1998) [FLAC]\05 - Chaka Khan - My Love Is Alive.wav

Peak level 100.0 %
Extraction speed 3.1 X
Track quality 100.0 %
Test CRC 6664642C
Copy CRC 6664642C
Accurately ripped (confidence 9) [639E442D] (AR v2)
Copy OK

Track 6

Filename D:\Ripped\Various Artists - The Perfect Beats Volume 2 (1998) [FLAC]\06 - Dominatrix - The Dominatrix Sleeps Tonight.wav

Peak level 100.0 %
Extraction speed 3.1 X
Track quality 100.0 %
Test CRC 6EE821CB
Copy CRC 6EE821CB
Accurately ripped (confidence 9) [1E8CE390] (AR v2)
Copy OK

Track 7

Filename D:\Ripped\Various Artists - The Perfect Beats Volume 2 (1998) [FLAC]\07 - B Beat Girls - For The Same Man.wav

Peak level 100.0 %
Extraction speed 3.0 X
Track quality 100.0 %
Test CRC EFE783E5
Copy CRC EFE783E5
Accurately ripped (confidence 9) [61DB11C8] (AR v2)
Copy OK

Track 8

Filename D:\Ripped\Various Artists - The Perfect Beats Volume 2 (1998) [FLAC]\08 - Upfront - Infatuation.wav

Peak level 100.0 %
Extraction speed 3.6 X
Track quality 100.0 %
Test CRC 1ABDCCEC
Copy CRC 1ABDCCEC
Accurately ripped (confidence 10) [6F11A041] (AR v2)
Copy OK

Track 9

Filename D:\Ripped\Various Artists - The Perfect Beats Volume 2 (1998) [FLAC]\09 - Man Parrish - Hip Hop Be-Bop.wav

Peak level 100.0 %
Extraction speed 3.5 X
Track quality 100.0 %
Test CRC D14F6AD0
Copy CRC D14F6AD0
Accurately ripped (confidence 9) [DB611E14] (AR v2)
Copy OK

Track 10

Filename D:\Ripped\Various Artists - The Perfect Beats Volume 2 (1998) [FLAC]\10 - Strafe - Set It Off.wav

Peak level 100.0 %
Extraction speed 3.9 X
Track quality 100.0 %
Test CRC 83908E1A
Copy CRC 83908E1A
Accurately ripped (confidence 9) [BDFCF474] (AR v2)
Copy OK

Track 11

Filename D:\Ripped\Various Artists - The Perfect Beats Volume 2 (1998) [FLAC]\11 - ESG - Moody.wav

Peak level 100.0 %
Extraction speed 3.5 X
Track quality 100.0 %
Test CRC 24C25E66
Copy CRC 24C25E66
Accurately ripped (confidence 9) [0E129DB8] (AR v2)
Copy OK

Track 12

Filename D:\Ripped\Various Artists - The Perfect Beats Volume 2 (1998) [FLAC]\12 - Liquid Liquid - Cavern.wav

Peak level 100.0 %
Extraction speed 2.7 X
Track quality 99.9 %
Test CRC 5F4AEA58
Copy CRC 5F4AEA58
Accurately ripped (confidence 9) [8637637C] (AR v2)
Copy OK

Track 13

Filename D:\Ripped\Various Artists - The Perfect Beats Volume 2 (1998) [FLAC]\13 - Exodus - Together Forever.wav

Peak level 100.0 %
Extraction speed 3.2 X
Track quality 99.9 %
Test CRC C6C20A99
Copy CRC C6C20A99
Accurately ripped (confidence 9) [A00717C6] (AR v2)
Copy OK

Track 14

Filename D:\Ripped\Various Artists - The Perfect Beats Volume 2 (1998) [FLAC]\14 - New Order - Confusion.wav

Peak level 100.0 %
Extraction speed 4.3 X
Track quality 100.0 %
Test CRC 72831E47
Copy CRC 72831E47
Accurately ripped (confidence 8) [A97ABA76] (AR v2)
Copy OK

Track 15

Filename D:\Ripped\Various Artists - The Perfect Beats Volume 2 (1998) [FLAC]\15 - Slack - Slack.wav

Peak level 100.0 %
Extraction speed 4.3 X
Track quality 100.0 %
Test CRC 11245E6E
Copy CRC 11245E6E
Accurately ripped (confidence 9) [B2946A11] (AR v2)
Copy OK


All tracks accurately ripped

No errors occurred

End of status report

–– CUETools DB Plugin V2.1.6

[CTDB TOCID: l2kpEedV1591qsT3AZ7I3T0ZTns-] found
Submit result: l2kpEedV1591qsT3AZ7I3T0ZTns- has been confirmed
Track | CTDB Status
1 | (5/6) Accurately ripped
2 | (5/6) Accurately ripped
3 | (5/6) Accurately ripped
4 | (5/6) Accurately ripped
5 | (5/6) Accurately ripped
6 | (5/6) Accurately ripped
7 | (5/6) Accurately ripped
8 | (5/6) Accurately ripped
9 | (5/6) Accurately ripped
10 | (5/6) Accurately ripped
11 | (5/6) Accurately ripped
12 | (5/6) Accurately ripped
13 | (5/6) Accurately ripped
14 | (5/6) Accurately ripped
15 | (6/6) Accurately ripped


==== Log checksum 121B4FD5FCBE4B145EEE23C40BB429B3A02B6D79FE5A1EBE151D45564BB89576 ====