Subcategories

VA - Fascinatin' Rhythm: Capitol Sings George Gershwin (1992)

Posted By: stfine
VA - Fascinatin' Rhythm: Capitol Sings George Gershwin (1992)

VA - Fascinatin' Rhythm: Capitol Sings George Gershwin (1992)
dBpoweramp rip | FLAC tracks + cue + log + scans | 01:03:15 | 321 MB (3% rec.)
Jazz, Traditional Pop, Oldies | Label: CDP 7 96792 2

This is a collection of Gershwin songs, sung by artists who recorded for Capitol Records during the years 1943-1966, the bulk of which are from the 50's. There's enough variety in their vocals and arrangements to make this a varied, consistently entertaining listen.

Tracklist (Amazon samples)

1. Freddy Martin & His Orchestra – Rhapsody in Blue (03:11)
2. Dorothy Donegan – A Foggy Day (02:11)
3. Margaret Whiting – But Not for Me (03:00)
4. The Nat King Cole Trio – Embraceable You (03:24)
5. Vic Damone – Fascinatin' Rhythm (02:10)
6. Ann Richards – I Got Rhythm (04:08)
7. Liza Minnelli – I'll Build a Stairway to Paradise (02:08)
8. Ella Mae Morse – It Ain't Necessarily So (02:19)
9. Marian McPartland – Let's Call the Whole Thing Off (02:44)
10. Jeri Southern – Nice Work If You Can Get It (01:58)
11. The Andrews Sisters – Of Thee I Sing (02:17)
12. Julie London – 'S Wonderful (01:35)
13. Jean Turner – Someone to Watch over Me (02:37)
14. Tony Bennett – Strike up the Band (01:33)
15. Gordon MacRae – Summertime (03:00)
16. Judy Garland – Swanee (02:05)
17. Dakota Staton – They All Laughed (02:09)
18. Peggy Lee – They Can't Take That Away from Me (02:31)
19. June Christy – How Long Has This Been Goin' On (04:58)
20. Jo Ann Greer – That Certain Feeling (02:02)
21. Kate Smith – Who Cares (As Long As You Care For Me) (02:25)
22. Kenny Gardner – I Got Plenty Of Nuttin' (02:49)
23. Keely Smith – The Man I Love (03:17)
24. Anna Maria Alberghetti – I've Got a Crush on You (02:44)

Total time 01:03:15

Information ripping to FLAC, 'Track 1' to 'C:\Users\user\Music\Collected\Various Artists\Gershwin\01 - Rhapsody in Blue.flac'
Track 1: Ripped LBA 0 to 14290 (3:10) in 0:18. Filename: C:\Users\user\Music\Collected\Various Artists\Gershwin\01 - Rhapsody in Blue.flac
AccurateRip: Accurate (confidence 2) [Pass 1]
CRC32: 60200C79 AccurateRip CRC: C8A931D1 [DiscID: 024-0036257b-03a277a5-2f0ed118-1]

Information ripping to FLAC, 'Track 2' to 'C:\Users\user\Music\Collected\Various Artists\Gershwin\02 - A Foggy Day.flac'
Track 2: Ripped LBA 14290 to 24140 (2:11) in 0:06. Filename: C:\Users\user\Music\Collected\Various Artists\Gershwin\02 - A Foggy Day.flac
AccurateRip: Accurate (confidence 2) [Pass 1]
CRC32: 1C7205DC AccurateRip CRC: FE252F1E [DiscID: 024-0036257b-03a277a5-2f0ed118-2]

Information ripping to FLAC, 'Track 3' to 'C:\Users\user\Music\Collected\Various Artists\Gershwin\03 - But Not for Me.flac'
Track 3: Ripped LBA 24140 to 37615 (2:59) in 0:08. Filename: C:\Users\user\Music\Collected\Various Artists\Gershwin\03 - But Not for Me.flac
AccurateRip: Accurate (confidence 2) [Pass 1]
CRC32: E2FA8CAB AccurateRip CRC: 21FD0211 [DiscID: 024-0036257b-03a277a5-2f0ed118-3]

Information ripping to FLAC, 'Track 4' to 'C:\Users\user\Music\Collected\Various Artists\Gershwin\04 - Embraceable You.flac'
Track 4: Ripped LBA 37615 to 52920 (3:24) in 0:08. Filename: C:\Users\user\Music\Collected\Various Artists\Gershwin\04 - Embraceable You.flac
AccurateRip: Accurate (confidence 2) [Pass 1]
CRC32: 36422089 AccurateRip CRC: 2DF7B0FC [DiscID: 024-0036257b-03a277a5-2f0ed118-4]

Information ripping to FLAC, 'Track 5' to 'C:\Users\user\Music\Collected\Various Artists\Gershwin\05 - Fascinatin' Rhythm.flac'
Track 5: Ripped LBA 52920 to 62633 (2:09) in 0:05. Filename: C:\Users\user\Music\Collected\Various Artists\Gershwin\05 - Fascinatin' Rhythm.flac
AccurateRip: Accurate (confidence 2) [Pass 1]
CRC32: 79B9AC4D AccurateRip CRC: EC540D33 [DiscID: 024-0036257b-03a277a5-2f0ed118-5]

Information ripping to FLAC, 'Track 6' to 'C:\Users\user\Music\Collected\Various Artists\Gershwin\06 - I Got Rhythm.flac'
Track 6: Ripped LBA 62633 to 81245 (4:08) in 0:09. Filename: C:\Users\user\Music\Collected\Various Artists\Gershwin\06 - I Got Rhythm.flac
AccurateRip: Accurate (confidence 2) [Pass 1]
CRC32: 845ECFE8 AccurateRip CRC: 303683A5 [DiscID: 024-0036257b-03a277a5-2f0ed118-6]

Information ripping to FLAC, 'Track 7' to 'C:\Users\user\Music\Collected\Various Artists\Gershwin\07 - I'll Build a Stairway to Paradise.flac'
Track 7: Ripped LBA 81245 to 90813 (2:07) in 0:04. Filename: C:\Users\user\Music\Collected\Various Artists\Gershwin\07 - I'll Build a Stairway to Paradise.flac
AccurateRip: Accurate (confidence 2) [Pass 1]
CRC32: BF9689A9 AccurateRip CRC: F6055760 [DiscID: 024-0036257b-03a277a5-2f0ed118-7]

Information ripping to FLAC, 'Track 8' to 'C:\Users\user\Music\Collected\Various Artists\Gershwin\08 - It Ain't Necessarily So.flac'
Track 8: Ripped LBA 90813 to 101275 (2:19) in 0:05. Filename: C:\Users\user\Music\Collected\Various Artists\Gershwin\08 - It Ain't Necessarily So.flac
AccurateRip: Accurate (confidence 2) [Pass 1]
CRC32: 48BE1E97 AccurateRip CRC: 09A6F6E2 [DiscID: 024-0036257b-03a277a5-2f0ed118-8]

Information ripping to FLAC, 'Track 9' to 'C:\Users\user\Music\Collected\Various Artists\Gershwin\09 - Let's Call the Whole Thing Off.flac'
Track 9: Ripped LBA 101275 to 113603 (2:44) in 0:05. Filename: C:\Users\user\Music\Collected\Various Artists\Gershwin\09 - Let's Call the Whole Thing Off.flac
AccurateRip: Accurate (confidence 2) [Pass 1]
CRC32: 4A9AA92F AccurateRip CRC: 27CA9C19 [DiscID: 024-0036257b-03a277a5-2f0ed118-9]

Information ripping to FLAC, 'Track 10' to 'C:\Users\user\Music\Collected\Various Artists\Gershwin\10 - Nice Work If You Can Get It.flac'
Track 10: Ripped LBA 113603 to 122465 (1:58) in 0:08. Filename: C:\Users\user\Music\Collected\Various Artists\Gershwin\10 - Nice Work If You Can Get It.flac
AccurateRip: Accurate (confidence 2) [Pass 1 & 2]
CRC32: 5D02C260 AccurateRip CRC: 82622152 [DiscID: 024-0036257b-03a277a5-2f0ed118-10]

Information ripping to FLAC, 'Track 11' to 'C:\Users\user\Music\Collected\Various Artists\Gershwin\11 - Of Thee I Sing.flac'
Track 11: Ripped LBA 122465 to 132710 (2:16) in 0:04. Filename: C:\Users\user\Music\Collected\Various Artists\Gershwin\11 - Of Thee I Sing.flac
AccurateRip: Accurate (confidence 2) [Pass 1]
CRC32: BF096C57 AccurateRip CRC: F46DD7B3 [DiscID: 024-0036257b-03a277a5-2f0ed118-11]

Information ripping to FLAC, 'Track 12' to 'C:\Users\user\Music\Collected\Various Artists\Gershwin\12 - 'S Wonderful.flac'
Track 12: Ripped LBA 132710 to 139820 (1:34) in 0:03. Filename: C:\Users\user\Music\Collected\Various Artists\Gershwin\12 - 'S Wonderful.flac
AccurateRip: Accurate (confidence 2) [Pass 1]
CRC32: 7041777A AccurateRip CRC: 154552E1 [DiscID: 024-0036257b-03a277a5-2f0ed118-12]

Information ripping to FLAC, 'Track 13' to 'C:\Users\user\Music\Collected\Various Artists\Gershwin\13 - Someone to Watch over Me.flac'
Track 13: Ripped LBA 139820 to 151625 (2:37) in 0:05. Filename: C:\Users\user\Music\Collected\Various Artists\Gershwin\13 - Someone to Watch over Me.flac
AccurateRip: Accurate (confidence 2) [Pass 1]
CRC32: C7B50DE1 AccurateRip CRC: E1BE071E [DiscID: 024-0036257b-03a277a5-2f0ed118-13]

Information ripping to FLAC, 'Track 14' to 'C:\Users\user\Music\Collected\Various Artists\Gershwin\14 - Strike up the Band.flac'
Track 14: Ripped LBA 151625 to 158633 (1:33) in 0:02. Filename: C:\Users\user\Music\Collected\Various Artists\Gershwin\14 - Strike up the Band.flac
AccurateRip: Accurate (confidence 2) [Pass 1]
CRC32: D3F87141 AccurateRip CRC: B28B8879 [DiscID: 024-0036257b-03a277a5-2f0ed118-14]

Information ripping to FLAC, 'Track 15' to 'C:\Users\user\Music\Collected\Various Artists\Gershwin\15 - Summertime.flac'
Track 15: Ripped LBA 158633 to 172100 (2:59) in 0:05. Filename: C:\Users\user\Music\Collected\Various Artists\Gershwin\15 - Summertime.flac
AccurateRip: Accurate (confidence 2) [Pass 1]
CRC32: 0B4886F8 AccurateRip CRC: 23B78135 [DiscID: 024-0036257b-03a277a5-2f0ed118-15]

Information ripping to FLAC, 'Track 16' to 'C:\Users\user\Music\Collected\Various Artists\Gershwin\16 - Swanee.flac'
Track 16: Ripped LBA 172100 to 181468 (2:04) in 0:03. Filename: C:\Users\user\Music\Collected\Various Artists\Gershwin\16 - Swanee.flac
AccurateRip: Accurate (confidence 2) [Pass 1]
CRC32: 2536A77E AccurateRip CRC: FF00D217 [DiscID: 024-0036257b-03a277a5-2f0ed118-16]

Information ripping to FLAC, 'Track 17' to 'C:\Users\user\Music\Collected\Various Artists\Gershwin\17 - They All Laughed.flac'
Track 17: Ripped LBA 181468 to 191108 (2:08) in 0:03. Filename: C:\Users\user\Music\Collected\Various Artists\Gershwin\17 - They All Laughed.flac
AccurateRip: Accurate (confidence 2) [Pass 1]
CRC32: 65B8E4DF AccurateRip CRC: 61E27C05 [DiscID: 024-0036257b-03a277a5-2f0ed118-17]

Information ripping to FLAC, 'Track 18' to 'C:\Users\user\Music\Collected\Various Artists\Gershwin\18 - They Can't Take That Away from Me.flac'
Track 18: Ripped LBA 191108 to 202430 (2:30) in 0:04. Filename: C:\Users\user\Music\Collected\Various Artists\Gershwin\18 - They Can't Take That Away from Me.flac
AccurateRip: Accurate (confidence 2) [Pass 1]
CRC32: 460D2508 AccurateRip CRC: 549F28CC [DiscID: 024-0036257b-03a277a5-2f0ed118-18]

Information ripping to FLAC, 'Track 19' to 'C:\Users\user\Music\Collected\Various Artists\Gershwin\19 - How Long Has This Been Goin' On.flac'
Track 19: Ripped LBA 202430 to 224755 (4:57) in 0:08. Filename: C:\Users\user\Music\Collected\Various Artists\Gershwin\19 - How Long Has This Been Goin' On.flac
AccurateRip: Accurate (confidence 2) [Pass 1]
CRC32: 8CFB6EEA AccurateRip CRC: 65CA977C [DiscID: 024-0036257b-03a277a5-2f0ed118-19]

Information ripping to FLAC, 'Track 20' to 'C:\Users\user\Music\Collected\Various Artists\Gershwin\20 - That Certain Feeling.flac'
Track 20: Ripped LBA 224755 to 233895 (2:01) in 0:03. Filename: C:\Users\user\Music\Collected\Various Artists\Gershwin\20 - That Certain Feeling.flac
AccurateRip: Accurate (confidence 2) [Pass 1]
CRC32: 11CC95FE AccurateRip CRC: 1F933976 [DiscID: 024-0036257b-03a277a5-2f0ed118-20]

Information ripping to FLAC, 'Track 21' to 'C:\Users\user\Music\Collected\Various Artists\Gershwin\21 - Who Cares (As Long As You Care For Me).flac'
Track 21: Ripped LBA 233895 to 244773 (2:25) in 0:03. Filename: C:\Users\user\Music\Collected\Various Artists\Gershwin\21 - Who Cares (As Long As You Care For Me).flac
AccurateRip: Accurate (confidence 2) [Pass 1]
CRC32: 7D115E9E AccurateRip CRC: 449AF57C [DiscID: 024-0036257b-03a277a5-2f0ed118-21]

Information ripping to FLAC, 'Track 22' to 'C:\Users\user\Music\Collected\Various Artists\Gershwin\22 - I Got Plenty Of Nuttin'.flac'
Track 22: Ripped LBA 244773 to 257465 (2:49) in 0:04. Filename: C:\Users\user\Music\Collected\Various Artists\Gershwin\22 - I Got Plenty Of Nuttin'.flac
AccurateRip: Accurate (confidence 2) [Pass 1]
CRC32: 7B8AADCA AccurateRip CRC: DA952013 [DiscID: 024-0036257b-03a277a5-2f0ed118-22]

Information ripping to FLAC, 'Track 23' to 'C:\Users\user\Music\Collected\Various Artists\Gershwin\23 - The Man I Love.flac'
Track 23: Ripped LBA 257465 to 272230 (3:16) in 0:05. Filename: C:\Users\user\Music\Collected\Various Artists\Gershwin\23 - The Man I Love.flac
AccurateRip: Accurate (confidence 2) [Pass 1]
CRC32: 48539CD3 AccurateRip CRC: AA49FA45 [DiscID: 024-0036257b-03a277a5-2f0ed118-23]

Information ripping to FLAC, 'Track 24' to 'C:\Users\user\Music\Collected\Various Artists\Gershwin\24 - I've Got a Crush on You.flac'
Track 24: Ripped LBA 272230 to 284528 (2:43) in 0:04. Filename: C:\Users\user\Music\Collected\Various Artists\Gershwin\24 - I've Got a Crush on You.flac
AccurateRip: Accurate (confidence 2) [Pass 1]
CRC32: EEFB34F9 AccurateRip CRC: 022F0439 [DiscID: 024-0036257b-03a277a5-2f0ed118-24]

VA - Fascinatin' Rhythm: Capitol Sings George Gershwin (1992)

Huge thanks to the original releaser!

(filesonic.com)
Download

(uploaded.to)
Download


Enjoy my blog (Rock, Jazz, Pop, Oldies) >