Tags
Language
Tags

VA - 100 Best Guitar Classics (2016) (6CD Box set) {Warner Classics}

Posted By:
VA - 100 Best Guitar Classics (2016) (6CD Box set) {Warner Classics}

VA - 100 Best Guitar Classics (2016)
EAC Rip | FLAC (tracks+.cue, log) | Covers | 370 mb | MP3 CBR 320kbps | RAR | 125 mb
Classical, Guitar, Chamber Music | Label: Warner Classics / 0190295975548

This impressive series continues with its incredibly 6-CD sets, this one yielding 100 masterful guitar performances! The heavy emphasis is on classical, from baroque to modern (with two discs devoted to Spanish guitar and another entirely to Rodrigo), but you'll encounter some Beatles along the way, too. Pieces by Bach, Scarlatti, Vivaldi, Satie, Britten, Granados, Falla, Rodrigo, Albeniz, Villa-Lobos and others are played by Andres Segovia, Julian Bream, Eliot Fisk, Manuel Barrueco, Christopher Parkening and more!

Tracklist:

CD1 - Baroque and Before (01:17:33)

01. Prelude in D Minor (02:12)
02. Fantasie (03:37)
03. Suite in E Major (03:13)
04. Concerto in D Major (02:00)
05. Fantasie (04:15)
06. Cantate BWV 147: "Jesus Bleibet Meine Freude" (03:59)
07. Ouverture de la Grotte de Versailles (03:24)
08. Suites from the Aylesford Pieces: I. Entrée - II. Gavotte - III. Passepied - Menuett - Passepied - IV. Toccata - V. Impertinence - VI. Fuga (09:29)
09. Presto (04:56)
10. Suite in D Major (from ''Terpischore''): I. Courante - II. Ballet - VII. Volte (05:42)
11. Variations on ''Guardame las Vacas'' (03:04)
12. Sonata in D Major, K. 490 (06:47)
13. Sonata in A Minor, K. 36 (03:21)
14. Xerxes: Largo (04:55)
15. Prelude, Fugue and Allegro in E Major, BWV 998: I. Prelude (02:35)
16. Sonata in D Minor, K 141 (03:40)
17. Danzas Populares: Fanfarra - Zarabanda - Ruggero - Paradetas - Espanoletas (07:10)

CD2 - Romantic Guitar (01:13:23)

01. Romance from "Jeux Interdits" (02:37)
02. Recuerdos de la Alhambra (05:28)
03. Capricho Arabe (Serenata) (05:19)
04. Lágrima (Preludio) (01:43)
05. Maria (Gavota) (01:37)
06. Mazurka (01:48)
07. El Testament d'Amelia (01:40)
08. Exercice Très Faciles in B Minor, Op. 35: No. 22 (02:51)
09. Étude No. 12 in A Major (01:46)
10. Étude No. 17 in G Major (03:16)
11. Étude No. 9 in A Minor (01:14)
12. Grand Solo in D Major, Op. 14 (08:52)
13. Menuet in D Major (02:17)
14. Menuet in C Major (03:50)
15. Sonata Concertata in A Major for Violin and Guitar: I. Allegro Spritoso (06:04)
16. Variazioni Concertanti per due Chitarre, Op. 130: I. Introduzione (08:57)
17. Guitar Concerto No. 1 in A Major, Op. 30: I. Allegro (14:59)

CD3 - Spanish Guitar Vol. 1 (01:11:08)

01. Suite Española No. 1, Op. 47: V. Asturias (Leyenda) (06:06)
02. 12 Danzas Españolas, Op. 37: V. Andaluza (05:11)
03. 12 Danzas Españolas, Op. 37: II. Oriental (04:55)
04. Valses Poeticos: I. Vivace Molto and Melodico - VI. Quasi ad Libitum (Sentimental) - VII. Presto (08:32)
05. Suite Española No. 1, Op. 47: VII. Cataluña (Corranda) (03:47)
06. Suite Española No. 1, Op. 47: VIII. Sevilla (Sevillanas) (04:29)
07. Suite Española No. 1, Op. 47: I. Granada (04:21)
08. 12 Danzas Españolas, Op. 37: IV. Villanesca (05:44)
09. Tonadillas al Estilo Antiguo: VIII. La Maja de Goya (04:29)
10. Recuerdos de Viaje, Op. 71: V. Puerta de Tierra (Bolero) (03:38)
11. Recuerdos de Viaje, Op. 71: VI. Rumores de la Caleta (Malagueña) (04:19)
12. Recuerdos de Viaje, Op. 71: I. En el Mar (05:48)
13. Serenata Española (03:48)
14. Cançó del Lladre (01:40)
15. Plany (01:31)
16. El Mestre (03:00)

CD4 - Spanish Guitar Vol. 2 (01:13:28)

01. Concierto de Aranjuez: I. Allegro Con Spirito (06:08)
02. Concierto de Aranjuez: II. Adagio (10:48)
03. Concierto de Aranjuez: III. Allegro Gentile (05:02)
04. The Three-Cornered Hat: Night - The Miller's Dance (06:36)
05. The Three-Cornered Hat: The Corregidor - Dance of the Miller's Wife (06:24)
06. Homenaje a Tarrega, Op. 69: I. Garrotin - II. Soleares (04:41)
07. Invocacíon y Danza (07:24)
08. Tres Piezas Españolas: I. Fandango (03:51)
09. Sonatina in A Major: I. Allegretto (04:01)
10. Zapateado (02:26)
11. Homenaje: ''Le Tombeau de Claude Debussy'' (02:41)
12. Fantasía para un Gentilhombre: I. Adagietto - Andante (04:35)
13. Fantasía para un Gentilhombre: II. Adagio (09:02)

CD5 - Latin American Guitar (01:13:08)

01. Prelude No. 1 in E Minor (05:28)
02. Scherzino Mexicano (02:53)
03. Vals Venezolano No. 3 (02:28)
04. La Cathedral: I. Preludio Saudade (04:32)
05. La Cathedral: II. Andante Religioso (01:45)
06. La Cathedral: III. Allegro Solemne (03:00)
07. El Decamerón Negro: III. Balada de la Doncella Enamorada (05:12)
08. Canción de Cuna (Berceuse) (03:11)
09. Chôros No. 1 in E Minor (04:07)
10. La Muerte del Angel (05:07)
11. Étude No. 1 in E Minor (02:09)
12. Étude No. 2 in A Major (01:57)
13. Vals No. 4, Op. 8 (05:02)
14. Mazurka Apasionata (06:27)
15. Triste No. 4 (02:25)
16. Aconquija (Guarani Air) (03:26)
17. Suite Populaire Brésilienne: Chorinho (04:01)
18. Concerto for Guitar and Orchestra: I. Allegro Preciso (05:08)
19. Concierto del Sur: II. Andante (06:56)

CD6 - The Modern Guitar (01:10:00)

01. Michelle (03:10)
02. Five Bagatelles for Guitar: IV. [Lento] (02:11)
03. Suite Compostelana: V. Cancion (03:01)
04. Tarentella (03:56)
05. Quatre Pièces Brèves: I. Prélude (Lent - Vite) (02:58)
06. Quatre Pièces Brèves: II. Air (Lent et Bien Rythmé) (01:43)
07. Quatre Pièces Brèves: III. Plainte (Sans Lenteur) (02:58)
08. Quatre Pièces Brèves: IV. Comme une Gigue (Con Moto) (02:49)
09. Gymnopédie No. 1 (03:19)
10. Elogio de la Danza: I. Lento (03:28)
11. Elogio de la Danza: II. Obstinato (02:37)
12. Nocturnal after John Dowland, Op. 70: I. Musingly (Meditation) (02:14)
13. Nocturnal after John Dowland, Op. 70: VIII. Passacaglia (Misurato) (04:55)
14. Agua e Vinho (05:40)
15. Guitar Concerto, Op. 67: I. Allegro (06:24)
16. Guitar Concerto No. 1 in D Major, Op. 99: I. Allegro Giusto (06:11)
17. Guitar Concerto No. 1 in D Major, Op. 99: II. Andantino - Alla Romanza (06:29)
18. Guitar Concerto No. 1 in D Major, Op. 99: III. Ritmico e Cavalleresco (06:09)

VA - 100 Best Guitar Classics (2016) (6CD Box set) {Warner Classics}


Release Date: 08/05/2016
Label: Warner Classics Catalog #: 556481 Spars Code: n/a
Composer: Johann Sebastian Bach, Silvius Leopold Weiss, Antonio Vivaldi, Jean-Baptiste Lully, …
Performer: Jacob Heringman, Sharon Isbin, Manuel Barrueco, Georg Lawall, …
Conductor: Howard Griffiths, Raymond Leppard, André Previn, Antoni Ros Marbà
Number of Discs: 6
Recorded in: Stereo
Length: 7 Hours 20 Mins.


Exact Audio Copy V1.3 from 2. September 2016

EAC extraction logfile from 12. January 2017, 16:17

Various Artists / 100 Best Guitar Classics

Used drive : TSSTcorpCDDVDW SH-222AB Adapter: 1 ID: 0

Read mode : Secure
Utilize accurate stream : Yes
Defeat audio cache : Yes
Make use of C2 pointers : No

Read offset correction : 6
Overread into Lead-In and Lead-Out : No
Fill up missing offset samples with silence : Yes
Delete leading and trailing silent blocks : No
Null samples used in CRC calculations : Yes
Used interface : Native Win32 interface for Win NT & 2000
Gap handling : Appended to previous track

Used output format : User Defined Encoder
Selected bitrate : 1024 kBit/s
Quality : High
Add ID3 tag : No
Command line compressor : C:\Program Files (x86)\Exact Audio Copy\Flac\flac.exe
Additional command line options : -8 -e -p -V -T "ARTIST=%artist%" -T "TITLE=%title%" -T "ALBUM=%albumtitle%" -T "DATE=%year%" -T "TRACKNUMBER=%tracknr%" -T "GENRE=%genre%" -T "PERFORMER=%albuminterpret%" -T "COMPOSER=%composer%" %haslyrics%–tag-from-file=LYRICS="%lyricsfile%"%haslyrics% -T "ALBUMARTIST=%albumartist%" -T "DISCNUMBER=%cdnumber%" -T "TOTALDISCS=%totalcds%" -T "TOTALTRACKS=%numtracks%" -T "COMMENT=%comment%" %source% -o %dest%


TOC of the extracted CD

Track | Start | Length | Start sector | End sector
––––––––––––––––––––––––––––-
1 | 0:00.00 | 2:12.10 | 0 | 9909
2 | 2:12.10 | 3:37.04 | 9910 | 26188
3 | 5:49.14 | 3:13.18 | 26189 | 40681
4 | 9:02.32 | 5:44.33 | 40682 | 66514
5 | 14:46.65 | 4:15.49 | 66515 | 85688
6 | 19:02.39 | 3:59.22 | 85689 | 103635
7 | 23:01.61 | 3:24.63 | 103636 | 118998
8 | 26:26.49 | 9:29.32 | 118999 | 161705
9 | 35:56.06 | 4:56.38 | 161706 | 183943
10 | 40:52.44 | 5:42.42 | 183944 | 209635
11 | 46:35.11 | 3:04.32 | 209636 | 223467
12 | 49:39.43 | 6:47.51 | 223468 | 254043
13 | 56:27.19 | 3:21.52 | 254044 | 269170
14 | 59:48.71 | 4:55.22 | 269171 | 291317
15 | 64:44.18 | 2:35.32 | 291318 | 302974
16 | 67:19.50 | 3:40.05 | 302975 | 319479
17 | 70:59.55 | 7:10.51 | 319480 | 351780


Track 1

Filename E:\100 Best Guitar Classics (2016) [FLAC]\CD1\01 - Sharon Isbin - Prelude in D Minor, BWV 999.wav

Pre-gap length 0:00:02.00

Peak level 41.6 %
Extraction speed 3.0 X
Track quality 99.9 %
Test CRC A973DDC8
Copy CRC A973DDC8
Track not present in AccurateRip database
Copy OK

Track 2

Filename E:\100 Best Guitar Classics (2016) [FLAC]\CD1\02 - Alexandre Lagoya - Fantasie.wav

Peak level 52.7 %
Extraction speed 4.9 X
Track quality 100.0 %
Test CRC DD73F1D9
Copy CRC DD73F1D9
Track not present in AccurateRip database
Copy OK

Track 3

Filename E:\100 Best Guitar Classics (2016) [FLAC]\CD1\03 - Sharon Isbin - Suite in E Major, BWV 1006a- III. Gavotte en Rondeau.wav

Peak level 61.5 %
Extraction speed 5.1 X
Track quality 100.0 %
Test CRC 65D8E2F2
Copy CRC 65D8E2F2
Track not present in AccurateRip database
Copy OK

Track 4

Filename E:\100 Best Guitar Classics (2016) [FLAC]\CD1\04 - Sharon Isbin, Zürcher Kammerorchester - Concerto in D Major, RV 93- II. Largo.wav

Peak level 51.9 %
Extraction speed 3.7 X
Track quality 100.0 %
Test CRC B543DB20
Copy CRC B543DB20
Track not present in AccurateRip database
Copy OK

Track 5

Filename E:\100 Best Guitar Classics (2016) [FLAC]\CD1\05 - Jacob Heringman - Fantasie.wav

Peak level 34.0 %
Extraction speed 3.0 X
Track quality 99.9 %
Test CRC 6E5BEDC7
Copy CRC 6E5BEDC7
Track not present in AccurateRip database
Copy OK

Track 6

Filename E:\100 Best Guitar Classics (2016) [FLAC]\CD1\06 - Alexandre Lagoya - Cantate BWV 147- Jesus Bleibet Meine Freude.wav

Peak level 51.0 %
Extraction speed 4.0 X
Track quality 100.0 %
Test CRC A8405411
Copy CRC A8405411
Track not present in AccurateRip database
Copy OK

Track 7

Filename E:\100 Best Guitar Classics (2016) [FLAC]\CD1\07 - Manuel Barrueco - Ouverture de la Grotte de Versailles.wav

Peak level 89.4 %
Extraction speed 3.1 X
Track quality 99.9 %
Test CRC 27D32A6C
Copy CRC 27D32A6C
Track not present in AccurateRip database
Copy OK

Track 8

Filename E:\100 Best Guitar Classics (2016) [FLAC]\CD1\08 - Georg Lawall - Suites from the Aylesford Pieces- I. Entrée - II. Gavotte - III. Passepied - Menuett - Passepied - IV. Toccata - V. Impertinence - VI. Fuga.wav

Peak level 49.9 %
Extraction speed 4.8 X
Track quality 100.0 %
Test CRC 76857D1B
Copy CRC 76857D1B
Track not present in AccurateRip database
Copy OK

Track 9

Filename E:\100 Best Guitar Classics (2016) [FLAC]\CD1\09 - Alexandre Lagoya - Presto.wav

Peak level 54.1 %
Extraction speed 4.8 X
Track quality 100.0 %
Test CRC 4EBD8819
Copy CRC 4EBD8819
Track not present in AccurateRip database
Copy OK

Track 10

Filename E:\100 Best Guitar Classics (2016) [FLAC]\CD1\10 - Christopher Parkening - Suite in D Major (from ''Terpischore'')- I. Courante - II. Ballet - VII. Volte.wav

Peak level 87.0 %
Extraction speed 5.1 X
Track quality 100.0 %
Test CRC 5B7BE566
Copy CRC 5B7BE566
Track not present in AccurateRip database
Copy OK

Track 11

Filename E:\100 Best Guitar Classics (2016) [FLAC]\CD1\11 - Oscar Ghiglia - Variations on ''Guardame las Vacas''.wav

Peak level 35.4 %
Extraction speed 4.9 X
Track quality 100.0 %
Test CRC 080041B6
Copy CRC 080041B6
Track not present in AccurateRip database
Copy OK

Track 12

Filename E:\100 Best Guitar Classics (2016) [FLAC]\CD1\12 - Alexandre Lagoya - Sonata in D Major, K. 490.wav

Peak level 67.0 %
Extraction speed 4.7 X
Track quality 99.9 %
Test CRC 64ECB453
Copy CRC 64ECB453
Track not present in AccurateRip database
Copy OK

Track 13

Filename E:\100 Best Guitar Classics (2016) [FLAC]\CD1\13 - Alexandre Lagoya - Sonata in A Minor, K. 36.wav

Peak level 58.0 %
Extraction speed 5.3 X
Track quality 100.0 %
Test CRC 19FA4120
Copy CRC 19FA4120
Track not present in AccurateRip database
Copy OK

Track 14

Filename E:\100 Best Guitar Classics (2016) [FLAC]\CD1\14 - Georg Lawall - Xerxes- Largo.wav

Peak level 60.8 %
Extraction speed 5.7 X
Track quality 100.0 %
Test CRC F39F18E1
Copy CRC F39F18E1
Track not present in AccurateRip database
Copy OK

Track 15

Filename E:\100 Best Guitar Classics (2016) [FLAC]\CD1\15 - Manuel Barrueco - Prelude, Fugue and Allegro in E Major, BWV 998- I. Prelude.wav

Peak level 45.4 %
Extraction speed 5.3 X
Track quality 100.0 %
Test CRC B089F75C
Copy CRC B089F75C
Track not present in AccurateRip database
Copy OK

Track 16

Filename E:\100 Best Guitar Classics (2016) [FLAC]\CD1\16 - Peter Wiltschinsky, Robin Hill - Sonata in D Minor, K 141.wav

Peak level 81.1 %
Extraction speed 4.3 X
Track quality 99.9 %
Test CRC 38204C70
Copy CRC 38204C70
Track not present in AccurateRip database
Copy OK

Track 17

Filename E:\100 Best Guitar Classics (2016) [FLAC]\CD1\17 - Turibio Santos - Danzas Populares- Fanfarra - Zarabanda - Ruggero - Paradetas - Espanoletas.wav

Peak level 91.7 %
Extraction speed 6.3 X
Track quality 100.0 %
Test CRC 7D5C0840
Copy CRC 7D5C0840
Track not present in AccurateRip database
Copy OK


None of the tracks are present in the AccurateRip database

No errors occurred

End of status report

–– CUETools DB Plugin V2.1.6

[CTDB TOCID: pPsATzqMkutb9BgkN.ijxAi_do4-] found
Submit result: pPsATzqMkutb9BgkN.ijxAi_do4- has been confirmed
Track | CTDB Status
1 | (7/7) Accurately ripped
2 | (7/7) Accurately ripped
3 | (7/7) Accurately ripped
4 | (7/7) Accurately ripped
5 | (7/7) Accurately ripped
6 | (7/7) Accurately ripped
7 | (7/7) Accurately ripped
8 | (7/7) Accurately ripped
9 | (7/7) Accurately ripped
10 | (7/7) Accurately ripped
11 | (7/7) Accurately ripped
12 | (7/7) Accurately ripped
13 | (7/7) Accurately ripped
14 | (7/7) Accurately ripped
15 | (7/7) Accurately ripped
16 | (7/7) Accurately ripped
17 | (7/7) Accurately ripped


==== Log checksum 0532F910ED1BE6F419296254B7BECB9180F5B4E11A63CC0173D8267C9B309A73 ====

Exact Audio Copy V1.3 from 2. September 2016

EAC extraction logfile from 12. January 2017, 19:59

Various Artists / 100 Best Guitar Classics

Used drive : TSSTcorpCDDVDW SH-222AB Adapter: 1 ID: 0

Read mode : Secure
Utilize accurate stream : Yes
Defeat audio cache : Yes
Make use of C2 pointers : No

Read offset correction : 6
Overread into Lead-In and Lead-Out : No
Fill up missing offset samples with silence : Yes
Delete leading and trailing silent blocks : No
Null samples used in CRC calculations : Yes
Used interface : Native Win32 interface for Win NT & 2000
Gap handling : Appended to previous track

Used output format : User Defined Encoder
Selected bitrate : 1024 kBit/s
Quality : High
Add ID3 tag : No
Command line compressor : C:\Program Files (x86)\Exact Audio Copy\Flac\flac.exe
Additional command line options : -8 -e -p -V -T "ARTIST=%artist%" -T "TITLE=%title%" -T "ALBUM=%albumtitle%" -T "DATE=%year%" -T "TRACKNUMBER=%tracknr%" -T "GENRE=%genre%" -T "PERFORMER=%albuminterpret%" -T "COMPOSER=%composer%" %haslyrics%–tag-from-file=LYRICS="%lyricsfile%"%haslyrics% -T "ALBUMARTIST=%albumartist%" -T "DISCNUMBER=%cdnumber%" -T "TOTALDISCS=%totalcds%" -T "TOTALTRACKS=%numtracks%" -T "COMMENT=%comment%" %source% -o %dest%


TOC of the extracted CD

Track | Start | Length | Start sector | End sector
––––––––––––––––––––––––––––-
1 | 0:00.00 | 2:37.38 | 0 | 11812
2 | 2:37.38 | 5:28.27 | 11813 | 36439
3 | 8:05.65 | 5:19.47 | 36440 | 60411
4 | 13:25.37 | 1:43.40 | 60412 | 68176
5 | 15:09.02 | 1:37.71 | 68177 | 75522
6 | 16:46.73 | 1:48.54 | 75523 | 83676
7 | 18:35.52 | 1:40.69 | 83677 | 91245
8 | 20:16.46 | 2:51.53 | 91246 | 104123
9 | 23:08.24 | 1:46.01 | 104124 | 112074
10 | 24:54.25 | 3:16.27 | 112075 | 126801
11 | 28:10.52 | 1:14.22 | 126802 | 132373
12 | 29:24.74 | 8:52.02 | 132374 | 172275
13 | 38:17.01 | 2:17.07 | 172276 | 182557
14 | 40:34.08 | 3:50.28 | 182558 | 199835
15 | 44:24.36 | 6:04.47 | 199836 | 227182
16 | 50:29.08 | 8:57.38 | 227183 | 267495
17 | 59:26.46 | 14:59.20 | 267496 | 334940


Track 1

Filename E:\100 Best Guitar Classics (2016) [FLAC]\CD2\01 - Pierre Laniau - Romance from ''Jeux Interdits''.wav

Pre-gap length 0:00:02.00

Peak level 55.5 %
Extraction speed 3.5 X
Track quality 100.0 %
Test CRC B5D1AB11
Copy CRC B5D1AB11
Track not present in AccurateRip database
Copy OK

Track 2

Filename E:\100 Best Guitar Classics (2016) [FLAC]\CD2\02 - Wulfin Lieske - Recuerdos de la Alhambra.wav

Peak level 58.6 %
Extraction speed 3.6 X
Track quality 99.9 %
Test CRC B615F429
Copy CRC B615F429
Track not present in AccurateRip database
Copy OK

Track 3

Filename E:\100 Best Guitar Classics (2016) [FLAC]\CD2\03 - Wulfin Lieske - Capricho Arabe (Serenata).wav

Peak level 60.9 %
Extraction speed 4.6 X
Track quality 100.0 %
Test CRC 6CBAB673
Copy CRC 6CBAB673
Track not present in AccurateRip database
Copy OK

Track 4

Filename E:\100 Best Guitar Classics (2016) [FLAC]\CD2\04 - Wulfin Lieske - Lágrima (Preludio).wav

Peak level 44.7 %
Extraction speed 4.0 X
Track quality 100.0 %
Test CRC C8A3F7AF
Copy CRC C8A3F7AF
Track not present in AccurateRip database
Copy OK

Track 5

Filename E:\100 Best Guitar Classics (2016) [FLAC]\CD2\05 - Wulfin Lieske - Maria (Gavota).wav

Peak level 60.8 %
Extraction speed 2.7 X
Track quality 99.8 %
Test CRC BB87F1AE
Copy CRC BB87F1AE
Track not present in AccurateRip database
Copy OK

Track 6

Filename E:\100 Best Guitar Classics (2016) [FLAC]\CD2\06 - Wulfin Lieske - Mazurka.wav

Peak level 43.0 %
Extraction speed 4.2 X
Track quality 100.0 %
Test CRC EC9F8924
Copy CRC EC9F8924
Track not present in AccurateRip database
Copy OK

Track 7

Filename E:\100 Best Guitar Classics (2016) [FLAC]\CD2\07 - Wulfin Lieske - El Testament d'Amelia.wav

Peak level 61.3 %
Extraction speed 2.8 X
Track quality 99.8 %
Test CRC 70CE4C93
Copy CRC 70CE4C93
Track not present in AccurateRip database
Copy OK

Track 8

Filename E:\100 Best Guitar Classics (2016) [FLAC]\CD2\08 - Turibio Santos - Exercice Très Faciles in B Minor, Op. 35- No. 22.wav

Peak level 43.9 %
Extraction speed 5.0 X
Track quality 100.0 %
Test CRC 6EEC5B39
Copy CRC 6EEC5B39
Track not present in AccurateRip database
Copy OK

Track 9

Filename E:\100 Best Guitar Classics (2016) [FLAC]\CD2\09 - Turibio Santos - Étude No. 12 in A Major.wav

Peak level 65.9 %
Extraction speed 4.6 X
Track quality 100.0 %
Test CRC 01AFEA0B
Copy CRC 01AFEA0B
Track not present in AccurateRip database
Copy OK

Track 10

Filename E:\100 Best Guitar Classics (2016) [FLAC]\CD2\10 - Turibio Santos - Étude No. 17 in G Major.wav

Peak level 54.5 %
Extraction speed 5.3 X
Track quality 100.0 %
Test CRC 5E3C98A8
Copy CRC 5E3C98A8
Track not present in AccurateRip database
Copy OK

Track 11

Filename E:\100 Best Guitar Classics (2016) [FLAC]\CD2\11 - Turibio Santos - Étude No. 9 in A Minor.wav

Peak level 62.3 %
Extraction speed 4.2 X
Track quality 100.0 %
Test CRC 6C287112
Copy CRC 6C287112
Track not present in AccurateRip database
Copy OK

Track 12

Filename E:\100 Best Guitar Classics (2016) [FLAC]\CD2\12 - Manuel Barrueco - Grand Solo in D Major, Op. 14.wav

Peak level 68.3 %
Extraction speed 6.4 X
Track quality 100.0 %
Test CRC B170435C
Copy CRC B170435C
Track not present in AccurateRip database
Copy OK

Track 13

Filename E:\100 Best Guitar Classics (2016) [FLAC]\CD2\13 - Georg Lawall - Menuet in D Major.wav

Peak level 45.8 %
Extraction speed 4.0 X
Track quality 99.9 %
Test CRC 864E7C8E
Copy CRC 864E7C8E
Track not present in AccurateRip database
Copy OK

Track 14

Filename E:\100 Best Guitar Classics (2016) [FLAC]\CD2\14 - Georg Lawall - Menuet in C Major.wav

Peak level 47.1 %
Extraction speed 5.0 X
Track quality 99.9 %
Test CRC 506E2CA4
Copy CRC 506E2CA4
Track not present in AccurateRip database
Copy OK

Track 15

Filename E:\100 Best Guitar Classics (2016) [FLAC]\CD2\15 - György Terebesi, Sonja Prunnbauer - Sonata Concertata in A Major for Violin and Guitar- I. Allegro Spritoso.wav

Peak level 80.1 %
Extraction speed 6.9 X
Track quality 100.0 %
Test CRC B08DA8BE
Copy CRC B08DA8BE
Track not present in AccurateRip database
Copy OK

Track 16

Filename E:\100 Best Guitar Classics (2016) [FLAC]\CD2\16 - Robin Hill, Peter Wiltschinsky - Variazioni Concertanti per due Chitarre, Op. 130- I. Introduzione.wav

Peak level 97.2 %
Extraction speed 6.6 X
Track quality 99.9 %
Test CRC 49213688
Copy CRC 49213688
Track not present in AccurateRip database
Copy OK

Track 17

Filename E:\100 Best Guitar Classics (2016) [FLAC]\CD2\17 - Angel Romero, English Chamber Orchestra - Guitar Concerto No. 1 in A Major, Op. 30- I. Allegro.wav

Peak level 91.9 %
Extraction speed 8.2 X
Track quality 100.0 %
Test CRC 070B32F9
Copy CRC 070B32F9
Track not present in AccurateRip database
Copy OK


None of the tracks are present in the AccurateRip database

No errors occurred

End of status report

–– CUETools DB Plugin V2.1.6

[CTDB TOCID: LPb4OU9spDXyOWT7cK5pABEGhL4-] found
Submit result: LPb4OU9spDXyOWT7cK5pABEGhL4- has been confirmed
Track | CTDB Status
1 | (6/6) Accurately ripped
2 | (6/6) Accurately ripped
3 | (6/6) Accurately ripped
4 | (6/6) Accurately ripped
5 | (6/6) Accurately ripped
6 | (6/6) Accurately ripped
7 | (6/6) Accurately ripped
8 | (6/6) Accurately ripped
9 | (6/6) Accurately ripped
10 | (6/6) Accurately ripped
11 | (6/6) Accurately ripped
12 | (6/6) Accurately ripped
13 | (6/6) Accurately ripped
14 | (6/6) Accurately ripped
15 | (6/6) Accurately ripped
16 | (6/6) Accurately ripped
17 | (6/6) Accurately ripped


==== Log checksum 8387625137AFC0F7F864C6154E85C172DD3E61A797C52C774A60BC74E2DBC498 ====

Exact Audio Copy V1.3 from 2. September 2016

EAC extraction logfile from 12. January 2017, 19:11

Various Artists / 100 Best Guitar Classics

Used drive : TSSTcorpCDDVDW SH-222AB Adapter: 1 ID: 0

Read mode : Secure
Utilize accurate stream : Yes
Defeat audio cache : Yes
Make use of C2 pointers : No

Read offset correction : 6
Overread into Lead-In and Lead-Out : No
Fill up missing offset samples with silence : Yes
Delete leading and trailing silent blocks : No
Null samples used in CRC calculations : Yes
Used interface : Native Win32 interface for Win NT & 2000
Gap handling : Appended to previous track

Used output format : User Defined Encoder
Selected bitrate : 1024 kBit/s
Quality : High
Add ID3 tag : No
Command line compressor : C:\Program Files (x86)\Exact Audio Copy\Flac\flac.exe
Additional command line options : -8 -e -p -V -T "ARTIST=%artist%" -T "TITLE=%title%" -T "ALBUM=%albumtitle%" -T "DATE=%year%" -T "TRACKNUMBER=%tracknr%" -T "GENRE=%genre%" -T "PERFORMER=%albuminterpret%" -T "COMPOSER=%composer%" %haslyrics%–tag-from-file=LYRICS="%lyricsfile%"%haslyrics% -T "ALBUMARTIST=%albumartist%" -T "DISCNUMBER=%cdnumber%" -T "TOTALDISCS=%totalcds%" -T "TOTALTRACKS=%numtracks%" -T "COMMENT=%comment%" %source% -o %dest%


TOC of the extracted CD

Track | Start | Length | Start sector | End sector
––––––––––––––––––––––––––––-
1 | 0:00.00 | 6:06.19 | 0 | 27468
2 | 6:06.19 | 5:11.23 | 27469 | 50816
3 | 11:17.42 | 4:55.20 | 50817 | 72961
4 | 16:12.62 | 8:32.66 | 72962 | 111427
5 | 24:45.53 | 3:47.12 | 111428 | 128464
6 | 28:32.65 | 4:29.32 | 128465 | 148671
7 | 33:02.22 | 4:21.41 | 148672 | 168287
8 | 37:23.63 | 5:44.16 | 168288 | 194103
9 | 43:08.04 | 4:29.01 | 194104 | 214279
10 | 47:37.05 | 3:38.61 | 214280 | 230690
11 | 51:15.66 | 4:19.24 | 230691 | 250139
12 | 55:35.15 | 5:48.04 | 250140 | 276243
13 | 61:23.19 | 3:48.72 | 276244 | 293415
14 | 65:12.16 | 1:40.04 | 293416 | 300919
15 | 66:52.20 | 1:31.54 | 300920 | 307798
16 | 68:23.74 | 3:00.35 | 307799 | 321333


Track 1

Filename E:\100 Best Guitar Classics (2016) [FLAC]\CD3\01 - Turibio Santos - Suite Española No. 1, Op. 47- V. Asturias (Leyenda).wav

Pre-gap length 0:00:02.00

Peak level 81.2 %
Extraction speed 5.2 X
Track quality 100.0 %
Test CRC A98B3FDE
Copy CRC A98B3FDE
Track not present in AccurateRip database
Copy OK

Track 2

Filename E:\100 Best Guitar Classics (2016) [FLAC]\CD3\02 - Sharon Isbin - 12 Danzas Españolas, Op. 37- V. Andaluza.wav

Peak level 81.2 %
Extraction speed 5.7 X
Track quality 100.0 %
Test CRC 97D0C0E8
Copy CRC 97D0C0E8
Track not present in AccurateRip database
Copy OK

Track 3

Filename E:\100 Best Guitar Classics (2016) [FLAC]\CD3\03 - Manuel Barrueco, Thomas Müller-Pering - 12 Danzas Españolas, Op. 37- II. Oriental.wav

Peak level 53.6 %
Extraction speed 6.1 X
Track quality 100.0 %
Test CRC ACE17C0B
Copy CRC ACE17C0B
Track not present in AccurateRip database
Copy OK

Track 4

Filename E:\100 Best Guitar Classics (2016) [FLAC]\CD3\04 - Dario Rossetti-Bonell - Valses Poeticos- I. Vivace Molto and Melodico - VI. Quasi ad Libitum (Sentimental) - VII. Presto.wav

Peak level 68.3 %
Extraction speed 7.0 X
Track quality 100.0 %
Test CRC 91189226
Copy CRC 91189226
Track not present in AccurateRip database
Copy OK

Track 5

Filename E:\100 Best Guitar Classics (2016) [FLAC]\CD3\05 - Manuel Barrueco - Suite Española No. 1, Op. 47- VII. Cataluña (Corranda).wav

Peak level 79.7 %
Extraction speed 6.8 X
Track quality 100.0 %
Test CRC 5A5B9891
Copy CRC 5A5B9891
Track not present in AccurateRip database
Copy OK

Track 6

Filename E:\100 Best Guitar Classics (2016) [FLAC]\CD3\06 - Manuel Barrueco - Suite Española No. 1, Op. 47- VIII. Sevilla (Sevillanas).wav

Peak level 82.1 %
Extraction speed 7.3 X
Track quality 100.0 %
Test CRC C986345E
Copy CRC C986345E
Track not present in AccurateRip database
Copy OK

Track 7

Filename E:\100 Best Guitar Classics (2016) [FLAC]\CD3\07 - Andrés Segovia - Suite Española No. 1, Op. 47- I. Granada.wav

Peak level 53.0 %
Extraction speed 7.5 X
Track quality 100.0 %
Test CRC 42A44B15
Copy CRC 42A44B15
Track not present in AccurateRip database
Copy OK

Track 8

Filename E:\100 Best Guitar Classics (2016) [FLAC]\CD3\08 - Manuel Barrueco, Thomas Müller-Pering - 12 Danzas Españolas, Op. 37- IV. Villanesca.wav

Peak level 46.5 %
Extraction speed 8.1 X
Track quality 100.0 %
Test CRC E5DC0F44
Copy CRC E5DC0F44
Track not present in AccurateRip database
Copy OK

Track 9

Filename E:\100 Best Guitar Classics (2016) [FLAC]\CD3\09 - Eliot Fisk - Tonadillas al Estilo Antiguo- VIII. La Maja de Goya.wav

Peak level 92.5 %
Extraction speed 8.2 X
Track quality 100.0 %
Test CRC 294B7C62
Copy CRC 294B7C62
Track not present in AccurateRip database
Copy OK

Track 10

Filename E:\100 Best Guitar Classics (2016) [FLAC]\CD3\10 - Julian Byzantine - Recuerdos de Viaje, Op. 71- V. Puerta de Tierra (Bolero).wav

Peak level 63.9 %
Extraction speed 6.4 X
Track quality 99.9 %
Test CRC 65B45B61
Copy CRC 65B45B61
Track not present in AccurateRip database
Copy OK

Track 11

Filename E:\100 Best Guitar Classics (2016) [FLAC]\CD3\11 - Julian Byzantine - Recuerdos de Viaje, Op. 71- VI. Rumores de la Caleta (Malagueña).wav

Peak level 50.8 %
Extraction speed 7.0 X
Track quality 99.9 %
Test CRC 6D35789B
Copy CRC 6D35789B
Track not present in AccurateRip database
Copy OK

Track 12

Filename E:\100 Best Guitar Classics (2016) [FLAC]\CD3\12 - Julian Byzantine - Recuerdos de Viaje, Op. 71- I. En el Mar.wav

Peak level 53.2 %
Extraction speed 9.1 X
Track quality 100.0 %
Test CRC 051C618A
Copy CRC 051C618A
Track not present in AccurateRip database
Copy OK

Track 13

Filename E:\100 Best Guitar Classics (2016) [FLAC]\CD3\13 - Julian Byzantine - Serenata Española.wav

Peak level 57.5 %
Extraction speed 8.9 X
Track quality 100.0 %
Test CRC 72453619
Copy CRC 72453619
Track not present in AccurateRip database
Copy OK

Track 14

Filename E:\100 Best Guitar Classics (2016) [FLAC]\CD3\14 - Wulfin Lieske - Cançó del Lladre.wav

Peak level 43.1 %
Extraction speed 7.5 X
Track quality 100.0 %
Test CRC F592738E
Copy CRC F592738E
Track not present in AccurateRip database
Copy OK

Track 15

Filename E:\100 Best Guitar Classics (2016) [FLAC]\CD3\15 - Wulfin Lieske - Plany.wav

Peak level 55.6 %
Extraction speed 7.5 X
Track quality 100.0 %
Test CRC C86A0353
Copy CRC C86A0353
Track not present in AccurateRip database
Copy OK

Track 16

Filename E:\100 Best Guitar Classics (2016) [FLAC]\CD3\16 - Wulfin Lieske - El Mestre.wav

Peak level 58.3 %
Extraction speed 8.8 X
Track quality 100.0 %
Test CRC 9D7BCF53
Copy CRC 9D7BCF53
Track not present in AccurateRip database
Copy OK


None of the tracks are present in the AccurateRip database

No errors occurred

End of status report

–– CUETools DB Plugin V2.1.6

[CTDB TOCID: xyAeEqfsbM6QdDuTCDnde5qjebo-] found
Submit result: xyAeEqfsbM6QdDuTCDnde5qjebo- has been confirmed
Track | CTDB Status
1 | (6/6) Accurately ripped
2 | (6/6) Accurately ripped
3 | (6/6) Accurately ripped
4 | (6/6) Accurately ripped
5 | (6/6) Accurately ripped
6 | (6/6) Accurately ripped
7 | (6/6) Accurately ripped
8 | (6/6) Accurately ripped
9 | (6/6) Accurately ripped
10 | (6/6) Accurately ripped
11 | (6/6) Accurately ripped
12 | (6/6) Accurately ripped
13 | (6/6) Accurately ripped
14 | (6/6) Accurately ripped
15 | (6/6) Accurately ripped
16 | (6/6) Accurately ripped


==== Log checksum F83BA58AAA44162E9240C2B070C7FE08DB5059DF0D012AE35120B447A94867E8 ====

Exact Audio Copy V1.3 from 2. September 2016

EAC extraction logfile from 12. January 2017, 18:30

Various Artists / 100 Best Guitar Classics

Used drive : TSSTcorpCDDVDW SH-222AB Adapter: 1 ID: 0

Read mode : Secure
Utilize accurate stream : Yes
Defeat audio cache : Yes
Make use of C2 pointers : No

Read offset correction : 6
Overread into Lead-In and Lead-Out : No
Fill up missing offset samples with silence : Yes
Delete leading and trailing silent blocks : No
Null samples used in CRC calculations : Yes
Used interface : Native Win32 interface for Win NT & 2000
Gap handling : Appended to previous track

Used output format : User Defined Encoder
Selected bitrate : 1024 kBit/s
Quality : High
Add ID3 tag : No
Command line compressor : C:\Program Files (x86)\Exact Audio Copy\Flac\flac.exe
Additional command line options : -8 -e -p -V -T "ARTIST=%artist%" -T "TITLE=%title%" -T "ALBUM=%albumtitle%" -T "DATE=%year%" -T "TRACKNUMBER=%tracknr%" -T "GENRE=%genre%" -T "PERFORMER=%albuminterpret%" -T "COMPOSER=%composer%" %haslyrics%–tag-from-file=LYRICS="%lyricsfile%"%haslyrics% -T "ALBUMARTIST=%albumartist%" -T "DISCNUMBER=%cdnumber%" -T "TOTALDISCS=%totalcds%" -T "TOTALTRACKS=%numtracks%" -T "COMMENT=%comment%" %source% -o %dest%


TOC of the extracted CD

Track | Start | Length | Start sector | End sector
––––––––––––––––––––––––––––-
1 | 0:00.00 | 6:08.51 | 0 | 27650
2 | 6:08.51 | 10:48.47 | 27651 | 76297
3 | 16:57.23 | 5:02.34 | 76298 | 98981
4 | 21:59.57 | 6:36.55 | 98982 | 128736
5 | 28:36.37 | 6:24.41 | 128737 | 157577
6 | 35:01.03 | 4:41.71 | 157578 | 178723
7 | 39:42.74 | 7:34.47 | 178724 | 212820
8 | 47:17.46 | 3:51.11 | 212821 | 230156
9 | 51:08.57 | 4:01.31 | 230157 | 248262
10 | 55:10.13 | 2:26.24 | 248263 | 259236
11 | 57:36.37 | 2:41.61 | 259237 | 271372
12 | 60:18.23 | 4:35.39 | 271373 | 292036
13 | 64:53.62 | 9:02.09 | 292037 | 332695


Track 1

Filename E:\100 Best Guitar Classics (2016) [FLAC]\CD4\01 - Angel Romero, London Symphony Orchestra - Concierto de Aranjuez- I. Allegro Con Spirito.wav

Pre-gap length 0:00:02.00

Peak level 96.4 %
Extraction speed 4.1 X
Track quality 100.0 %
Test CRC 57B42D90
Copy CRC 57B42D90
Track not present in AccurateRip database
Copy OK

Track 2

Filename E:\100 Best Guitar Classics (2016) [FLAC]\CD4\02 - Angel Romero, London Symphony Orchestra - Concierto de Aranjuez- II. Adagio.wav

Peak level 74.3 %
Extraction speed 5.0 X
Track quality 100.0 %
Test CRC 1465839D
Copy CRC 1465839D
Track not present in AccurateRip database
Copy OK

Track 3

Filename E:\100 Best Guitar Classics (2016) [FLAC]\CD4\03 - Angel Romero, London Symphony Orchestra - Concierto de Aranjuez- III. Allegro Gentile.wav

Peak level 69.7 %
Extraction speed 4.3 X
Track quality 99.9 %
Test CRC 65BCFC90
Copy CRC 65BCFC90
Track not present in AccurateRip database
Copy OK

Track 4

Filename E:\100 Best Guitar Classics (2016) [FLAC]\CD4\04 - Manuel Barrueco - The Three-Cornered Hat- Night - The Miller's Dance.wav

Peak level 60.9 %
Extraction speed 5.0 X
Track quality 99.9 %
Test CRC 64886923
Copy CRC 64886923
Track not present in AccurateRip database
Copy OK

Track 5

Filename E:\100 Best Guitar Classics (2016) [FLAC]\CD4\05 - Manuel Barrueco - The Three-Cornered Hat- The Corregidor - Dance of the Miller's Wife.wav

Peak level 60.9 %
Extraction speed 6.1 X
Track quality 100.0 %
Test CRC CCA30134
Copy CRC CCA30134
Track not present in AccurateRip database
Copy OK

Track 6

Filename E:\100 Best Guitar Classics (2016) [FLAC]\CD4\06 - Ernesto Bitetti - Homenaje a Tarrega, Op. 69- I. Garrotin - II. Soleares.wav

Peak level 86.0 %
Extraction speed 6.2 X
Track quality 100.0 %
Test CRC 23C618C0
Copy CRC 23C618C0
Track not present in AccurateRip database
Copy OK

Track 7

Filename E:\100 Best Guitar Classics (2016) [FLAC]\CD4\07 - Manuel Barrueco - Invocacíon y Danza.wav

Peak level 76.6 %
Extraction speed 6.8 X
Track quality 100.0 %
Test CRC F6C74535
Copy CRC F6C74535
Track not present in AccurateRip database
Copy OK

Track 8

Filename E:\100 Best Guitar Classics (2016) [FLAC]\CD4\08 - Manuel Barrueco - Tres Piezas Españolas- I. Fandango.wav

Peak level 68.3 %
Extraction speed 6.6 X
Track quality 100.0 %
Test CRC 4738CC31
Copy CRC 4738CC31
Track not present in AccurateRip database
Copy OK

Track 9

Filename E:\100 Best Guitar Classics (2016) [FLAC]\CD4\09 - Ernesto Bitetti - Sonatina in A Major- I. Allegretto.wav

Peak level 68.3 %
Extraction speed 6.9 X
Track quality 100.0 %
Test CRC 63E10BD2
Copy CRC 63E10BD2
Track not present in AccurateRip database
Copy OK

Track 10

Filename E:\100 Best Guitar Classics (2016) [FLAC]\CD4\10 - Sharon Isbin - Zapateado.wav

Peak level 95.3 %
Extraction speed 6.4 X
Track quality 100.0 %
Test CRC 7B69C26F
Copy CRC 7B69C26F
Track not present in AccurateRip database
Copy OK

Track 11

Filename E:\100 Best Guitar Classics (2016) [FLAC]\CD4\11 - Manuel Barrueco - Homenaje- ''Le Tombeau de Claude Debussy''.wav

Peak level 54.2 %
Extraction speed 6.6 X
Track quality 100.0 %
Test CRC 0C34D0A3
Copy CRC 0C34D0A3
Track not present in AccurateRip database
Copy OK

Track 12

Filename E:\100 Best Guitar Classics (2016) [FLAC]\CD4\12 - Ernesto Bitetti, Philharmonia Orchestra - Fantasía para un Gentilhombre- I. Adagietto - Andante.wav

Peak level 70.5 %
Extraction speed 6.0 X
Track quality 99.9 %
Test CRC 6D23E206
Copy CRC 6D23E206
Track not present in AccurateRip database
Copy OK

Track 13

Filename E:\100 Best Guitar Classics (2016) [FLAC]\CD4\13 - Ernesto Bitetti, Philharmonia Orchestra - Fantasía para un Gentilhombre- II. Adagio.wav

Peak level 96.5 %
Extraction speed 6.2 X
Track quality 100.0 %
Test CRC E70F66EA
Copy CRC E70F66EA
Track not present in AccurateRip database
Copy OK


None of the tracks are present in the AccurateRip database

No errors occurred

End of status report

–– CUETools DB Plugin V2.1.6

[CTDB TOCID: qKudRwLnmKTxLbRji8DeJ9GS_lQ-] found
Submit result: qKudRwLnmKTxLbRji8DeJ9GS_lQ- has been confirmed
Track | CTDB Status
1 | (3/3) Accurately ripped
2 | (3/3) Accurately ripped
3 | (3/3) Accurately ripped
4 | (3/3) Accurately ripped
5 | (3/3) Accurately ripped
6 | (3/3) Accurately ripped
7 | (3/3) Accurately ripped
8 | (3/3) Accurately ripped
9 | (3/3) Accurately ripped
10 | (3/3) Accurately ripped
11 | (3/3) Accurately ripped
12 | (3/3) Accurately ripped
13 | (3/3) Accurately ripped


==== Log checksum 61E06A032F13B5FD0CBB4584A80D3215C69D4582941A76B48D0BC0B266F8E990 ====

Exact Audio Copy V1.3 from 2. September 2016

EAC extraction logfile from 12. January 2017, 17:04

Various Artists / 100 Best Guitar Classics

Used drive : TSSTcorpCDDVDW SH-222AB Adapter: 1 ID: 0

Read mode : Secure
Utilize accurate stream : Yes
Defeat audio cache : Yes
Make use of C2 pointers : No

Read offset correction : 6
Overread into Lead-In and Lead-Out : No
Fill up missing offset samples with silence : Yes
Delete leading and trailing silent blocks : No
Null samples used in CRC calculations : Yes
Used interface : Native Win32 interface for Win NT & 2000
Gap handling : Appended to previous track

Used output format : User Defined Encoder
Selected bitrate : 1024 kBit/s
Quality : High
Add ID3 tag : No
Command line compressor : C:\Program Files (x86)\Exact Audio Copy\Flac\flac.exe
Additional command line options : -8 -e -p -V -T "ARTIST=%artist%" -T "TITLE=%title%" -T "ALBUM=%albumtitle%" -T "DATE=%year%" -T "TRACKNUMBER=%tracknr%" -T "GENRE=%genre%" -T "PERFORMER=%albuminterpret%" -T "COMPOSER=%composer%" %haslyrics%–tag-from-file=LYRICS="%lyricsfile%"%haslyrics% -T "ALBUMARTIST=%albumartist%" -T "DISCNUMBER=%cdnumber%" -T "TOTALDISCS=%totalcds%" -T "TOTALTRACKS=%numtracks%" -T "COMMENT=%comment%" %source% -o %dest%


TOC of the extracted CD

Track | Start | Length | Start sector | End sector
––––––––––––––––––––––––––––-
1 | 0:00.00 | 5:28.53 | 0 | 24652
2 | 5:28.53 | 2:53.48 | 24653 | 37675
3 | 8:22.26 | 2:28.20 | 37676 | 48795
4 | 10:50.46 | 1:54.49 | 48796 | 57394
5 | 12:45.20 | 1:45.15 | 57395 | 65284
6 | 14:30.35 | 3:00.41 | 65285 | 78825
7 | 17:31.01 | 5:12.17 | 78826 | 102242
8 | 22:43.18 | 3:11.65 | 102243 | 116632
9 | 25:55.08 | 4:07.14 | 116633 | 135171
10 | 30:02.22 | 5:07.22 | 135172 | 158218
11 | 35:09.44 | 2:09.03 | 158219 | 167896
12 | 37:18.47 | 1:57.41 | 167897 | 176712
13 | 39:16.13 | 5:02.17 | 176713 | 199379
14 | 44:18.30 | 6:27.53 | 199380 | 228457
15 | 50:46.08 | 2:25.57 | 228458 | 239389
16 | 53:11.65 | 3:26.47 | 239390 | 254886
17 | 56:38.37 | 4:01.20 | 254887 | 272981
18 | 60:39.57 | 5:08.43 | 272982 | 296124
19 | 65:48.25 | 6:56.20 | 296125 | 327344


Track 1

Filename E:\100 Best Guitar Classics (2016) [FLAC]\CD5\01 - Dario Rossetti-Bonell - Preludes No.1 in E Minor.wav

Pre-gap length 0:00:02.00

Peak level 59.1 %
Extraction speed 5.1 X
Track quality 100.0 %
Test CRC F44E4B01
Copy CRC F44E4B01
Track not present in AccurateRip database
Copy OK

Track 2

Filename E:\100 Best Guitar Classics (2016) [FLAC]\CD5\02 - Manuel Barrueco - Scherzino Mexicano.wav

Peak level 79.1 %
Extraction speed 3.8 X
Track quality 99.9 %
Test CRC F16F7F9F
Copy CRC F16F7F9F
Track not present in AccurateRip database
Copy OK

Track 3

Filename E:\100 Best Guitar Classics (2016) [FLAC]\CD5\03 - Turibio Santos - Vals Venezolano No. 3.wav

Peak level 52.6 %
Extraction speed 5.1 X
Track quality 100.0 %
Test CRC 37553B98
Copy CRC 37553B98
Track not present in AccurateRip database
Copy OK

Track 4

Filename E:\100 Best Guitar Classics (2016) [FLAC]\CD5\04 - Manuel Barrueco - La Cathedral- I. Preludio Saudade.wav

Peak level 44.8 %
Extraction speed 4.9 X
Track quality 100.0 %
Test CRC DD943E64
Copy CRC DD943E64
Track not present in AccurateRip database
Copy OK

Track 5

Filename E:\100 Best Guitar Classics (2016) [FLAC]\CD5\05 - Manuel Barrueco - La Cathedral- II. Andante Religioso.wav

Peak level 63.9 %
Extraction speed 5.0 X
Track quality 100.0 %
Test CRC 4D2657AD
Copy CRC 4D2657AD
Track not present in AccurateRip database
Copy OK

Track 6

Filename E:\100 Best Guitar Classics (2016) [FLAC]\CD5\06 - Manuel Barrueco - La Cathedral- III. Allegro Solemne.wav

Peak level 54.1 %
Extraction speed 5.8 X
Track quality 100.0 %
Test CRC 85F55E9E
Copy CRC 85F55E9E
Track not present in AccurateRip database
Copy OK

Track 7

Filename E:\100 Best Guitar Classics (2016) [FLAC]\CD5\07 - Sharon Isbin - El Decamerón Negro- III. Balada de la Doncella Enamorada.wav

Peak level 98.6 %
Extraction speed 6.7 X
Track quality 100.0 %
Test CRC 7D59AE2E
Copy CRC 7D59AE2E
Track not present in AccurateRip database
Copy OK

Track 8

Filename E:\100 Best Guitar Classics (2016) [FLAC]\CD5\08 - Manuel Barrueco - Canción de Cuna (Berceuse).wav

Peak level 41.0 %
Extraction speed 5.0 X
Track quality 99.9 %
Test CRC F6F42032
Copy CRC F6F42032
Track not present in AccurateRip database
Copy OK

Track 9

Filename E:\100 Best Guitar Classics (2016) [FLAC]\CD5\09 - Turibio Santos - Chôros No.1 in E Minor.wav

Peak level 52.4 %
Extraction speed 7.0 X
Track quality 100.0 %
Test CRC 5CB1B5F6
Copy CRC 5CB1B5F6
Track not present in AccurateRip database
Copy OK

Track 10

Filename E:\100 Best Guitar Classics (2016) [FLAC]\CD5\10 - Manuel Barrueco - La Muerte del Angel.wav

Peak level 96.4 %
Extraction speed 6.3 X
Track quality 99.9 %
Test CRC 8B47E482
Copy CRC 8B47E482
Track not present in AccurateRip database
Copy OK

Track 11

Filename E:\100 Best Guitar Classics (2016) [FLAC]\CD5\11 - Julian Byzantine - Étude No.1 in E Minor.wav

Peak level 33.0 %
Extraction speed 6.6 X
Track quality 100.0 %
Test CRC CADE8773
Copy CRC CADE8773
Track not present in AccurateRip database
Copy OK

Track 12

Filename E:\100 Best Guitar Classics (2016) [FLAC]\CD5\12 - Julian Byzantine - Étude No. 2 in A Major.wav

Peak level 52.2 %
Extraction speed 4.6 X
Track quality 99.9 %
Test CRC D2E057D3
Copy CRC D2E057D3
Track not present in AccurateRip database
Copy OK

Track 13

Filename E:\100 Best Guitar Classics (2016) [FLAC]\CD5\13 - Dario Rossetti-Bonell - Vals No. 4, Op. 8.wav

Peak level 81.1 %
Extraction speed 8.1 X
Track quality 100.0 %
Test CRC 85E6B9DE
Copy CRC 85E6B9DE
Track not present in AccurateRip database
Copy OK

Track 14

Filename E:\100 Best Guitar Classics (2016) [FLAC]\CD5\14 - Dario Rossetti-Bonell - Mazurka Apasionata.wav

Peak level 55.6 %
Extraction speed 8.6 X
Track quality 100.0 %
Test CRC 89125569
Copy CRC 89125569
Track not present in AccurateRip database
Copy OK

Track 15

Filename E:\100 Best Guitar Classics (2016) [FLAC]\CD5\15 - Eliot Fisk - Triste No. 4.wav

Peak level 66.7 %
Extraction speed 5.6 X
Track quality 99.9 %
Test CRC E7400227
Copy CRC E7400227
Track not present in AccurateRip database
Copy OK

Track 16

Filename E:\100 Best Guitar Classics (2016) [FLAC]\CD5\16 - Eliot Fisk - Aconquija (Guarani Air).wav

Peak level 71.5 %
Extraction speed 8.4 X
Track quality 100.0 %
Test CRC A71243BD
Copy CRC A71243BD
Track not present in AccurateRip database
Copy OK

Track 17

Filename E:\100 Best Guitar Classics (2016) [FLAC]\CD5\17 - Turibio Santos - Suite Populaire Brésilienne- Chorinho.wav

Peak level 45.7 %
Extraction speed 8.8 X
Track quality 100.0 %
Test CRC 49578798
Copy CRC 49578798
Track not present in AccurateRip database
Copy OK

Track 18

Filename E:\100 Best Guitar Classics (2016) [FLAC]\CD5\18 - Roberto Aussel, Orchestre National de Lyon - Concerto for Guitar and Orchestra- I. Allegro Preciso.wav

Peak level 67.0 %
Extraction speed 9.3 X
Track quality 100.0 %
Test CRC 51F64416
Copy CRC 51F64416
Track not present in AccurateRip database
Copy OK

Track 19

Filename E:\100 Best Guitar Classics (2016) [FLAC]\CD5\19 - Sharon Isbin, New York Philharmonic Orchestra - Concierto del Sur- II. Andante.wav

Peak level 83.3 %
Extraction speed 9.9 X
Track quality 100.0 %
Test CRC 737BE825
Copy CRC 737BE825
Track not present in AccurateRip database
Copy OK


None of the tracks are present in the AccurateRip database

No errors occurred

End of status report

–– CUETools DB Plugin V2.1.6

[CTDB TOCID: 2Fd7WSYavn3loFjsUfK186ybqA0-] found
Submit result: 2Fd7WSYavn3loFjsUfK186ybqA0- has been confirmed
Track | CTDB Status
1 | (3/3) Accurately ripped
2 | (3/3) Accurately ripped
3 | (3/3) Accurately ripped
4 | (3/3) Accurately ripped
5 | (3/3) Accurately ripped
6 | (3/3) Accurately ripped
7 | (3/3) Accurately ripped
8 | (3/3) Accurately ripped
9 | (3/3) Accurately ripped
10 | (3/3) Accurately ripped
11 | (3/3) Accurately ripped
12 | (3/3) Accurately ripped
13 | (3/3) Accurately ripped
14 | (3/3) Accurately ripped
15 | (3/3) Accurately ripped
16 | (3/3) Accurately ripped
17 | (3/3) Accurately ripped
18 | (3/3) Accurately ripped
19 | (3/3) Accurately ripped


==== Log checksum A375256AB85AEDD6FACEE8F54198BBB46BD9DC4337DF92DC9AD23978E198A16D ====

Exact Audio Copy V1.3 from 2. September 2016

EAC extraction logfile from 12. January 2017, 17:45

Various Artists / 100 Best Guitar Classics

Used drive : TSSTcorpCDDVDW SH-222AB Adapter: 1 ID: 0

Read mode : Secure
Utilize accurate stream : Yes
Defeat audio cache : Yes
Make use of C2 pointers : No

Read offset correction : 6
Overread into Lead-In and Lead-Out : No
Fill up missing offset samples with silence : Yes
Delete leading and trailing silent blocks : No
Null samples used in CRC calculations : Yes
Used interface : Native Win32 interface for Win NT & 2000
Gap handling : Appended to previous track

Used output format : User Defined Encoder
Selected bitrate : 1024 kBit/s
Quality : High
Add ID3 tag : No
Command line compressor : C:\Program Files (x86)\Exact Audio Copy\Flac\flac.exe
Additional command line options : -8 -e -p -V -T "ARTIST=%artist%" -T "TITLE=%title%" -T "ALBUM=%albumtitle%" -T "DATE=%year%" -T "TRACKNUMBER=%tracknr%" -T "GENRE=%genre%" -T "PERFORMER=%albuminterpret%" -T "COMPOSER=%composer%" %haslyrics%–tag-from-file=LYRICS="%lyricsfile%"%haslyrics% -T "ALBUMARTIST=%albumartist%" -T "DISCNUMBER=%cdnumber%" -T "TOTALDISCS=%totalcds%" -T "TOTALTRACKS=%numtracks%" -T "COMMENT=%comment%" %source% -o %dest%


TOC of the extracted CD

Track | Start | Length | Start sector | End sector
––––––––––––––––––––––––––––-
1 | 0:00.00 | 3:10.33 | 0 | 14282
2 | 3:10.33 | 2:11.58 | 14283 | 24165
3 | 5:22.16 | 3:01.30 | 24166 | 37770
4 | 8:23.46 | 3:56.31 | 37771 | 55501
5 | 12:20.02 | 2:58.19 | 55502 | 68870
6 | 15:18.21 | 1:43.14 | 68871 | 76609
7 | 17:01.35 | 2:58.66 | 76610 | 90025
8 | 20:00.26 | 2:49.20 | 90026 | 102720
9 | 22:49.46 | 3:19.63 | 102721 | 117708
10 | 26:09.34 | 3:28.34 | 117709 | 133342
11 | 29:37.68 | 2:37.43 | 133343 | 145160
12 | 32:15.36 | 2:14.40 | 145161 | 155250
13 | 34:30.01 | 4:55.26 | 155251 | 177401
14 | 39:25.27 | 5:40.13 | 177402 | 202914
15 | 45:05.40 | 6:24.44 | 202915 | 231758
16 | 51:30.09 | 6:11.54 | 231759 | 259637
17 | 57:41.63 | 6:29.17 | 259638 | 288829
18 | 64:11.05 | 6:09.55 | 288830 | 316559


Track 1

Filename E:\100 Best Guitar Classics (2016) [FLAC]\CD6\01 - Manuel Barrueco - Michelle.wav

Pre-gap length 0:00:02.00

Peak level 36.6 %
Extraction speed 4.6 X
Track quality 100.0 %
Test CRC 8929C181
Copy CRC 8929C181
Track not present in AccurateRip database
Copy OK

Track 2

Filename E:\100 Best Guitar Classics (2016) [FLAC]\CD6\02 - Carlos Bonell - Five Bagatelles for Guitar- IV. [Lento].wav

Peak level 60.8 %
Extraction speed 3.3 X
Track quality 99.9 %
Test CRC DE79F505
Copy CRC DE79F505
Track not present in AccurateRip database
Copy OK

Track 3

Filename E:\100 Best Guitar Classics (2016) [FLAC]\CD6\03 - Oscar Ghiglia - Suite Compostelana- V. Cancion.wav

Peak level 44.8 %
Extraction speed 5.1 X
Track quality 100.0 %
Test CRC 1276F68E
Copy CRC 1276F68E
Track not present in AccurateRip database
Copy OK

Track 4

Filename E:\100 Best Guitar Classics (2016) [FLAC]\CD6\04 - Oscar Ghiglia - Tarentella.wav

Peak level 72.3 %
Extraction speed 5.6 X
Track quality 100.0 %
Test CRC B26A2375
Copy CRC B26A2375
Track not present in AccurateRip database
Copy OK

Track 5

Filename E:\100 Best Guitar Classics (2016) [FLAC]\CD6\05 - Julian Bream - Quatre Pièces Brèves- I. Prélude (Lent - Vite).wav

Peak level 66.8 %
Extraction speed 4.3 X
Track quality 99.9 %
Test CRC EF3C2CD7
Copy CRC EF3C2CD7
Track not present in AccurateRip database
Copy OK

Track 6

Filename E:\100 Best Guitar Classics (2016) [FLAC]\CD6\06 - Julian Bream - Quatre Pièces Brèves- II. Air (Lent et Bien Rythmé).wav

Peak level 33.1 %
Extraction speed 5.1 X
Track quality 100.0 %
Test CRC E90C9FFD
Copy CRC E90C9FFD
Track not present in AccurateRip database
Copy OK

Track 7

Filename E:\100 Best Guitar Classics (2016) [FLAC]\CD6\07 - Julian Bream - Quatre Pièces Brèves- III. Plainte (Sans Lenteur).wav

Peak level 44.5 %
Extraction speed 6.1 X
Track quality 100.0 %
Test CRC D76FF275
Copy CRC D76FF275
Track not present in AccurateRip database
Copy OK

Track 8

Filename E:\100 Best Guitar Classics (2016) [FLAC]\CD6\08 - Julian Bream - Quatre Pièces Brèves- IV. Comme une Gigue (Con Moto).wav

Peak level 51.0 %
Extraction speed 6.2 X
Track quality 100.0 %
Test CRC 000B5AC1
Copy CRC 000B5AC1
Track not present in AccurateRip database
Copy OK

Track 9

Filename E:\100 Best Guitar Classics (2016) [FLAC]\CD6\09 - Pierre Laniau - Gymnopédie No. 1.wav

Peak level 32.3 %
Extraction speed 5.0 X
Track quality 99.9 %
Test CRC 45A274C3
Copy CRC 45A274C3
Track not present in AccurateRip database
Copy OK

Track 10

Filename E:\100 Best Guitar Classics (2016) [FLAC]\CD6\10 - Manuel Barrueco - Elogio de la Danza- I. Lento.wav

Peak level 53.4 %
Extraction speed 5.3 X
Track quality 99.9 %
Test CRC FB7B0180
Copy CRC FB7B0180
Track not present in AccurateRip database
Copy OK

Track 11

Filename E:\100 Best Guitar Classics (2016) [FLAC]\CD6\11 - Manuel Barrueco - Elogio de la Danza- II. Obstinato.wav

Peak level 96.6 %
Extraction speed 6.7 X
Track quality 100.0 %
Test CRC 4C245EF8
Copy CRC 4C245EF8
Track not present in AccurateRip database
Copy OK

Track 12

Filename E:\100 Best Guitar Classics (2016) [FLAC]\CD6\12 - Julian Bream - Nocturnal after John Dowland, Op. 70- I. Musingly (Meditation).wav

Peak level 49.1 %
Extraction speed 5.1 X
Track quality 100.0 %
Test CRC D37C5B2E
Copy CRC D37C5B2E
Track not present in AccurateRip database
Copy OK

Track 13

Filename E:\100 Best Guitar Classics (2016) [FLAC]\CD6\13 - Julian Bream - Nocturnal after John Dowland, Op. 70- VIII. Passacaglia (Misurato).wav

Peak level 83.0 %
Extraction speed 7.8 X
Track quality 100.0 %
Test CRC 61B05C30
Copy CRC 61B05C30
Track not present in AccurateRip database
Copy OK

Track 14

Filename E:\100 Best Guitar Classics (2016) [FLAC]\CD6\14 - Sharon Isbin - Agua e Vinho.wav

Peak level 37.7 %
Extraction speed 8.2 X
Track quality 100.0 %
Test CRC B80460F8
Copy CRC B80460F8
Track not present in AccurateRip database
Copy OK

Track 15

Filename E:\100 Best Guitar Classics (2016) [FLAC]\CD6\15 - Julian Bream, City of Birmingham Symphony Orchestra - Guitar Concerto, Op. 67- I. Allegro.wav

Peak level 76.6 %
Extraction speed 8.8 X
Track quality 100.0 %
Test CRC 5C0B83DB
Copy CRC 5C0B83DB
Track not present in AccurateRip database
Copy OK

Track 16

Filename E:\100 Best Guitar Classics (2016) [FLAC]\CD6\16 - Andrés Segovia, New London Orchestra - Guitar Concerto No. 1 in D Major, Op. 99- I. Allegro Giusto.wav

Peak level 63.6 %
Extraction speed 9.1 X
Track quality 100.0 %
Test CRC 8CDE7E22
Copy CRC 8CDE7E22
Track not present in AccurateRip database
Copy OK

Track 17

Filename E:\100 Best Guitar Classics (2016) [FLAC]\CD6\17 - Andrés Segovia, New London Orchestra - Guitar Concerto No. 1 in D Major, Op. 99- II. Andantino - Alla Romanza.wav

Peak level 70.5 %
Extraction speed 9.5 X
Track quality 100.0 %
Test CRC E370C52C
Copy CRC E370C52C
Track not present in AccurateRip database
Copy OK

Track 18

Filename E:\100 Best Guitar Classics (2016) [FLAC]\CD6\18 - Andrés Segovia, New London Orchestra - Guitar Concerto No. 1 in D Major, Op. 99- III. Ritmico e Cavalleresco.wav

Peak level 71.4 %
Extraction speed 9.7 X
Track quality 100.0 %
Test CRC 323CE10B
Copy CRC 323CE10B
Track not present in AccurateRip database
Copy OK


None of the tracks are present in the AccurateRip database

No errors occurred

End of status report

–– CUETools DB Plugin V2.1.6

[CTDB TOCID: lv8rCRDnaixLdgc32SgWZUgxdRM-] found
Submit result: lv8rCRDnaixLdgc32SgWZUgxdRM- has been confirmed
Track | CTDB Status
1 | (3/3) Accurately ripped
2 | (3/3) Accurately ripped
3 | (3/3) Accurately ripped
4 | (3/3) Accurately ripped
5 | (3/3) Accurately ripped
6 | (3/3) Accurately ripped
7 | (3/3) Accurately ripped
8 | (3/3) Accurately ripped
9 | (3/3) Accurately ripped
10 | (3/3) Accurately ripped
11 | (3/3) Accurately ripped
12 | (3/3) Accurately ripped
13 | (3/3) Accurately ripped
14 | (3/3) Accurately ripped
15 | (3/3) Accurately ripped
16 | (3/3) Accurately ripped
17 | (3/3) Accurately ripped
18 | (3/3) Accurately ripped


==== Log checksum 85C9D91E89B6ABB60438AA37B0D227BC8679DB9B37CF34783A36D0B168D4071E ====


Thanks to the Original customer.