Subcategories

Various Artists - 101 Film Classics (2016) {6CD Box Set Decca 478 3676 rel 2012}

Posted By: ruskaval
Various Artists - 101 Film Classics (2016) {6CD Box Set Decca 478 3676 rel 2012}

Various Artists - 101 Film Classics (2016) {6CD Box Set Decca 478 3676 rel 2012}
EAC rip (secure mode) | FLAC (tracks)+CUE+LOG -> 2.20 Gb | MP3 @320 -> 1.07 Gb
Full Artwork @ 300 dpi (png) -> 84 Mb | 5% repair rar
© 2012, 2016 Decca Music | 478 3676
Classical / Film Score

For many their first encounter with classical music will be through its use in films and this collection makes a fantastic entry point to this rich and diverse world. Helpfully all tracks list the films alongside the music, so there will be no doubt as to where the music is familiar from.

Classical music has been used to memorable effect in films many times from Ride of the Valkyries in Apocalypse Now to Barber s Adagio in Platoon and from Also sprach Zarathustra in 2001: A Space Odyssey to Beethoven s Ninth in A Clockwork Orange. Occasionally, as in the case of Mozart s Piano Concerto No.21 used in Elvira Madigan, the film title has provided a lasting nickname for the music. All these favourites are included here.

Alongside two discs of popular favorites, there is a CD devoted entirely to piano music used in film, and another of opera favorites from the movies. Finally there are two discs of music composed for the cinema including the main themes from Star Wars and Schindler s List, both by John Williams, and classics from an earlier time including Gone with the Wind, Lawrence of Arabia and The Big Country.

With a running time approaching 8 hours of music this box set provides remarkable value for money.

Decca INFO

personnel & tracklist:
CD1

01 - Carl Orff - O Fortuna (Excaliber)
02 - Samuel Barber - Adagio for Strings, op.11 (Platoon, Elephant Man)
03 - Ludwig van Beethoven - Symphony No. 7 in A major, op.92 - II. Allegretto (The King's Speech)
04 - Wolfgang Amadeus Mozart - Clarinet Concerto in A major, K622 - II. Adagio (Out of Africa, Green Card)
05 - George Frideric Handel - Keyboard Suite in D minor, HWV 437 - Sarabande (Barry Lyndon)
06 - J. S. Bach - Harpsichord Concerto No. 5 in F minor, BWV 1056 - II. Largo (Hanna and Her Sisters)
07 - Johann Pachelbel - Canon in D major (arr. Munchinger) (The Father of the Bride)
08 - Maurice Ravel - Bolero (excerpt) (10)
09 - J. S. Bach - Suite No. 3 in D major, BWV 1068) 'Air on the G string' (Runaway Bride, The Spy Who Loved Me)
10 - Franz Schubert - String Quintet in C major, D956 - II. Adagio (excerpt) (Conspiracy)
11 - Pyotr Ilyich Tchaikovsky - Swan Lake, op.20 - Scene (Moderato) (Billy Elliot, Black Swan)
12 - Dmitri Shostakovich - Jazz Suite No. 2 - Waltz No. 2 (Eyes Wide Shut)
13 - Claude Debussy - Suite bergamasque - Clair de lune (orch. Mouton) (Ocean's 11)
14 - Gustav Holst - The Planets, op.32 - Saturn, the Bringer of Old Age (The Yards)
15 - Wolfgang Amadeus Mozart - Le nozze di Figaro, K.492 - Overture (Trading Places)
16 - George Frideric Handel - Messiah, HWV 56 - Hallelujah Chorus (Bridget Jones' Diary)

Various Artists - 101 Film Classics (2016) {6CD Box Set Decca 478 3676 rel 2012}


CD2
01 - Richard Strauss - Also sprach Zarathustra, op.30 - Prelude (2001. A Space Odyssey)
02 - Ludwig van Beethoven - Symphony No. 9 in D minor, 'Choral' - IV. Presto - Allegro assai (A Clockwork Orange)
03 - Gustav Mahler - Symphony No. 5 in C sharp minor - IV. Adagietto (Death in Venice)
04 - Wolfgang Amadeus Mozart - Symphony No. 25 in G minor, K183 - I. Allegro con brio (Amadeus)
05 - Tomaso Albinoni - Adagio for Strings and Organ in G minor (arr. Giazotto) (Gallipoli)
06 - George Frideric Handel - Zadok the Priest (Coronation Anthem No. 1, HWV 258) (The Madness of King George)
07 - George Frideric Handel - The Arrival of the Queen of Sheba (Solomon, HWV 67) (Four Weddings and a Funeral)
08 - Edward Elgar - Cello Concerto in E minor, op.85 - I. Adagio - Moderato (excerpt) (Hilary and Jackie)
09 - Giuseppe Verdi - La forza del destino - Sinfonia (Jean de Floret)
10 - Pietro Mascagni - Cavalleria rusticana - Intermezzo (Raging Bull)
11 - J.S. Bach - Double Violin Concerto in D minor, BWV 1043 - II. Largo ma non tanto (Children of a Lesser God)
12 - Antonio Vivaldi - Nulla in mundo pax, RV 630 - 1. Nulla in mundo pax sincera (excerpt) (Shine)
13 - Wolfgang Amadeus Mozart - Serenade in G major, K525 ‘Eine kleine Nachtmusik' - I. Allegro (Whole 9 Yards)
14 - J.S. Bach - Sonata for Cello and Continuo No. 3 in G minor, BWV 1029 - II. Adagio (excerpt) (Truly, Madly, Deeply)
15 - Camille Saint-Saens - Symphony No. 3 in C minor, op.78 'Organ' - IIb. Maestoso - Piu allegro (Babe)

CD3
01 - Richard Addinsell - Warsaw Concerto (Dangerous Moonlight)
02 - Michael Nyman - The Heart Asks Pleasure First (The Piano)
03 - Wolfgang Amadeus Mozart - Piano Concerto No. 21 in C major, K467 - II. Andante (Elvira Madigan)
04 - Ludwig van Beethoven - Sonata No. 14 in C sharp minor, op.27 no.2 'Moonlight' - I. Adagio sostenuto
05 - Ludwig van Beethoven - Piano Concerto No. 5 in E flat major, op.73 'Emperor' - Adagio un poco mosso
06 - J.S. Bach - Goldberg Variations, BWV 988 - Aria (Silence of the Lambs, Hannibal)
07 - Frederic Chopin - Nocturne in C sharp minor, op. posth. (The Pianist)
08 - Franz Schubert - Piano Trio No. 2 in E flat major, D929 - II. Andante con moto (The Piano Teacher)
09 - Sergey Rachmaninov - Piano Concerto No. 2 in C minor, op.18 - II. Adagio sostenuto (Extract) (Brief Encounter)
10 - Erik Satie - Gymnopedie No. 1 (What Lies Beneath)
11 - Charles Williams - The Dream of Olwen (While I Live)
12 - Sergey Rachmaninov - Piano Concerto No. 3 in D minor, op.30 - I. Allegro ma non tanto (Excerpt) (Shine)
13 - Wolfgang Amadeus Mozart - Piano Sonata No. 11 in A major, K331 'Alla turca' - III. Rondo (Truman Show)
14 - Franz Liszt - Hungarian Rhapsody No. 2 in C sharp minor, S244 (Who Framed Roger Rabbit)

Various Artists - 101 Film Classics (2016) {6CD Box Set Decca 478 3676 rel 2012}


CD4
01 - Richard Wagner - Ride of the Valkyries (Apocalypse Now)
02 - Alfredo Catalani - Ebben. No andro lontana (Diva)
03 - Ruggiero Leoncavallo - Recitar! … Vesti la giubba (The Untouchables)
04 - Giacomo Puccini - O mio babbino caro (A Room with a View)
05 - Vincenzo Bellini - Casta Diva (Lorenzo's Oil)
06 - Giuseppi Verdi - Questa o quello (Wall Street)
07 - Wolfgang Amadeus Mozart - Soave sia il vento (Sunday, Bloody Sunday)
08 - Jacques Offenbach - Belle nuit, o nuit d'amour (Life is Beautiful)
09 - Giacomo Puccini - Un bel di vedremo (Victor, Victoria)
10 - Giuseppi Verdi - La donna e mobile (Dirty Rotten Scoundrels)
11 - Georges Bizet - L'amour est un oiseau rebelle (Trainspotting)
12 - Wolfgang Amadeus Mozart - Che soave zeffiretto (The Shawshank Redemption)
13 - Leo Dilibes (Viens, Mallika … Dome epais (Someone to Watch Over Me)
14 - Giacomo Puccini - Che gelida manina (Moonstruck)
15 - Georges Bizet - Je crois entendre encore (The Man Who Cried)
16 - Antonin Dvorak - Mesicku na nebi hlubokem, (Song to the Moon) (Driving Miss Daisy)
17 - Unberto Giordano - La mamma morta (Philadelphia)
18 - Giacomo Puccini - Nussun dorma! (The Witches of Eastwick)

CD5
01 - John Williams - Main Title (Star Wars)
02 - John Williams - Princess Leia's Theme (Star Wars)
03 - James Horner - My Heart Will Go On (Titanic)
04 - Nino Rota - Love Theme (Romeo and Juliet)
05 - Dolly Parton - I Will Always Love You (The Bodyguard)
06 - John Barry - We Have All the Time in the World (On Her Majesty's Secret Service)
07 - Buffy Sainte-Marie, Jack Nitzsche - Up Where We Belong (An Officer and a Gentleman)
08 - Giorgio Moroder - Take My Breath Away (Top Gun)
09 - Elton John - Can You Feel the Love Tonight (The Lion King)
10 - Barbra Streisand - Evergreen (A Star is Born)
11 - Reg Presley - Love Is All Around (Four Weddings and a Funeral)
12 - Ennio Morricone, Andrea Morricone - Nuovo Cinema Paradiso (Cinema Paradiso)
13 - Ennio Morricone - Gabriel's Oboe (The Mission)
14 - Harry M. Woods, James Campbell & Reginald Connelly - Try a Little Tenderness (The Commitments)
15 - Henry Mancini - Moon River (Breakfast at Tiffany's)
16 - Francis Lai - Where Do I Begin (Love Story)
17 - Calvin Lewis, Andrew Wright - When a Man Loves a Woman (When a Man Loves a Woman)
18 - Marvin Hamlisch - The Way We Were (The Way We Were)
19 - Maurice Jarre - Somewhere My Love (Doctor Zhivago)
20 - Barry Gibb, Robin Gibb & Maurice Gibb - How Deep is Your Love (Saturday Night Fever)
21 - Stanley Myers - Cavatina (arr. Stanley Black) (The Deer Hunter)
22 - John Williams - Main Theme (Schindler's List)

Various Artists - 101 Film Classics (2016) {6CD Box Set Decca 478 3676 rel 2012}


CD6
01 - Jerome Moross - Opening Music (The Big Country)
02 - Elmer Bernstein - Theme (The Magnificent Seven)
03 - Max Steiner - Main Theme (Stagecoach)
04 - Dimitri Tiomkin - Main Theme (Alamo)
05 - Max Steiner, Herman Hupfeld, Claude Joseph Rouget de Lisle & Franz Joseph Haydn - Casablanca (Casablanca)
06 - Alfred Newman - Blood And Sand (Blood and Sand)
07 - Ernest Gold - Exodus - Ari’s Theme (Exodus)
08 - Maurice Jarre - Theme (Lawrence of Arabia)
09 - Alex North - Antony and Cleopatra's Theme (Cleopatra)
10 - Erich Korngold - Main Title (Sea Hawk)
11 - Jerry Goldsmith - Main Theme (Patton, Lust for Glory)
12 - Victor Young - A Love Like This (For Whom the Bell Tolls)
13 - Arthur Bliss - March (Things to Come)
14 - Bernard Herrmann - Main Title (North by Northwest)
15 - Miklos Rozsa - Theme (Spellbound)
16 - Max Steiner - Music From The Motion Picture (Gone with the Wind)

Exact Audio Copy V1.3 from 2. September 2016

EAC extraction logfile from 14. January 2017, 13:12

Various Artists / 101 Film Classics (CD1)

Used drive : ASUS DRW-24B1ST i Adapter: 1 ID: 0

Read mode : Secure
Utilize accurate stream : Yes
Defeat audio cache : Yes
Make use of C2 pointers : No

Read offset correction : 6
Overread into Lead-In and Lead-Out : No
Fill up missing offset samples with silence : Yes
Delete leading and trailing silent blocks : No
Null samples used in CRC calculations : Yes
Used interface : Native Win32 interface for Win NT & 2000
Gap handling : Appended to previous track

Used output format : User Defined Encoder
Selected bitrate : 128 kBit/s
Quality : High
Add ID3 tag : No
Command line compressor : C:\Program Files (x86)\Exact Audio Copy\Flac\flac.exe
Additional command line options : -8 -V -T "ARTIST=%artist%" -T "TITLE=%title%" -T "ALBUM=%albumtitle%" -T "DATE=%year%" -T "TRACKNUMBER=%tracknr%" -T "TOTALTRACKS=%numtracks%" -T "GENRE=%genre%" -T "ALBUMARTIST=%albumartist%" -T "ALBUM ARTIST=%albumartist%" -T "COMMENT=EAC Secure Mode, Test & Copy, AccurateRip, FLAC -8" %source%


TOC of the extracted CD

Track | Start | Length | Start sector | End sector
––––––––––––––––––––––––––––-
1 | 0:00.00 | 2:25.52 | 0 | 10926
2 | 2:25.52 | 8:40.70 | 10927 | 49996
3 | 11:06.47 | 8:44.32 | 49997 | 89328
4 | 19:51.04 | 7:17.49 | 89329 | 122152
5 | 27:08.53 | 2:54.47 | 122153 | 135249
6 | 30:03.25 | 3:02.62 | 135250 | 148961
7 | 33:06.12 | 4:31.66 | 148962 | 169352
8 | 37:38.03 | 5:04.52 | 169353 | 192204
9 | 42:42.55 | 3:45.08 | 192205 | 209087
10 | 46:27.63 | 5:15.57 | 209088 | 232769
11 | 51:43.45 | 2:59.00 | 232770 | 246194
12 | 54:42.45 | 3:43.59 | 246195 | 262978
13 | 58:26.29 | 4:31.57 | 262979 | 283360
14 | 62:58.11 | 8:54.54 | 283361 | 323464
15 | 71:52.65 | 3:56.15 | 323465 | 341179
16 | 75:49.05 | 3:40.06 | 341180 | 357685


Track 1

Filename D:\_Post\101_Film\CD1\01 - Carl Orff - O Fortuna (Excaliber).wav

Pre-gap length 0:00:02.00

Peak level 98.8 %
Extraction speed 5.1 X
Track quality 100.0 %
Test CRC 47AA0367
Copy CRC 47AA0367
Accurately ripped (confidence 4) [0D5123C1] (AR v2)
Copy OK

Track 2

Filename D:\_Post\101_Film\CD1\02 - Samuel Barber - Adagio for Strings, op.11 (Platoon, Elephant Man).wav

Pre-gap length 0:00:01.36

Peak level 67.5 %
Extraction speed 4.3 X
Track quality 99.9 %
Test CRC DF299484
Copy CRC DF299484
Accurately ripped (confidence 4) [6BAF7347] (AR v2)
Copy OK

Track 3

Filename D:\_Post\101_Film\CD1\03 - Ludwig van Beethoven - Symphony No. 7 in A major, op.92 - II. Allegretto (The King's Speech).wav

Pre-gap length 0:00:01.27

Peak level 79.6 %
Extraction speed 6.8 X
Track quality 99.9 %
Test CRC 4D770E6D
Copy CRC 4D770E6D
Accurately ripped (confidence 4) [B8190C51] (AR v2)
Copy OK

Track 4

Filename D:\_Post\101_Film\CD1\04 - Wolfgang Amadeus Mozart - Clarinet Concerto in A major, K622 - II. Adagio (Out of Africa, Green Card).wav

Pre-gap length 0:00:01.55

Peak level 47.2 %
Extraction speed 8.4 X
Track quality 100.0 %
Test CRC 9B57CBDB
Copy CRC 9B57CBDB
Accurately ripped (confidence 4) [D20DD99C] (AR v2)
Copy OK

Track 5

Filename D:\_Post\101_Film\CD1\05 - George Frideric Handel - Keyboard Suite in D minor, HWV 437 - Sarabande (Barry Lyndon).wav

Pre-gap length 0:00:01.33

Peak level 16.7 %
Extraction speed 6.4 X
Track quality 99.9 %
Test CRC 9CB34306
Copy CRC 9CB34306
Accurately ripped (confidence 4) [CDCB0E4C] (AR v2)
Copy OK

Track 6

Filename D:\_Post\101_Film\CD1\06 - J. S. Bach - Harpsichord Concerto No. 5 in F minor, BWV 1056 - II. Largo (Hanna and Her Sisters).wav

Pre-gap length 0:00:01.46

Peak level 33.9 %
Extraction speed 8.2 X
Track quality 100.0 %
Test CRC 4F1B5D77
Copy CRC 4F1B5D77
Accurately ripped (confidence 4) [E9AF353D] (AR v2)
Copy OK

Track 7

Filename D:\_Post\101_Film\CD1\07 - Johann Pachelbel - Canon in D major (arr. Munchinger) (The Father of the Bride).wav

Pre-gap length 0:00:01.39

Peak level 53.4 %
Extraction speed 7.7 X
Track quality 99.9 %
Test CRC 5D76C1BE
Copy CRC 5D76C1BE
Accurately ripped (confidence 4) [178E1571] (AR v2)
Copy OK

Track 8

Filename D:\_Post\101_Film\CD1\08 - Maurice Ravel - Bolero (excerpt) (10).wav

Pre-gap length 0:00:01.36

Peak level 98.8 %
Extraction speed 9.5 X
Track quality 100.0 %
Test CRC 4FE0FAF4
Copy CRC 4FE0FAF4
Accurately ripped (confidence 4) [2841451C] (AR v2)
Copy OK

Track 9

Filename D:\_Post\101_Film\CD1\09 - J. S. Bach - Suite No. 3 in D major, BWV 1068) 'Air on the G string' (Runaway Bride, The Spy Who Loved Me).wav

Pre-gap length 0:00:01.33

Peak level 77.0 %
Extraction speed 7.8 X
Track quality 99.9 %
Test CRC A365AFBD
Copy CRC A365AFBD
Accurately ripped (confidence 4) [A86A9E92] (AR v2)
Copy OK

Track 10

Filename D:\_Post\101_Film\CD1\10 - Franz Schubert - String Quintet in C major, D956 - II. Adagio (excerpt) (Conspiracy).wav

Pre-gap length 0:00:01.30

Peak level 51.8 %
Extraction speed 9.9 X
Track quality 100.0 %
Test CRC 91512D8D
Copy CRC 91512D8D
Accurately ripped (confidence 4) [BA57BF2D] (AR v2)
Copy OK

Track 11

Filename D:\_Post\101_Film\CD1\11 - Pyotr Ilyich Tchaikovsky - Swan Lake, op.20 - Scene (Moderato) (Billy Elliot, Black Swan).wav

Pre-gap length 0:00:01.57

Peak level 98.8 %
Extraction speed 9.5 X
Track quality 100.0 %
Test CRC 7A1A8083
Copy CRC 7A1A8083
Accurately ripped (confidence 4) [9A8D8909] (AR v2)
Copy OK

Track 12

Filename D:\_Post\101_Film\CD1\12 - Dmitri Shostakovich - Jazz Suite No. 2 - Waltz No. 2 (Eyes Wide Shut).wav

Pre-gap length 0:00:01.30

Peak level 95.2 %
Extraction speed 8.2 X
Track quality 99.9 %
Test CRC 2ED7FD3B
Copy CRC 2ED7FD3B
Accurately ripped (confidence 4) [57979529] (AR v2)
Copy OK

Track 13

Filename D:\_Post\101_Film\CD1\13 - Claude Debussy - Suite bergamasque - Clair de lune (orch. Mouton) (Ocean's 11).wav

Pre-gap length 0:00:01.39

Peak level 29.0 %
Extraction speed 10.6 X
Track quality 100.0 %
Test CRC 03047C1C
Copy CRC 03047C1C
Accurately ripped (confidence 4) [26A3161A] (AR v2)
Copy OK

Track 14

Filename D:\_Post\101_Film\CD1\14 - Gustav Holst - The Planets, op.32 - Saturn, the Bringer of Old Age (The Yards).wav

Pre-gap length 0:00:01.51

Peak level 98.8 %
Extraction speed 11.5 X
Track quality 100.0 %
Test CRC 535C6160
Copy CRC 535C6160
Accurately ripped (confidence 4) [820DD01F] (AR v2)
Copy OK

Track 15

Filename D:\_Post\101_Film\CD1\15 - Wolfgang Amadeus Mozart - Le nozze di Figaro, K.492 - Overture (Trading Places).wav

Pre-gap length 0:00:01.39

Peak level 82.1 %
Extraction speed 10.2 X
Track quality 100.0 %
Test CRC 11538346
Copy CRC 11538346
Accurately ripped (confidence 4) [CC804C8C] (AR v2)
Copy OK

Track 16

Filename D:\_Post\101_Film\CD1\16 - George Frideric Handel - Messiah, HWV 56 - Hallelujah Chorus (Bridget Jones' Diary).wav

Pre-gap length 0:00:01.48

Peak level 98.8 %
Extraction speed 9.1 X
Track quality 99.9 %
Test CRC EE0DD389
Copy CRC EE0DD389
Accurately ripped (confidence 4) [2D74D2BF] (AR v2)
Copy OK


All tracks accurately ripped

No errors occurred

End of status report

–– CUETools DB Plugin V2.1.6

[CTDB TOCID: MoA7u9xmWqE8RNmanjSiUaICT9s-] found
Submit result: MoA7u9xmWqE8RNmanjSiUaICT9s- has been confirmed
Track | CTDB Status
1 | (7/7) Accurately ripped
2 | (7/7) Accurately ripped
3 | (7/7) Accurately ripped
4 | (7/7) Accurately ripped
5 | (7/7) Accurately ripped
6 | (7/7) Accurately ripped
7 | (7/7) Accurately ripped
8 | (7/7) Accurately ripped
9 | (7/7) Accurately ripped
10 | (7/7) Accurately ripped
11 | (7/7) Accurately ripped
12 | (7/7) Accurately ripped
13 | (7/7) Accurately ripped
14 | (7/7) Accurately ripped
15 | (7/7) Accurately ripped
16 | (7/7) Accurately ripped


==== Log checksum 2CFC6F1D55F04A514209F65D0527C8D67D63CD304453D2FAD351DCBF80FCFDF8 ====

Exact Audio Copy V1.3 from 2. September 2016

EAC extraction logfile from 18. May 2017, 8:00

Various Artists / 101 Film Classics (CD2)

Used drive : ASUS DRW-24B1ST i Adapter: 1 ID: 0

Read mode : Secure
Utilize accurate stream : Yes
Defeat audio cache : Yes
Make use of C2 pointers : No

Read offset correction : 6
Overread into Lead-In and Lead-Out : No
Fill up missing offset samples with silence : Yes
Delete leading and trailing silent blocks : No
Null samples used in CRC calculations : Yes
Used interface : Native Win32 interface for Win NT & 2000
Gap handling : Appended to previous track

Used output format : User Defined Encoder
Selected bitrate : 128 kBit/s
Quality : High
Add ID3 tag : No
Command line compressor : C:\Program Files (x86)\Exact Audio Copy\Flac\flac.exe
Additional command line options : -8 -V -T "ARTIST=%artist%" -T "TITLE=%title%" -T "ALBUM=%albumtitle%" -T "DATE=%year%" -T "TRACKNUMBER=%tracknr%" -T "TOTALTRACKS=%numtracks%" -T "GENRE=%genre%" -T "ALBUMARTIST=%albumartist%" -T "ALBUM ARTIST=%albumartist%" -T "COMMENT=EAC Secure Mode, Test & Copy, AccurateRip, FLAC -8" %source%


TOC of the extracted CD

Track | Start | Length | Start sector | End sector
––––––––––––––––––––––––––––-
1 | 0:00.00 | 1:59.56 | 0 | 8980
2 | 1:59.56 | 7:21.68 | 8981 | 42123
3 | 9:21.49 | 9:48.49 | 42124 | 86272
4 | 19:10.23 | 7:35.06 | 86273 | 120403
5 | 26:45.29 | 8:52.05 | 120404 | 160308
6 | 35:37.34 | 5:51.74 | 160309 | 186707
7 | 41:29.33 | 3:08.52 | 186708 | 200859
8 | 44:38.10 | 3:35.20 | 200860 | 217004
9 | 48:13.30 | 3:09.67 | 217005 | 231246
10 | 51:23.22 | 3:13.47 | 231247 | 245768
11 | 54:36.69 | 6:42.02 | 245769 | 275920
12 | 61:18.71 | 2:49.23 | 275921 | 288618
13 | 64:08.19 | 5:50.22 | 288619 | 314890
14 | 69:58.41 | 3:14.23 | 314891 | 329463
15 | 73:12.64 | 7:43.52 | 329464 | 364240


Track 1

Filename D:\_Post\Various Artists - 101 Film\CD2\01 - Richard Strauss - Also sprach Zarathustra, op.30 - Prelude (2001. A Space Odyssey).wav

Pre-gap length 0:00:02.00

Peak level 98.8 %
Extraction speed 1.8 X
Track quality 100.0 %
Test CRC C73A9ADD
Copy CRC C73A9ADD
Accurately ripped (confidence 4) [EA5413BE] (AR v2)
Copy OK

Track 2

Filename D:\_Post\Various Artists - 101 Film\CD2\02 - Ludwig van Beethoven - Symphony No. 9 in D minor, 'Choral' - IV. Presto - Allegro assai (A Clockwork Orange).wav

Pre-gap length 0:00:01.37

Peak level 89.7 %
Extraction speed 2.0 X
Track quality 99.9 %
Test CRC 287B6738
Copy CRC 287B6738
Accurately ripped (confidence 4) [481C5E36] (AR v2)
Copy OK

Track 3

Filename D:\_Post\Various Artists - 101 Film\CD2\03 - Gustav Mahler - Symphony No. 5 in C sharp minor - IV. Adagietto (Death in Venice).wav

Pre-gap length 0:00:01.32

Peak level 83.8 %
Extraction speed 2.5 X
Track quality 99.9 %
Test CRC 07DABF91
Copy CRC 07DABF91
Accurately ripped (confidence 4) [5F2A474A] (AR v2)
Copy OK

Track 4

Filename D:\_Post\Various Artists - 101 Film\CD2\04 - Wolfgang Amadeus Mozart - Symphony No. 25 in G minor, K183 - I. Allegro con brio (Amadeus).wav

Pre-gap length 0:00:01.42

Peak level 98.1 %
Extraction speed 3.2 X
Track quality 100.0 %
Test CRC 48AA105B
Copy CRC 48AA105B
Accurately ripped (confidence 4) [F82BFDFB] (AR v2)
Copy OK

Track 5

Filename D:\_Post\Various Artists - 101 Film\CD2\05 - Tomaso Albinoni - Adagio for Strings and Organ in G minor (arr. Giazotto) (Gallipoli).wav

Pre-gap length 0:00:01.18

Peak level 92.7 %
Extraction speed 3.5 X
Track quality 100.0 %
Test CRC D82A3BB5
Copy CRC D82A3BB5
Accurately ripped (confidence 4) [21495E5D] (AR v2)
Copy OK

Track 6

Filename D:\_Post\Various Artists - 101 Film\CD2\06 - George Frideric Handel - Zadok the Priest (Coronation Anthem No. 1, HWV 258) (The Madness of King George).wav

Pre-gap length 0:00:01.30

Peak level 98.8 %
Extraction speed 3.6 X
Track quality 100.0 %
Test CRC 3AF5D474
Copy CRC 3AF5D474
Accurately ripped (confidence 4) [BB6EB318] (AR v2)
Copy OK

Track 7

Filename D:\_Post\Various Artists - 101 Film\CD2\07 - George Frideric Handel - The Arrival of the Queen of Sheba (Solomon, HWV 67) (Four Weddings and a Funeral).wav

Pre-gap length 0:00:01.30

Peak level 93.2 %
Extraction speed 3.4 X
Track quality 100.0 %
Test CRC 02698217
Copy CRC 02698217
Accurately ripped (confidence 4) [1BD39E42] (AR v2)
Copy OK

Track 8

Filename D:\_Post\Various Artists - 101 Film\CD2\08 - Edward Elgar - Cello Concerto in E minor, op.85 - I. Adagio - Moderato (excerpt) (Hilary and Jackie).wav

Pre-gap length 0:00:01.48

Peak level 98.8 %
Extraction speed 3.6 X
Track quality 100.0 %
Test CRC 79935AC7
Copy CRC 79935AC7
Accurately ripped (confidence 4) [159DB8E9] (AR v2)
Copy OK

Track 9

Filename D:\_Post\Various Artists - 101 Film\CD2\09 - Giuseppe Verdi - La forza del destino - Sinfonia (Jean de Floret).wav

Pre-gap length 0:00:01.30

Peak level 98.8 %
Extraction speed 2.5 X
Track quality 99.9 %
Test CRC 7DABCA81
Copy CRC 7DABCA81
Accurately ripped (confidence 4) [246C07A8] (AR v2)
Copy OK

Track 10

Filename D:\_Post\Various Artists - 101 Film\CD2\10 - Pietro Mascagni - Cavalleria rusticana - Intermezzo (Raging Bull).wav

Pre-gap length 0:00:01.36

Peak level 81.0 %
Extraction speed 3.7 X
Track quality 100.0 %
Test CRC 56513BED
Copy CRC 56513BED
Accurately ripped (confidence 4) [BB75072E] (AR v2)
Copy OK

Track 11

Filename D:\_Post\Various Artists - 101 Film\CD2\11 - J.S. Bach - Double Violin Concerto in D minor, BWV 1043 - II. Largo ma non tanto (Children of a Lesser God).wav

Pre-gap length 0:00:01.18

Peak level 47.8 %
Extraction speed 3.4 X
Track quality 99.9 %
Test CRC 5DF9B030
Copy CRC 5DF9B030
Accurately ripped (confidence 4) [4ABB561E] (AR v2)
Copy OK

Track 12

Filename D:\_Post\Various Artists - 101 Film\CD2\12 - Antonio Vivaldi - Nulla in mundo pax, RV 630 - 1. Nulla in mundo pax sincera (excerpt) (Shine).wav

Pre-gap length 0:00:01.27

Peak level 98.2 %
Extraction speed 2.6 X
Track quality 99.9 %
Test CRC C892EF67
Copy CRC C892EF67
Accurately ripped (confidence 4) [FCF07583] (AR v2)
Copy OK

Track 13

Filename D:\_Post\Various Artists - 101 Film\CD2\13 - Wolfgang Amadeus Mozart - Serenade in G major, K525 'Eine kleine Nachtmusik' - I. Allegro (Whole 9 Yards).wav

Pre-gap length 0:00:01.45

Peak level 98.8 %
Extraction speed 4.3 X
Track quality 100.0 %
Test CRC A2505748
Copy CRC A2505748
Accurately ripped (confidence 4) [3BDC1B07] (AR v2)
Copy OK

Track 14

Filename D:\_Post\Various Artists - 101 Film\CD2\14 - J.S. Bach - Sonata for Cello and Continuo No. 3 in G minor, BWV 1029 - II. Adagio (excerpt) (Truly, Madly, Deeply).wav

Pre-gap length 0:00:01.30

Peak level 20.1 %
Extraction speed 4.1 X
Track quality 100.0 %
Test CRC 5D11C43B
Copy CRC 5D11C43B
Accurately ripped (confidence 4) [D6B974D0] (AR v2)
Copy OK

Track 15

Filename D:\_Post\Various Artists - 101 Film\CD2\15 - Camille Saint-Saens - Symphony No. 3 in C minor, op.78 'Organ' - IIb. Maestoso - Piu allegro (Babe).wav

Pre-gap length 0:00:01.24

Peak level 98.8 %
Extraction speed 4.7 X
Track quality 100.0 %
Test CRC 2A0EE59B
Copy CRC 2A0EE59B
Accurately ripped (confidence 4) [A15FD0C3] (AR v2)
Copy OK


All tracks accurately ripped

No errors occurred

End of status report

–– CUETools DB Plugin V2.1.6

[CTDB TOCID: MMpbwO8MctBFdKDCxA_7fPGm6nE-] found
Submit result: already submitted
Track | CTDB Status
1 | (10/10) Accurately ripped
2 | (10/10) Accurately ripped
3 | (10/10) Accurately ripped
4 | (10/10) Accurately ripped
5 | (10/10) Accurately ripped
6 | (10/10) Accurately ripped
7 | (10/10) Accurately ripped
8 | (10/10) Accurately ripped
9 | (10/10) Accurately ripped
10 | (10/10) Accurately ripped
11 | (10/10) Accurately ripped
12 | (10/10) Accurately ripped
13 | (10/10) Accurately ripped
14 | (10/10) Accurately ripped
15 | (10/10) Accurately ripped


==== Log checksum 95B8A61231FD19E76AD9A876A6FE91B2416F635FDC833322C8599BFD283C6FFB ====

Exact Audio Copy V1.3 from 2. September 2016

EAC extraction logfile from 14. January 2017, 17:15

Various Artists / 101 Film Classics (CD3)

Used drive : ASUS DRW-24B1ST i Adapter: 1 ID: 0

Read mode : Secure
Utilize accurate stream : Yes
Defeat audio cache : Yes
Make use of C2 pointers : No

Read offset correction : 6
Overread into Lead-In and Lead-Out : No
Fill up missing offset samples with silence : Yes
Delete leading and trailing silent blocks : No
Null samples used in CRC calculations : Yes
Used interface : Native Win32 interface for Win NT & 2000
Gap handling : Appended to previous track

Used output format : User Defined Encoder
Selected bitrate : 128 kBit/s
Quality : High
Add ID3 tag : No
Command line compressor : C:\Program Files (x86)\Exact Audio Copy\Flac\flac.exe
Additional command line options : -8 -V -T "ARTIST=%artist%" -T "TITLE=%title%" -T "ALBUM=%albumtitle%" -T "DATE=%year%" -T "TRACKNUMBER=%tracknr%" -T "TOTALTRACKS=%numtracks%" -T "GENRE=%genre%" -T "ALBUMARTIST=%albumartist%" -T "ALBUM ARTIST=%albumartist%" -T "COMMENT=EAC Secure Mode, Test & Copy, AccurateRip, FLAC -8" %source%


TOC of the extracted CD

Track | Start | Length | Start sector | End sector
––––––––––––––––––––––––––––-
1 | 0:00.00 | 9:03.73 | 0 | 40797
2 | 9:03.73 | 2:15.02 | 40798 | 50924
3 | 11:19.00 | 7:18.17 | 50925 | 83791
4 | 18:37.17 | 6:10.16 | 83792 | 111557
5 | 24:47.33 | 7:48.55 | 111558 | 146712
6 | 32:36.13 | 3:53.05 | 146713 | 164192
7 | 36:29.18 | 4:07.31 | 164193 | 182748
8 | 40:36.49 | 9:01.00 | 182749 | 223323
9 | 49:37.49 | 4:02.18 | 223324 | 241491
10 | 53:39.67 | 3:11.51 | 241492 | 255867
11 | 56:51.43 | 3:52.52 | 255868 | 273319
12 | 60:44.20 | 5:07.40 | 273320 | 296384
13 | 65:51.60 | 3:36.06 | 296385 | 312590
14 | 69:27.66 | 8:57.59 | 312591 | 352924


Track 1

Filename D:\_Post\101_Film\CD3\01 - Richard Addinsell - Warsaw Concerto (Dangerous Moonlight).wav

Pre-gap length 0:00:02.00

Peak level 95.7 %
Extraction speed 5.5 X
Track quality 100.0 %
Test CRC D2F51E2E
Copy CRC D2F51E2E
Accurately ripped (confidence 3) [A7D6FF0C] (AR v2)
Copy OK

Track 2

Filename D:\_Post\101_Film\CD3\02 - Michael Nyman - The Heart Asks Pleasure First (The Piano).wav

Pre-gap length 0:00:02.58

Peak level 41.8 %
Extraction speed 5.0 X
Track quality 100.0 %
Test CRC 70CFDAFB
Copy CRC 70CFDAFB
Accurately ripped (confidence 3) [DA15F034] (AR v2)
Copy OK

Track 3

Filename D:\_Post\101_Film\CD3\03 - Wolfgang Amadeus Mozart - Piano Concerto No. 21 in C major, K467 - II. Andante (Elvira Madigan).wav

Pre-gap length 0:00:02.58

Peak level 71.2 %
Extraction speed 5.8 X
Track quality 99.9 %
Test CRC 528056BB
Copy CRC 528056BB
Accurately ripped (confidence 3) [8EDC32E0] (AR v2)
Copy OK

Track 4

Filename D:\_Post\101_Film\CD3\04 - Ludwig van Beethoven - Sonata No. 14 in C sharp minor, op.27 no.2 'Moonlight' - I. Adagio sostenuto.wav

Pre-gap length 0:00:02.57

Peak level 78.6 %
Extraction speed 6.9 X
Track quality 100.0 %
Test CRC 4AE19E37
Copy CRC 4AE19E37
Accurately ripped (confidence 3) [498E6339] (AR v2)
Copy OK

Track 5

Filename D:\_Post\101_Film\CD3\05 - Ludwig van Beethoven - Piano Concerto No. 5 in E flat major, op.73 'Emperor' - Adagio un poco mosso.wav

Pre-gap length 0:00:02.57

Peak level 98.8 %
Extraction speed 7.6 X
Track quality 100.0 %
Test CRC 9B8C7BB0
Copy CRC 9B8C7BB0
Accurately ripped (confidence 3) [237E50EC] (AR v2)
Copy OK

Track 6

Filename D:\_Post\101_Film\CD3\06 - J.S. Bach - Goldberg Variations, BWV 988 - Aria (Silence of the Lambs, Hannibal).wav

Pre-gap length 0:00:02.57

Peak level 49.1 %
Extraction speed 6.2 X
Track quality 99.9 %
Test CRC BB956F45
Copy CRC BB956F45
Accurately ripped (confidence 3) [9FFAD871] (AR v2)
Copy OK

Track 7

Filename D:\_Post\101_Film\CD3\07 - Frederic Chopin - Nocturne in C sharp minor, op. posth. (The Pianist).wav

Pre-gap length 0:00:02.57

Peak level 54.4 %
Extraction speed 7.7 X
Track quality 100.0 %
Test CRC 9B7FC0A4
Copy CRC 9B7FC0A4
Accurately ripped (confidence 3) [72B190C6] (AR v2)
Copy OK

Track 8

Filename D:\_Post\101_Film\CD3\08 - Franz Schubert - Piano Trio No. 2 in E flat major, D929 - II. Andante con moto (The Piano Teacher).wav

Pre-gap length 0:00:02.58

Peak level 90.2 %
Extraction speed 8.7 X
Track quality 100.0 %
Test CRC 8402DCA5
Copy CRC 8402DCA5
Accurately ripped (confidence 3) [2F2D50A7] (AR v2)
Copy OK

Track 9

Filename D:\_Post\101_Film\CD3\09 - Sergey Rachmaninov - Piano Concerto No. 2 in C minor, op.18 - II. Adagio sostenuto (Extract) (Brief Encounter).wav

Pre-gap length 0:00:02.57

Peak level 73.5 %
Extraction speed 8.5 X
Track quality 100.0 %
Test CRC 2E266862
Copy CRC 2E266862
Accurately ripped (confidence 3) [7DCD9666] (AR v2)
Copy OK

Track 10

Filename D:\_Post\101_Film\CD3\10 - Erik Satie - Gymnopedie No. 1 (What Lies Beneath).wav

Pre-gap length 0:00:02.57

Peak level 41.3 %
Extraction speed 8.4 X
Track quality 100.0 %
Test CRC E6D2DF4E
Copy CRC E6D2DF4E
Accurately ripped (confidence 3) [ABD18D9D] (AR v2)
Copy OK

Track 11

Filename D:\_Post\101_Film\CD3\11 - Charles Williams - The Dream of Olwen (While I Live).wav

Pre-gap length 0:00:02.57

Peak level 71.1 %
Extraction speed 8.8 X
Track quality 100.0 %
Test CRC BF73D3A4
Copy CRC BF73D3A4
Accurately ripped (confidence 3) [31600CB1] (AR v2)
Copy OK

Track 12

Filename D:\_Post\101_Film\CD3\12 - Sergey Rachmaninov - Piano Concerto No. 3 in D minor, op.30 - I. Allegro ma non tanto (Excerpt) (Shine).wav

Pre-gap length 0:00:02.58

Peak level 58.0 %
Extraction speed 9.4 X
Track quality 100.0 %
Test CRC 440BDCBF
Copy CRC 440BDCBF
Accurately ripped (confidence 3) [AD4F3036] (AR v2)
Copy OK

Track 13

Filename D:\_Post\101_Film\CD3\13 - Wolfgang Amadeus Mozart - Piano Sonata No. 11 in A major, K331 'Alla turca' - III. Rondo (Truman Show).wav

Pre-gap length 0:00:02.58

Peak level 96.2 %
Extraction speed 9.1 X
Track quality 100.0 %
Test CRC BF0B1650
Copy CRC BF0B1650
Accurately ripped (confidence 3) [6A025747] (AR v2)
Copy OK

Track 14

Filename D:\_Post\101_Film\CD3\14 - Franz Liszt - Hungarian Rhapsody No. 2 in C sharp minor, S244 (Who Framed Roger Rabbit).wav

Pre-gap length 0:00:02.57

Peak level 97.7 %
Extraction speed 10.3 X
Track quality 100.0 %
Test CRC 6BC035F2
Copy CRC 6BC035F2
Accurately ripped (confidence 3) [3832899C] (AR v2)
Copy OK


All tracks accurately ripped

No errors occurred

End of status report

–– CUETools DB Plugin V2.1.6

[CTDB TOCID: rj6iQmfw8Su7Lm_GTqwYVj77Yi0-] found
Submit result: rj6iQmfw8Su7Lm_GTqwYVj77Yi0- has been confirmed
Track | CTDB Status
1 | (9/9) Accurately ripped
2 | (9/9) Accurately ripped
3 | (9/9) Accurately ripped
4 | (9/9) Accurately ripped
5 | (9/9) Accurately ripped
6 | (9/9) Accurately ripped
7 | (9/9) Accurately ripped
8 | (9/9) Accurately ripped
9 | (9/9) Accurately ripped
10 | (9/9) Accurately ripped
11 | (9/9) Accurately ripped
12 | (9/9) Accurately ripped
13 | (9/9) Accurately ripped
14 | (9/9) Accurately ripped


==== Log checksum 25D638AFA3DDCE4A5D87D4068DDBABC4F2C7564678D2691CFA5271BD7286A35D ====

Exact Audio Copy V1.3 from 2. September 2016

EAC extraction logfile from 14. January 2017, 19:15

Various Artists / 101 Film Classics (CD4)

Used drive : ASUS DRW-24B1ST i Adapter: 1 ID: 0

Read mode : Secure
Utilize accurate stream : Yes
Defeat audio cache : Yes
Make use of C2 pointers : No

Read offset correction : 6
Overread into Lead-In and Lead-Out : No
Fill up missing offset samples with silence : Yes
Delete leading and trailing silent blocks : No
Null samples used in CRC calculations : Yes
Used interface : Native Win32 interface for Win NT & 2000
Gap handling : Appended to previous track

Used output format : User Defined Encoder
Selected bitrate : 128 kBit/s
Quality : High
Add ID3 tag : No
Command line compressor : C:\Program Files (x86)\Exact Audio Copy\Flac\flac.exe
Additional command line options : -8 -V -T "ARTIST=%artist%" -T "TITLE=%title%" -T "ALBUM=%albumtitle%" -T "DATE=%year%" -T "TRACKNUMBER=%tracknr%" -T "TOTALTRACKS=%numtracks%" -T "GENRE=%genre%" -T "ALBUMARTIST=%albumartist%" -T "ALBUM ARTIST=%albumartist%" -T "COMMENT=EAC Secure Mode, Test & Copy, AccurateRip, FLAC -8" %source%


TOC of the extracted CD

Track | Start | Length | Start sector | End sector
––––––––––––––––––––––––––––-
1 | 0:00.00 | 6:25.24 | 0 | 28898
2 | 6:25.24 | 5:02.42 | 28899 | 51590
3 | 11:27.66 | 3:38.49 | 51591 | 67989
4 | 15:06.40 | 2:14.01 | 67990 | 78040
5 | 17:20.41 | 6:32.48 | 78041 | 107488
6 | 23:53.14 | 1:49.22 | 107489 | 115685
7 | 25:42.36 | 2:41.73 | 115686 | 127833
8 | 28:24.34 | 4:13.67 | 127834 | 146875
9 | 32:38.26 | 4:37.21 | 146876 | 167671
10 | 37:15.47 | 2:23.62 | 167672 | 178458
11 | 39:39.34 | 4:15.18 | 178459 | 197601
12 | 43:54.52 | 2:42.42 | 197602 | 209793
13 | 46:37.19 | 6:05.55 | 209794 | 237223
14 | 52:42.74 | 4:43.02 | 237224 | 258450
15 | 57:26.01 | 3:38.11 | 258451 | 274811
16 | 61:04.12 | 6:12.33 | 274812 | 302744
17 | 67:16.45 | 5:33.02 | 302745 | 327721
18 | 72:49.47 | 2:59.65 | 327722 | 341211


Track 1

Filename D:\_Post\101_Film\CD4\01 - Richard Wagner - Ride of the Valkyries (Apocalypse Now).wav

Pre-gap length 0:00:02.00

Peak level 65.6 %
Extraction speed 2.2 X
Track quality 100.0 %
Test CRC 41D3813F
Copy CRC 41D3813F
Accurately ripped (confidence 2) [FC643919] (AR v2)
Copy OK

Track 2

Filename D:\_Post\101_Film\CD4\02 - Alfredo Catalani - Ebben. No andro lontana (Diva).wav

Pre-gap length 0:00:02.57

Peak level 68.1 %
Extraction speed 2.4 X
Track quality 100.0 %
Test CRC F080EB23
Copy CRC F080EB23
Accurately ripped (confidence 2) [26D70411] (AR v2)
Copy OK

Track 3

Filename D:\_Post\101_Film\CD4\03 - Ruggiero Leoncavallo - Recitar! … Vesti la giubba (The Untouchables).wav

Pre-gap length 0:00:02.57

Peak level 99.4 %
Extraction speed 2.5 X
Track quality 100.0 %
Test CRC ECDBA052
Copy CRC ECDBA052
Accurately ripped (confidence 2) [22A0E7CA] (AR v2)
Copy OK

Track 4

Filename D:\_Post\101_Film\CD4\04 - Giacomo Puccini - O mio babbino caro (A Room with a View).wav

Pre-gap length 0:00:02.57

Peak level 71.2 %
Extraction speed 2.4 X
Track quality 100.0 %
Test CRC B4C2A56E
Copy CRC B4C2A56E
Accurately ripped (confidence 2) [97239F1A] (AR v2)
Copy OK

Track 5

Filename D:\_Post\101_Film\CD4\05 - Vincenzo Bellini - Casta Diva (Lorenzo's Oil).wav

Pre-gap length 0:00:02.57

Peak level 92.9 %
Extraction speed 2.9 X
Track quality 100.0 %
Test CRC 912D3969
Copy CRC 912D3969
Accurately ripped (confidence 2) [B117DDF7] (AR v2)
Copy OK

Track 6

Filename D:\_Post\101_Film\CD4\06 - Giuseppi Verdi - Questa o quello (Wall Street).wav

Pre-gap length 0:00:02.58

Peak level 83.3 %
Extraction speed 2.5 X
Track quality 100.0 %
Test CRC B1440D80
Copy CRC B1440D80
Accurately ripped (confidence 2) [71A442D4] (AR v2)
Copy OK

Track 7

Filename D:\_Post\101_Film\CD4\07 - Wolfgang Amadeus Mozart - Soave sia il vento (Sunday, Bloody Sunday).wav

Pre-gap length 0:00:02.57

Peak level 91.0 %
Extraction speed 1.9 X
Track quality 99.9 %
Test CRC FEAA4E0E
Copy CRC FEAA4E0E
Accurately ripped (confidence 2) [EF43F162] (AR v2)
Copy OK

Track 8

Filename D:\_Post\101_Film\CD4\08 - Jacques Offenbach - Belle nuit, o nuit d'amour (Life is Beautiful).wav

Pre-gap length 0:00:02.58

Peak level 76.0 %
Extraction speed 3.2 X
Track quality 100.0 %
Test CRC 4240BA75
Copy CRC 4240BA75
Accurately ripped (confidence 2) [B83734B6] (AR v2)
Copy OK

Track 9

Filename D:\_Post\101_Film\CD4\09 - Giacomo Puccini - Un bel di vedremo (Victor, Victoria).wav

Pre-gap length 0:00:02.58

Peak level 90.9 %
Extraction speed 3.3 X
Track quality 100.0 %
Test CRC B1AE25B2
Copy CRC B1AE25B2
Accurately ripped (confidence 2) [02CEB7D1] (AR v2)
Copy OK

Track 10

Filename D:\_Post\101_Film\CD4\10 - Giuseppi Verdi - La donna e mobile (Dirty Rotten Scoundrels).wav

Pre-gap length 0:00:02.58

Peak level 84.4 %
Extraction speed 3.1 X
Track quality 100.0 %
Test CRC D02B5B8D
Copy CRC D02B5B8D
Accurately ripped (confidence 2) [A07A4C42] (AR v2)
Copy OK

Track 11

Filename D:\_Post\101_Film\CD4\11 - Georges Bizet - L'amour est un oiseau rebelle (Trainspotting).wav

Pre-gap length 0:00:02.57

Peak level 95.0 %
Extraction speed 3.5 X
Track quality 100.0 %
Test CRC 503A8A6B
Copy CRC 503A8A6B
Accurately ripped (confidence 2) [8357B234] (AR v2)
Copy OK

Track 12

Filename D:\_Post\101_Film\CD4\12 - Wolfgang Amadeus Mozart - Che soave zeffiretto (The Shawshank Redemption).wav

Pre-gap length 0:00:02.58

Peak level 93.9 %
Extraction speed 3.3 X
Track quality 100.0 %
Test CRC 578F4FC2
Copy CRC 578F4FC2
Accurately ripped (confidence 2) [1D97DE6E] (AR v2)
Copy OK

Track 13

Filename D:\_Post\101_Film\CD4\13 - Leo Dilibes (Viens, Mallika … Dome epais (Someone to Watch Over Me).wav

Pre-gap length 0:00:02.57

Peak level 77.5 %
Extraction speed 3.8 X
Track quality 100.0 %
Test CRC 445B48CE
Copy CRC 445B48CE
Accurately ripped (confidence 2) [9B9C69C4] (AR v2)
Copy OK

Track 14

Filename D:\_Post\101_Film\CD4\14 - Giacomo Puccini - Che gelida manina (Moonstruck).wav

Pre-gap length 0:00:02.57

Peak level 79.0 %
Extraction speed 3.9 X
Track quality 100.0 %
Test CRC 7FC70600
Copy CRC 7FC70600
Accurately ripped (confidence 2) [9A643BF6] (AR v2)
Copy OK

Track 15

Filename D:\_Post\101_Film\CD4\15 - Georges Bizet - Je crois entendre encore (The Man Who Cried).wav

Pre-gap length 0:00:02.57

Peak level 60.9 %
Extraction speed 2.7 X
Track quality 99.9 %
Test CRC 6DF1438E
Copy CRC 6DF1438E
Accurately ripped (confidence 2) [E9FEE308] (AR v2)
Copy OK

Track 16

Filename D:\_Post\101_Film\CD4\16 - Antonin Dvorak - Mesicku na nebi hlubokem, (Song to the Moon) (Driving Miss Daisy).wav

Pre-gap length 0:00:02.58

Peak level 93.7 %
Extraction speed 4.2 X
Track quality 100.0 %
Test CRC CB1B466E
Copy CRC CB1B466E
Accurately ripped (confidence 2) [1BE90241] (AR v2)
Copy OK

Track 17

Filename D:\_Post\101_Film\CD4\17 - Unberto Giordano - La mamma morta (Philadelphia).wav

Pre-gap length 0:00:02.57

Peak level 91.3 %
Extraction speed 4.3 X
Track quality 100.0 %
Test CRC FF630137
Copy CRC FF630137
Accurately ripped (confidence 2) [FD459976] (AR v2)
Copy OK

Track 18

Filename D:\_Post\101_Film\CD4\18 - Giacomo Puccini - Nussun dorma! (The Witches of Eastwick).wav

Pre-gap length 0:00:02.58

Peak level 98.9 %
Extraction speed 4.0 X
Track quality 100.0 %
Test CRC 7B9B6B59
Copy CRC 7B9B6B59
Accurately ripped (confidence 2) [D3252424] (AR v2)
Copy OK


All tracks accurately ripped

No errors occurred

End of status report

–– CUETools DB Plugin V2.1.6

[CTDB TOCID: HIfLUv79hQkLtyyHwym8PK8Ei4E-] found
Submit result: HIfLUv79hQkLtyyHwym8PK8Ei4E- has been confirmed
Track | CTDB Status
1 | (7/7) Accurately ripped
2 | (7/7) Accurately ripped
3 | (7/7) Accurately ripped
4 | (7/7) Accurately ripped
5 | (7/7) Accurately ripped
6 | (7/7) Accurately ripped
7 | (7/7) Accurately ripped
8 | (7/7) Accurately ripped
9 | (7/7) Accurately ripped
10 | (7/7) Accurately ripped
11 | (7/7) Accurately ripped
12 | (7/7) Accurately ripped
13 | (7/7) Accurately ripped
14 | (7/7) Accurately ripped
15 | (7/7) Accurately ripped
16 | (7/7) Accurately ripped
17 | (7/7) Accurately ripped
18 | (7/7) Accurately ripped


==== Log checksum D9682DCCD61AE94D5B2273C0EFDE999721C52DF88B9C6157AFEFCBF83F474A16 ====

Exact Audio Copy V1.3 from 2. September 2016

EAC extraction logfile from 14. January 2017, 19:48

Various Artists / 101 Film Classics (CD5)

Used drive : ASUS DRW-24B1ST i Adapter: 1 ID: 0

Read mode : Secure
Utilize accurate stream : Yes
Defeat audio cache : Yes
Make use of C2 pointers : No

Read offset correction : 6
Overread into Lead-In and Lead-Out : No
Fill up missing offset samples with silence : Yes
Delete leading and trailing silent blocks : No
Null samples used in CRC calculations : Yes
Used interface : Native Win32 interface for Win NT & 2000
Gap handling : Appended to previous track

Used output format : User Defined Encoder
Selected bitrate : 128 kBit/s
Quality : High
Add ID3 tag : No
Command line compressor : C:\Program Files (x86)\Exact Audio Copy\Flac\flac.exe
Additional command line options : -8 -V -T "ARTIST=%artist%" -T "TITLE=%title%" -T "ALBUM=%albumtitle%" -T "DATE=%year%" -T "TRACKNUMBER=%tracknr%" -T "TOTALTRACKS=%numtracks%" -T "GENRE=%genre%" -T "ALBUMARTIST=%albumartist%" -T "ALBUM ARTIST=%albumartist%" -T "COMMENT=EAC Secure Mode, Test & Copy, AccurateRip, FLAC -8" %source%


TOC of the extracted CD

Track | Start | Length | Start sector | End sector
––––––––––––––––––––––––––––-
1 | 0:00.00 | 5:13.46 | 0 | 23520
2 | 5:13.46 | 4:33.57 | 23521 | 44052
3 | 9:47.28 | 3:30.28 | 44053 | 59830
4 | 13:17.56 | 3:23.06 | 59831 | 75061
5 | 16:40.62 | 3:28.45 | 75062 | 90706
6 | 20:09.32 | 3:23.11 | 90707 | 105942
7 | 23:32.43 | 3:31.23 | 105943 | 121790
8 | 27:03.66 | 3:23.00 | 121791 | 137015
9 | 30:26.66 | 3:17.10 | 137016 | 151800
10 | 33:44.01 | 3:07.70 | 151801 | 165895
11 | 36:51.71 | 3:16.34 | 165896 | 180629
12 | 40:08.30 | 3:12.57 | 180630 | 195086
13 | 43:21.12 | 3:18.39 | 195087 | 209975
14 | 46:39.51 | 3:29.19 | 209976 | 225669
15 | 50:08.70 | 3:08.59 | 225670 | 239828
16 | 53:17.54 | 3:04.35 | 239829 | 253663
17 | 56:22.14 | 3:35.13 | 253664 | 269801
18 | 59:57.27 | 3:41.04 | 269802 | 286380
19 | 63:38.31 | 3:38.64 | 286381 | 302794
20 | 67:17.20 | 3:10.51 | 302795 | 317095
21 | 70:27.71 | 4:14.43 | 317096 | 336188
22 | 74:42.39 | 3:46.73 | 336189 | 353211


Track 1

Filename D:\_Post\101_Film\CD5\01 - John Williams - Main Title (Star Wars).wav

Pre-gap length 0:00:02.00

Peak level 91.2 %
Extraction speed 5.0 X
Track quality 100.0 %
Test CRC 999DC047
Copy CRC 999DC047
Accurately ripped (confidence 2) [CA37C5A9] (AR v2)
Copy OK

Track 2

Filename D:\_Post\101_Film\CD5\02 - John Williams - Princess Leia's Theme (Star Wars).wav

Pre-gap length 0:00:02.58

Peak level 81.8 %
Extraction speed 5.5 X
Track quality 100.0 %
Test CRC 277B9821
Copy CRC 277B9821
Accurately ripped (confidence 2) [40A9713C] (AR v2)
Copy OK

Track 3

Filename D:\_Post\101_Film\CD5\03 - James Horner - My Heart Will Go On (Titanic).wav

Pre-gap length 0:00:02.58

Peak level 51.5 %
Extraction speed 5.7 X
Track quality 100.0 %
Test CRC 2383465A
Copy CRC 2383465A
Accurately ripped (confidence 2) [883234E7] (AR v2)
Copy OK

Track 4

Filename D:\_Post\101_Film\CD5\04 - Nino Rota - Love Theme (Romeo and Juliet).wav

Pre-gap length 0:00:02.58

Peak level 47.6 %
Extraction speed 5.9 X
Track quality 100.0 %
Test CRC 6B2B5B02
Copy CRC 6B2B5B02
Accurately ripped (confidence 2) [766D97E4] (AR v2)
Copy OK

Track 5

Filename D:\_Post\101_Film\CD5\05 - Dolly Parton - I Will Always Love You (The Bodyguard).wav

Pre-gap length 0:00:02.57

Peak level 53.9 %
Extraction speed 6.2 X
Track quality 100.0 %
Test CRC C3645DC2
Copy CRC C3645DC2
Accurately ripped (confidence 2) [A7A868FA] (AR v2)
Copy OK

Track 6

Filename D:\_Post\101_Film\CD5\06 - John Barry - We Have All the Time in the World (On Her Majesty's Secret Service).wav

Pre-gap length 0:00:02.57

Peak level 41.6 %
Extraction speed 5.1 X
Track quality 99.9 %
Test CRC 9490A1A4
Copy CRC 9490A1A4
Accurately ripped (confidence 2) [6DA0337F] (AR v2)
Copy OK

Track 7

Filename D:\_Post\101_Film\CD5\07 - Buffy Sainte-Marie, Jack Nitzsche - Up Where We Belong (An Officer and a Gentleman).wav

Pre-gap length 0:00:02.58

Peak level 64.4 %
Extraction speed 6.7 X
Track quality 100.0 %
Test CRC 446126EA
Copy CRC 446126EA
Accurately ripped (confidence 2) [58D913B1] (AR v2)
Copy OK

Track 8

Filename D:\_Post\101_Film\CD5\08 - Giorgio Moroder - Take My Breath Away (Top Gun).wav

Pre-gap length 0:00:02.57

Peak level 66.1 %
Extraction speed 6.9 X
Track quality 100.0 %
Test CRC E98D31EA
Copy CRC E98D31EA
Accurately ripped (confidence 2) [50D4A798] (AR v2)
Copy OK

Track 9

Filename D:\_Post\101_Film\CD5\09 - Elton John - Can You Feel the Love Tonight (The Lion King).wav

Pre-gap length 0:00:02.58

Peak level 59.4 %
Extraction speed 7.1 X
Track quality 100.0 %
Test CRC E69B7DA9
Copy CRC E69B7DA9
Accurately ripped (confidence 2) [6DF74B8D] (AR v2)
Copy OK

Track 10

Filename D:\_Post\101_Film\CD5\10 - Barbra Streisand - Evergreen (A Star is Born).wav

Pre-gap length 0:00:02.58

Peak level 55.9 %
Extraction speed 7.1 X
Track quality 100.0 %
Test CRC DE111227
Copy CRC DE111227
Accurately ripped (confidence 2) [DCC51F5F] (AR v2)
Copy OK

Track 11

Filename D:\_Post\101_Film\CD5\11 - Reg Presley - Love Is All Around (Four Weddings and a Funeral).wav

Pre-gap length 0:00:02.58

Peak level 83.4 %
Extraction speed 7.5 X
Track quality 100.0 %
Test CRC 596A0816
Copy CRC 596A0816
Accurately ripped (confidence 2) [5412B494] (AR v2)
Copy OK

Track 12

Filename D:\_Post\101_Film\CD5\12 - Ennio Morricone, Andrea Morricone - Nuovo Cinema Paradiso (Cinema Paradiso).wav

Pre-gap length 0:00:02.58

Peak level 61.0 %
Extraction speed 7.6 X
Track quality 100.0 %
Test CRC C44C7E8F
Copy CRC C44C7E8F
Accurately ripped (confidence 2) [88BD5347] (AR v2)
Copy OK

Track 13

Filename D:\_Post\101_Film\CD5\13 - Ennio Morricone - Gabriel's Oboe (The Mission).wav

Pre-gap length 0:00:02.58

Peak level 70.2 %
Extraction speed 6.3 X
Track quality 99.9 %
Test CRC 1D25DAA9
Copy CRC 1D25DAA9
Accurately ripped (confidence 2) [6A9CE917] (AR v2)
Copy OK

Track 14

Filename D:\_Post\101_Film\CD5\14 - Harry M. Woods, James Campbell & Reginald Connelly - Try a Little Tenderness (The Commitments).wav

Pre-gap length 0:00:02.58

Peak level 55.7 %
Extraction speed 8.2 X
Track quality 100.0 %
Test CRC 8E15E54E
Copy CRC 8E15E54E
Accurately ripped (confidence 2) [3DED47D2] (AR v2)
Copy OK

Track 15

Filename D:\_Post\101_Film\CD5\15 - Henry Mancini - Moon River (Breakfast at Tiffany's).wav

Pre-gap length 0:00:02.58

Peak level 59.9 %
Extraction speed 8.1 X
Track quality 100.0 %
Test CRC 557E6DF6
Copy CRC 557E6DF6
Accurately ripped (confidence 2) [90095A76] (AR v2)
Copy OK

Track 16

Filename D:\_Post\101_Film\CD5\16 - Francis Lai - Where Do I Begin (Love Story).wav

Pre-gap length 0:00:02.57

Peak level 53.3 %
Extraction speed 8.3 X
Track quality 100.0 %
Test CRC 1CCDFABB
Copy CRC 1CCDFABB
Accurately ripped (confidence 2) [40011157] (AR v2)
Copy OK

Track 17

Filename D:\_Post\101_Film\CD5\17 - Calvin Lewis, Andrew Wright - When a Man Loves a Woman (When a Man Loves a Woman).wav

Pre-gap length 0:00:02.57

Peak level 62.2 %
Extraction speed 8.6 X
Track quality 100.0 %
Test CRC A99F9FB3
Copy CRC A99F9FB3
Accurately ripped (confidence 2) [EE47CC27] (AR v2)
Copy OK

Track 18

Filename D:\_Post\101_Film\CD5\18 - Marvin Hamlisch - The Way We Were (The Way We Were).wav

Pre-gap length 0:00:02.57

Peak level 64.7 %
Extraction speed 8.8 X
Track quality 100.0 %
Test CRC A89BC6FD
Copy CRC A89BC6FD
Accurately ripped (confidence 2) [459CD384] (AR v2)
Copy OK

Track 19

Filename D:\_Post\101_Film\CD5\19 - Maurice Jarre - Somewhere My Love (Doctor Zhivago).wav

Pre-gap length 0:00:02.58

Peak level 57.6 %
Extraction speed 9.0 X
Track quality 100.0 %
Test CRC 1FDEACF5
Copy CRC 1FDEACF5
Accurately ripped (confidence 2) [BAEDE88E] (AR v2)
Copy OK

Track 20

Filename D:\_Post\101_Film\CD5\20 - Barry Gibb, Robin Gibb & Maurice Gibb - How Deep is Your Love (Saturday Night Fever).wav

Pre-gap length 0:00:02.58

Peak level 45.9 %
Extraction speed 9.0 X
Track quality 100.0 %
Test CRC DD010BE8
Copy CRC DD010BE8
Accurately ripped (confidence 2) [73EB645E] (AR v2)
Copy OK

Track 21

Filename D:\_Post\101_Film\CD5\21 - Stanley Myers - Cavatina (arr. Stanley Black) (The Deer Hunter).wav

Pre-gap length 0:00:02.58

Peak level 88.6 %
Extraction speed 9.5 X
Track quality 100.0 %
Test CRC 1E7720A1
Copy CRC 1E7720A1
Accurately ripped (confidence 2) [C98B0DD8] (AR v2)
Copy OK

Track 22

Filename D:\_Post\101_Film\CD5\22 - John Williams - Main Theme (Schindler's List).wav

Pre-gap length 0:00:02.58

Peak level 52.1 %
Extraction speed 9.5 X
Track quality 100.0 %
Test CRC BA553959
Copy CRC BA553959
Accurately ripped (confidence 2) [EBC4F7B2] (AR v2)
Copy OK


All tracks accurately ripped

No errors occurred

End of status report

–– CUETools DB Plugin V2.1.6

[CTDB TOCID: GQHt_7gzZN1QD.wG.KZ18n2uTSw-] found
Submit result: GQHt_7gzZN1QD.wG.KZ18n2uTSw- has been confirmed
Track | CTDB Status
1 | (6/6) Accurately ripped
2 | (6/6) Accurately ripped
3 | (6/6) Accurately ripped
4 | (6/6) Accurately ripped
5 | (6/6) Accurately ripped
6 | (6/6) Accurately ripped
7 | (6/6) Accurately ripped
8 | (6/6) Accurately ripped
9 | (6/6) Accurately ripped
10 | (6/6) Accurately ripped
11 | (6/6) Accurately ripped
12 | (6/6) Accurately ripped
13 | (6/6) Accurately ripped
14 | (6/6) Accurately ripped
15 | (6/6) Accurately ripped
16 | (6/6) Accurately ripped
17 | (6/6) Accurately ripped
18 | (6/6) Accurately ripped
19 | (6/6) Accurately ripped
20 | (6/6) Accurately ripped
21 | (6/6) Accurately ripped
22 | (6/6) Accurately ripped


==== Log checksum 3109DF1B6C180465B8A641CF93EDF87763D637BEB72F15929F9C93D507C3E729 ====

Exact Audio Copy V1.3 from 2. September 2016

EAC extraction logfile from 18. May 2017, 16:43

Various Artists / 101 Film Classics (CD6)

Used drive : ASUS DRW-24B1ST i Adapter: 1 ID: 0

Read mode : Secure
Utilize accurate stream : Yes
Defeat audio cache : Yes
Make use of C2 pointers : No

Read offset correction : 6
Overread into Lead-In and Lead-Out : No
Fill up missing offset samples with silence : Yes
Delete leading and trailing silent blocks : No
Null samples used in CRC calculations : Yes
Used interface : Native Win32 interface for Win NT & 2000
Gap handling : Appended to previous track

Used output format : User Defined Encoder
Selected bitrate : 128 kBit/s
Quality : High
Add ID3 tag : No
Command line compressor : C:\Program Files (x86)\Exact Audio Copy\Flac\flac.exe
Additional command line options : -8 -V -T "ARTIST=%artist%" -T "TITLE=%title%" -T "ALBUM=%albumtitle%" -T "DATE=%year%" -T "TRACKNUMBER=%tracknr%" -T "TOTALTRACKS=%numtracks%" -T "GENRE=%genre%" -T "ALBUMARTIST=%albumartist%" -T "ALBUM ARTIST=%albumartist%" -T "COMMENT=EAC Secure Mode, Test & Copy, AccurateRip, FLAC -8" %source%


TOC of the extracted CD

Track | Start | Length | Start sector | End sector
––––––––––––––––––––––––––––-
1 | 0:00.00 | 3:08.30 | 0 | 14129
2 | 3:08.30 | 3:37.67 | 14130 | 30471
3 | 6:46.22 | 5:25.37 | 30472 | 54883
4 | 12:11.59 | 5:25.43 | 54884 | 79301
5 | 17:37.27 | 7:48.02 | 79302 | 114403
6 | 25:25.29 | 7:07.23 | 114404 | 146451
7 | 32:32.52 | 3:19.43 | 146452 | 161419
8 | 35:52.20 | 3:33.45 | 161420 | 177439
9 | 39:25.65 | 3:16.69 | 177440 | 192208
10 | 42:42.59 | 7:08.06 | 192209 | 224314
11 | 49:50.65 | 3:43.56 | 224315 | 241095
12 | 53:34.46 | 5:08.64 | 241096 | 264259
13 | 58:43.35 | 4:58.21 | 264260 | 286630
14 | 63:41.56 | 3:09.15 | 286631 | 300820
15 | 66:50.71 | 4:50.63 | 300821 | 322633
16 | 71:41.59 | 9:23.21 | 322634 | 364879


Track 1

Filename D:\_Post\_Music\Various Artists - 101 Film\CD6\01 - Jerome Moross - Opening Music (The Big Country).wav

Pre-gap length 0:00:02.00

Peak level 92.8 %
Extraction speed 2.0 X
Track quality 100.0 %
Test CRC EDE20072
Copy CRC EDE20072
Accurately ripped (confidence 3) [A6ADC4D4] (AR v2)
Copy OK

Track 2

Filename D:\_Post\_Music\Various Artists - 101 Film\CD6\02 - Elmer Bernstein - Theme (The Magnificent Seven).wav

Pre-gap length 0:00:02.57

Peak level 98.0 %
Extraction speed 2.2 X
Track quality 100.0 %
Test CRC 4C52B68E
Copy CRC 4C52B68E
Accurately ripped (confidence 3) [BDA3488C] (AR v2)
Copy OK

Track 3

Filename D:\_Post\_Music\Various Artists - 101 Film\CD6\03 - Max Steiner - Main Theme (Stagecoach).wav

Pre-gap length 0:00:02.57

Peak level 85.9 %
Extraction speed 2.5 X
Track quality 100.0 %
Test CRC 9F2C11F3
Copy CRC 9F2C11F3
Accurately ripped (confidence 3) [2EDE7880] (AR v2)
Copy OK

Track 4

Filename D:\_Post\_Music\Various Artists - 101 Film\CD6\04 - Dimitri Tiomkin - Main Theme (Alamo).wav

Pre-gap length 0:00:02.57

Peak level 82.1 %
Extraction speed 2.8 X
Track quality 100.0 %
Test CRC 7B7FA907
Copy CRC 7B7FA907
Accurately ripped (confidence 3) [0DD7A846] (AR v2)
Copy OK

Track 5

Filename D:\_Post\_Music\Various Artists - 101 Film\CD6\05 - Max Steiner, Herman Hupfeld, Claude Joseph Rouget de Lisle & Franz Joseph Haydn - Casablanca (Casablanca).wav

Pre-gap length 0:00:02.58

Peak level 96.5 %
Extraction speed 3.1 X
Track quality 100.0 %
Test CRC 8ADF1F76
Copy CRC 8ADF1F76
Accurately ripped (confidence 3) [7FCB0291] (AR v2)
Copy OK

Track 6

Filename D:\_Post\_Music\Various Artists - 101 Film\CD6\06 - Alfred Newman - Blood And Sand (Blood and Sand).wav

Pre-gap length 0:00:02.57

Peak level 97.1 %
Extraction speed 3.3 X
Track quality 100.0 %
Test CRC E66E42BC
Copy CRC E66E42BC
Accurately ripped (confidence 3) [94A07322] (AR v2)
Copy OK

Track 7

Filename D:\_Post\_Music\Various Artists - 101 Film\CD6\07 - Ernest Gold - Exodus - Ari's Theme (Exodus).wav

Pre-gap length 0:00:02.57

Peak level 94.3 %
Extraction speed 3.2 X
Track quality 100.0 %
Test CRC FCD543FE
Copy CRC FCD543FE
Accurately ripped (confidence 3) [25009FDC] (AR v2)
Copy OK

Track 8

Filename D:\_Post\_Music\Various Artists - 101 Film\CD6\08 - Maurice Jarre - Theme (Lawrence of Arabia).wav

Pre-gap length 0:00:02.57

Peak level 96.4 %
Extraction speed 3.3 X
Track quality 100.0 %
Test CRC E5CB1F0A
Copy CRC E5CB1F0A
Accurately ripped (confidence 3) [CAB5531A] (AR v2)
Copy OK

Track 9

Filename D:\_Post\_Music\Various Artists - 101 Film\CD6\09 - Alex North - Antony and Cleopatra's Theme (Cleopatra).wav

Pre-gap length 0:00:02.58

Peak level 97.4 %
Extraction speed 3.4 X
Track quality 100.0 %
Test CRC 342F92AB
Copy CRC 342F92AB
Accurately ripped (confidence 3) [88B6C2B5] (AR v2)
Copy OK

Track 10

Filename D:\_Post\_Music\Various Artists - 101 Film\CD6\10 - Erich Korngold - Main Title (Sea Hawk).wav

Pre-gap length 0:00:02.57

Peak level 95.7 %
Extraction speed 3.9 X
Track quality 100.0 %
Test CRC CCABBE39
Copy CRC CCABBE39
Accurately ripped (confidence 3) [AE6D5191] (AR v2)
Copy OK

Track 11

Filename D:\_Post\_Music\Various Artists - 101 Film\CD6\11 - Jerry Goldsmith - Main Theme (Patton, Lust for Glory).wav

Pre-gap length 0:00:02.57

Peak level 83.6 %
Extraction speed 2.7 X
Track quality 99.9 %
Test CRC 4D62343D
Copy CRC 4D62343D
Accurately ripped (confidence 3) [D693107F] (AR v2)
Copy OK

Track 12

Filename D:\_Post\_Music\Various Artists - 101 Film\CD6\12 - Victor Young - A Love Like This (For Whom the Bell Tolls).wav

Pre-gap length 0:00:02.57

Peak level 86.8 %
Extraction speed 4.0 X
Track quality 100.0 %
Test CRC 3F46B3E2
Copy CRC 3F46B3E2
Accurately ripped (confidence 3) [32592E2A] (AR v2)
Copy OK

Track 13

Filename D:\_Post\_Music\Various Artists - 101 Film\CD6\13 - Arthur Bliss - March (Things to Come).wav

Pre-gap length 0:00:02.58

Peak level 93.5 %
Extraction speed 4.1 X
Track quality 100.0 %
Test CRC AEB40A1C
Copy CRC AEB40A1C
Accurately ripped (confidence 2) [B5BD323D] (AR v2)
Copy OK

Track 14

Filename D:\_Post\_Music\Various Artists - 101 Film\CD6\14 - Bernard Herrmann - Main Title (North by Northwest).wav

Pre-gap length 0:00:02.57

Peak level 92.6 %
Extraction speed 2.8 X
Track quality 99.9 %
Test CRC 77A729B3
Copy CRC 77A729B3
Accurately ripped (confidence 3) [D283E19C] (AR v2)
Copy OK

Track 15

Filename D:\_Post\_Music\Various Artists - 101 Film\CD6\15 - Miklos Rozsa - Theme (Spellbound).wav

Pre-gap length 0:00:02.57

Peak level 91.2 %
Extraction speed 3.3 X
Track quality 99.9 %
Test CRC 189B6AD8
Copy CRC 189B6AD8
Accurately ripped (confidence 3) [43DFB3EC] (AR v2)
Copy OK

Track 16

Filename D:\_Post\_Music\Various Artists - 101 Film\CD6\16 - Max Steiner - Music From The Motion Picture (Gone with the Wind).wav

Pre-gap length 0:00:02.58

Peak level 88.1 %
Extraction speed 4.7 X
Track quality 100.0 %
Test CRC 01A56F4C
Copy CRC 01A56F4C
Accurately ripped (confidence 3) [72088D28] (AR v2)
Copy OK


All tracks accurately ripped

No errors occurred

End of status report

–– CUETools DB Plugin V2.1.6

[CTDB TOCID: FRrXWZ56m3y4.F3o4OXKt.Fv2A4-] found
Submit result: already submitted
Track | CTDB Status
1 | (7/7) Accurately ripped
2 | (7/7) Accurately ripped
3 | (7/7) Accurately ripped
4 | (7/7) Accurately ripped
5 | (7/7) Accurately ripped
6 | (7/7) Accurately ripped
7 | (7/7) Accurately ripped
8 | (7/7) Accurately ripped
9 | (7/7) Accurately ripped
10 | (7/7) Accurately ripped
11 | (7/7) Accurately ripped
12 | (7/7) Accurately ripped
13 | (7/7) Accurately ripped
14 | (7/7) Accurately ripped
15 | (7/7) Accurately ripped
16 | (7/7) Accurately ripped


==== Log checksum E682A5F32D79C3063B08BA7F346725EBF355650BB77B55710405B780BFB58F10 ====


Various Artists - 101 Film Classics (2016) {6CD Box Set Decca 478 3676 rel 2012}

Various Artists - 101 Film Classics (2016) {6CD Box Set Decca 478 3676 rel 2012}

Various Artists - 101 Film Classics (2016) {6CD Box Set Decca 478 3676 rel 2012}


All thanks goes to the original releaser!

see also:
Various Artists - 101 Opera (2016) {6CD Box Set Decca 478 2998 rel 2011}
Various Artists - 101 Guitar (2016) {6CD Box Set Decca 478 3655 rel 2012}
Various Artists - 101 Mozart (2016) {6CD Box Set Decca 478 2963 rel 2011}
Various Artists - 101 Romantic Classics (2016) {6CD Box Set Decca 478 4006 rel 2012}
Various Artists - 101 Relaxing Classics (2016) {6CD Box Set Decca 478 5074 rel 2013}



===