VA: A Garland for the Queen / Benjamin Britten: A.M.D.G / Sacred And Profane (1991, Gamut Classics # GAMCD 529)

Posted By: luckburz
VA: A Garland for the Queen / Benjamin Britten: A.M.D.G / Sacred And Profane (1991, Gamut Classics # GAMCD 529)

VA: A Garland for the Queen / Benjamin Britten: A.M.D.G / Sacred And Profane
Cambridge University Chamber Choir / Timothy Brown
EAC+LOG+CUE | FLAC: 232 MB | Full Artwork: 53 MB | 5% Recovery Info
Label/Cat#: Gamut Classics # GAMCD 529 | Country/Year: UK 1991
Genre: Classical | Style: Vocal, Sacred, Secular, Early 20th Century, Contemporary

MD5 [X] CUE [X] LOG [X] INFO TEXT [X] ARTWORK [X]

my rip [X] not my rip [ ]

VA: A Garland for the Queen / Benjamin Britten: A.M.D.G / Sacred And Profane (1991, Gamut Classics # GAMCD 529)


Exact Audio Copy V1.0 beta 3 from 29. August 2011

EAC extraction logfile from 16. September 2013, 21:29

Cambridge University Chamber Choir, Timothy Brown / A Garland for the Queen

Used drive : PLEXTOR CD-R PX-W1210A Adapter: 1 ID: 0

Read mode : Secure
Utilize accurate stream : Yes
Defeat audio cache : Yes
Make use of C2 pointers : No

Read offset correction : 99
Overread into Lead-In and Lead-Out : No
Fill up missing offset samples with silence : Yes
Delete leading and trailing silent blocks : No
Null samples used in CRC calculations : Yes
Used interface : Native Win32 interface for Win NT & 2000

Used output format : User Defined Encoder
Selected bitrate : 1024 kBit/s
Quality : High
Add ID3 tag : Yes
Command line compressor : C:\Program Files\FLAC\flac.exe
Additional command line options : -5 -T "Artist=%artist%" -T "Title=%title%" -T "Album=%albumtitle%" -T "Date=%year%" -T "Tracknumber=%tracknr%" -T "Genre=%genre%" %source% -o %dest%


TOC of the extracted CD

Track | Start | Length | Start sector | End sector
––––––––––––––––––––––––––––-
1 | 0:00.00 | 5:20.62 | 0 | 24061
2 | 5:20.62 | 2:24.40 | 24062 | 34901
3 | 7:45.27 | 3:38.08 | 34902 | 51259
4 | 11:23.35 | 4:29.17 | 51260 | 71451
5 | 15:52.52 | 2:44.65 | 71452 | 83816
6 | 18:37.42 | 2:31.50 | 83817 | 95191
7 | 21:09.17 | 5:11.50 | 95192 | 118566
8 | 26:20.67 | 3:41.23 | 118567 | 135164
9 | 30:02.15 | 2:21.07 | 135165 | 145746
10 | 32:23.22 | 2:43.25 | 145747 | 157996
11 | 35:06.47 | 1:45.15 | 157997 | 165886
12 | 36:51.62 | 3:22.25 | 165887 | 181061
13 | 40:14.12 | 2:49.03 | 181062 | 193739
14 | 43:03.15 | 3:57.67 | 193740 | 211581
15 | 47:01.07 | 1:52.73 | 211582 | 220054
16 | 48:54.05 | 2:07.45 | 220055 | 229624
17 | 51:01.50 | 1:32.30 | 229625 | 236554
18 | 52:34.05 | 1:34.45 | 236555 | 243649
19 | 54:08.50 | 0:42.32 | 243650 | 246831
20 | 54:51.07 | 2:17.15 | 246832 | 257121
21 | 57:08.22 | 1:11.08 | 257122 | 262454
22 | 58:19.30 | 2:09.52 | 262455 | 272181
23 | 60:29.07 | 1:39.63 | 272182 | 279669
24 | 62:08.70 | 2:05.12 | 279670 | 289056
25 | 64:14.07 | 3:14.68 | 289057 | 303674


Range status and errors

Selected range

Filename F:\=== VINYL RIPS ===\=== EAC===\X FRESH RIP\Cambridge University Chamber Choir, Timothy Brown - A Garland for the Queen.wav

Peak level 94.8 %
Extraction speed 3.7 X
Range quality 99.9 %
Test CRC ECD5DBDD
Copy CRC ECD5DBDD
Copy OK

No errors occurred


AccurateRip summary

Track 1 cannot be verified as accurate (confidence 1) [7631ED18], AccurateRip returned [BFD972FE] (AR v2)
Track 2 cannot be verified as accurate (confidence 1) [D5584D05], AccurateRip returned [C661CBF2] (AR v2)
Track 3 cannot be verified as accurate (confidence 1) [0B44F5E1], AccurateRip returned [9003EFF9] (AR v2)
Track 4 cannot be verified as accurate (confidence 1) [3D0FFE72], AccurateRip returned [1C12B509] (AR v2)
Track 5 cannot be verified as accurate (confidence 1) [7C6998E7], AccurateRip returned [9DC936C4] (AR v2)
Track 6 cannot be verified as accurate (confidence 1) [BDAB0B9D], AccurateRip returned [45487718] (AR v2)
Track 7 cannot be verified as accurate (confidence 1) [56633D0A], AccurateRip returned [12861356] (AR v2)
Track 8 cannot be verified as accurate (confidence 1) [F7029364], AccurateRip returned [ECE3E63C] (AR v2)
Track 9 cannot be verified as accurate (confidence 1) [4710CA8A], AccurateRip returned [703ED981] (AR v2)
Track 10 cannot be verified as accurate (confidence 1) [B2AD4A1D], AccurateRip returned [3958B31C] (AR v2)
Track 11 cannot be verified as accurate (confidence 1) [A32F2136], AccurateRip returned [8F598C29] (AR v2)
Track 12 cannot be verified as accurate (confidence 1) [00988B15], AccurateRip returned [8A4CC651] (AR v2)
Track 13 cannot be verified as accurate (confidence 1) [A0311449], AccurateRip returned [8B6F3E0E] (AR v2)
Track 14 cannot be verified as accurate (confidence 1) [E253C61A], AccurateRip returned [707B0843] (AR v2)
Track 15 cannot be verified as accurate (confidence 1) [D486008A], AccurateRip returned [34C0C0B5] (AR v2)
Track 16 cannot be verified as accurate (confidence 1) [E3F2FC42], AccurateRip returned [63313E10] (AR v2)
Track 17 cannot be verified as accurate (confidence 1) [7B1E7EED], AccurateRip returned [35F1BA75] (AR v2)
Track 18 cannot be verified as accurate (confidence 1) [981BB2F7], AccurateRip returned [91734623] (AR v2)
Track 19 cannot be verified as accurate (confidence 1) [375E2671], AccurateRip returned [71F89E68] (AR v2)
Track 20 cannot be verified as accurate (confidence 1) [1200AD7E], AccurateRip returned [425EF0C3] (AR v2)
Track 21 cannot be verified as accurate (confidence 1) [F6606E40], AccurateRip returned [D061980F] (AR v2)
Track 22 cannot be verified as accurate (confidence 1) [68EA1F4D], AccurateRip returned [D31A0F21] (AR v2)
Track 23 cannot be verified as accurate (confidence 1) [471BF010], AccurateRip returned [DD2C5746] (AR v2)
Track 24 cannot be verified as accurate (confidence 1) [F922BB2D], AccurateRip returned [57266A76] (AR v2)
Track 25 cannot be verified as accurate (confidence 1) [7D937015], AccurateRip returned [8AD36398] (AR v2)

No tracks could be verified as accurate
You may have a different pressing from the one(s) in the database

End of status report

–– CUETools DB Plugin V2.1.3

[CTDB TOCID: nJxYP_PO2WwN8BjBB9iD9PNi3f8-] disk not present in database, Submit result: nJxYP_PO2WwN8BjBB9iD9PNi3f8- has been uploaded


==== Log checksum CC1C4CFDE03B0346EF8B1E7596145F0C8B03757A1D81B09FA10697F4AAD0A035 ====

foobar2000 1.1.14a / Dynamic Range Meter 1.1.1
log date: 2013-09-21 15:54:59

––––––––––––––––––––––––––––––––––––––––
Analyzed: Cambridge University Chamber Choir, Timothy Brown / A Garland for the Queen
––––––––––––––––––––––––––––––––––––––––

DR Peak RMS Duration Track
––––––––––––––––––––––––––––––––––––––––
DR15 -0.46 dB -22.31 dB 5:21 01-Aubade (Bliss/Reed)
DR12 -3.68 dB -23.70 dB 2:25 02-What is it like (Bax/C. Bax)
DR13 -2.60 dB -22.39 dB 3:38 03-Dance, Clarion air (Tippett/Fry)
DR15 -0.98 dB -24.62 dB 4:29 04-Silence and Music (Vaughan Williams/Wood)
DR14 -1.72 dB -21.76 dB 2:45 05-Spring at this hour (Berkeley/Dehn)
DR16 -2.34 dB -24.36 dB 2:32 06-The Hills (Ireland/Kirkup)
DR14 -1.99 dB -21.79 dB 5:12 07-Inheritence (Howells/de la Mare)
DR15 -0.98 dB -22.44 dB 3:41 08-White-flowering days (Finzi/Blunden)
DR12 -6.07 dB -27.17 dB 2:21 09-Canzonet (Rawsthorne/MacNeice)
DR14 -0.55 dB -22.29 dB 2:43 10-Salutation (Rubbra/Hassall)
DR12 -3.25 dB -21.89 dB 1:45 11-A.M.D.G. (Britten) 1
DR14 -7.69 dB -29.59 dB 3:22 12-A.M.D.G. (Britten) 2
DR14 -0.63 dB -20.63 dB 2:49 13-A.M.D.G. (Britten) 3
DR14 -5.21 dB -26.22 dB 3:58 14-A.M.D.G. (Britten) 4
DR15 -4.09 dB -27.17 dB 1:53 15-A.M.D.G. (Britten) 5
DR13 -1.62 dB -20.21 dB 2:08 16-A.M.D.G. (Britten) 6
DR11 -16.18 dB -35.16 dB 1:32 17-A.M.D.G. (Britten) 7
DR12 -4.34 dB -23.11 dB 1:35 18-Sacred and Profane (Britten) 1
DR13 -8.84 dB -29.28 dB 0:42 19-Sacred and Profane (Britten) 2
DR16 -2.88 dB -26.25 dB 2:17 20-Sacred and Profane (Britten) 3
DR12 -2.91 dB -25.66 dB 1:11 21-Sacred and Profane (Britten) 4
DR11 -11.85 dB -29.67 dB 2:10 22-Sacred and Profane (Britten) 5
DR15 -2.15 dB -24.50 dB 1:40 23-Sacred and Profane (Britten) 6
DR12 -1.22 dB -25.19 dB 2:05 24-Sacred and Profane (Britten) 7
DR15 -3.74 dB -25.06 dB 3:15 25-Sacred and Profane (Britten) 8
––––––––––––––––––––––––––––––––––––––––

Number of tracks: 25
Official DR value: DR14

Samplerate: 44100 Hz
Channels: 2
Bits per sample: 16
Bitrate: 481 kbps
Codec: FLAC
================================================================================



CD Info:

VA: A Garland for the Queen / Benjamin Britten: A.M.D.G / Sacred And Profane

Cambridge University Chamber Choir / Timothy Brown

Label: Gamut Classics
Catalog#: GAMCD 529
Format: CD, Album
Country: UK
Released: 1991
Genre: Classical
Style: Vocal, Sacred, Secular, Early 20th Century, Contemporary

Tracklist:

1 Aubade (Bliss/Reed) 5:21
2 What is it like (Bax/C. Bax) 2:25
3 Dance, Clarion air (Tippett/Fry) 3:38
4 Silence and Music (Vaughan Williams/Wood) 4:29
5 Spring at this hour (Berkeley/Dehn) 2:45
6 The Hills (Ireland/Kirkup) 2:32
7 Inheritence (Howells/de la Mare) 5:12
8 White-flowering days (Finzi/Blunden) 3:41
9 Canzonet (Rawsthorne/MacNeice) 2:21
10 Salutation (Rubbra/Hassall) 2:43
11 A.M.D.G. (Britten) 1 1:45
12 A.M.D.G. (Britten) 2 3:22
13 A.M.D.G. (Britten) 3 2:49
14 A.M.D.G. (Britten) 4 3:58
15 A.M.D.G. (Britten) 5 1:53
16 A.M.D.G. (Britten) 6 2:08
17 A.M.D.G. (Britten) 7 1:32
18 Sacred and Profane (Britten) 1 1:35
19 Sacred and Profane (Britten) 2 0:42
20 Sacred and Profane (Britten) 3 2:17
21 Sacred and Profane (Britten) 4 1:11
22 Sacred and Profane (Britten) 5 2:10
23 Sacred and Profane (Britten) 6 1:40
24 Sacred and Profane (Britten) 7 2:05
25 Sacred and Profane (Britten) 8 3:15

Cambridge University Chamber Choir performs three twentieth-century English song cycles for mixed choir, including the rarely-recorded A Garland for the Queen. A Garland was composed to commemorate the Queen’s coronation in 1953 by a selection of the finest English composers including Finzi, Bliss, Bax, Tippett, Vaughan Williams, Howells and Ireland. The two works by Benjamin Britten, AMDG and Sacred and Profane, are virtuoso show pieces for mixed choir.

‘The Cambridge choir are a highly assured, well practised body of singers, and make light work of the difficult pieces’
– Gramophone of A Garland for the Queen

VA: A Garland for the Queen / Benjamin Britten: A.M.D.G / Sacred And Profane (1991, Gamut Classics # GAMCD 529)


all of my uploads in my blog
________________

NITROFLARE

Music Pt. 1 | | Music Pt. 2

Artwork

________________