Subcategories

VA - All the Singing Ladies (2018)

Posted By: delpotro
VA - All the Singing Ladies (2018)

VA - All the Singing Ladies (2018)
EAC Rip | FLAC (tracks+log+.cue) | 02:32:55 | 938 Mb
Pop, Vocal Jazz, Rock, R'n'B | Label: Sony Music

Radio 1 shows its female side on 4 March. Isolde Lasoen and band stroll with the fine fleur of Belgian female singers by more than half a century of female songs. Angèle, Marie Daulne (Zap Mama), Slongs Dievanongs, Lady Linn, Stefanie Callebaut (SX), Charlotte Adigéry (WWWater), Few Bits and Isolde themselves get their best with Aretha Franklin, Blondie, Nina Simone, Cindy Lauper, Billie Holiday, Feist , Sade, Dolly Parton, Janis Joplin, Suzanne Vega and Beyoncé above.
Tracklist:
CD 1
1. Cyndi Lauper - Girls Just Want To Have Fun
2. First Aid Kit - My Silver Lining
3. Erykah Badu - On & On
4. Francoise Hardy - Le Temps De L'amour
5. Alabama Shakes - Hold On
6. Blondie - Denis
7. Katie Melua - Nine Million Bicycles
8. Intergalactic Lovers - Delay
9. Sade - Smooth Operator
10. Aretha Franklin - I Say a Little Prayer
11. Bessie Smith - Nobody Knows You When You're Down and Out
12. Angele - La Loi De Murphy
13. Kt Tunstall - Black Horse and the Cherry Tree
14. Diana Ross & the Supremes - You Can't Hurry Love
15. Laura Mvula - Green Garden
16. Carly Simon - You're So Vain
17. Melanie De Biasio - Gold Junkies
18. Siouxsie and the Banshees - Christine
19. Vaya Con Dios - What's a Woman
20. Ella Fitzgerald - Miss Otis Regrets
21. Marianne Faithfull - the Ballad of Lucy Jordan
22. Angie Stone - Wish I Didn't Miss You

CD 2
1. Grace Jones - I've Seen That Face Before (Libertango)
2. Selah Sue - Alone
3. Emmylou Harris - Mister Sandman
4. Solange - Cranes In the Sky
5. Jacqueline Taieb - 7 Heures Du Matin
6. Gossip - Heavy Cross
7. Alicia Keys - If I Ain't Got You
8. Natalie Imbruglia - Torn
9. Goldfrapp - A&E
10. The Bangles - Manic Monday
11. Etta James - At Last
12. Billie Holiday - All of Me
13. Sheryl Crow - All I Wanna Do
14. Dusty Springfield - Son of a Preacher Man
15. Tune-Yards - Bizness
16. Janis Ian - At Seventeen
17. Zap Mama - Brrlak!
18. Anne Clark - Our Darkness
19. Agnes Obel - Riverside
20. Mahalia Jackson - Joshua Fit the Battle of Jericho
21. Patti Smith - Dancing Barefoot

Exact Audio Copy V1.3 from 2. September 2016

EAC extraction logfile from 3. May 2018, 13:34

Various / All the Singing Ladies volume 1

Used drive : HL-DT-STDVDRAM GH24NSC0 Adapter: 1 ID: 0

Read mode : Secure
Utilize accurate stream : Yes
Defeat audio cache : Yes
Make use of C2 pointers : No

Read offset correction : 6
Overread into Lead-In and Lead-Out : No
Fill up missing offset samples with silence : Yes
Delete leading and trailing silent blocks : No
Null samples used in CRC calculations : Yes
Used interface : Native Win32 interface for Win NT & 2000
Gap handling : Appended to previous track

Used output format : User Defined Encoder
Selected bitrate : 1024 kBit/s
Quality : High
Add ID3 tag : No
Command line compressor : C:\Program Files (x86)\Exact Audio Copy\Flac\flac.exe
Additional command line options : -8 -V -T "ARTIST=%artist%" -T "TITLE=%title%" -T "ALBUM=%albumtitle%" -T "DATE=%year%" -T "TRACKNUMBER=%tracknr%" -T "GENRE=%genre%" -T "PERFORMER=%albuminterpret%" -T "COMPOSER=%composer%" %haslyrics%–tag-from-file=LYRICS="%lyricsfile%"%haslyrics% -T "ALBUMARTIST=%albumartist%" -T "DISCNUMBER=%cdnumber%" -T "TOTALDISCS=%totalcds%" -T "TOTALTRACKS=%numtracks%" -T "COMMENT=%comment%" %source% -o %dest%


TOC of the extracted CD

Track | Start | Length | Start sector | End sector
––––––––––––––––––––––––––––-
1 | 0:00.00 | 3:49.63 | 0 | 17237
2 | 3:49.63 | 3:33.29 | 17238 | 33241
3 | 7:23.17 | 3:46.13 | 33242 | 50204
4 | 11:09.30 | 2:23.65 | 50205 | 60994
5 | 13:33.20 | 3:45.37 | 60995 | 77906
6 | 17:18.57 | 2:15.33 | 77907 | 88064
7 | 19:34.15 | 3:13.08 | 88065 | 102547
8 | 22:47.23 | 3:48.63 | 102548 | 119710
9 | 26:36.11 | 4:56.27 | 119711 | 141937
10 | 31:32.38 | 3:31.52 | 141938 | 157814
11 | 35:04.15 | 2:57.00 | 157815 | 171089
12 | 38:01.15 | 3:13.28 | 171090 | 185592
13 | 41:14.43 | 2:50.31 | 185593 | 198373
14 | 44:04.74 | 2:49.47 | 198374 | 211095
15 | 46:54.46 | 4:09.20 | 211096 | 229790
16 | 51:03.66 | 4:17.32 | 229791 | 249097
17 | 55:21.23 | 3:17.08 | 249098 | 263880
18 | 58:38.31 | 3:00.06 | 263881 | 277386
19 | 61:38.37 | 3:50.26 | 277387 | 294662
20 | 65:28.63 | 3:00.29 | 294663 | 308191
21 | 68:29.17 | 4:06.34 | 308192 | 326675
22 | 72:35.51 | 4:28.42 | 326676 | 346817


Track 1

Filename H:\#NEW RIPS II\VA - All The Singing Ladies\cd 1\01. Cyndi Lauper - Girls Just Want to Have Fun.wav

Pre-gap length 0:00:02.00

Peak level 96.6 %
Extraction speed 4.7 X
Track quality 100.0 %
Test CRC F26D6AD5
Copy CRC F26D6AD5
Track not present in AccurateRip database
Copy OK

Track 2

Filename H:\#NEW RIPS II\VA - All The Singing Ladies\cd 1\02. First Aid Kit - My Silver Lining.wav

Peak level 87.2 %
Extraction speed 5.0 X
Track quality 100.0 %
Test CRC 06BDFBA5
Copy CRC 06BDFBA5
Track not present in AccurateRip database
Copy OK

Track 3

Filename H:\#NEW RIPS II\VA - All The Singing Ladies\cd 1\03. Erykah Badu - On & On.wav

Peak level 96.6 %
Extraction speed 5.4 X
Track quality 100.0 %
Test CRC 5C92379C
Copy CRC 5C92379C
Track not present in AccurateRip database
Copy OK

Track 4

Filename H:\#NEW RIPS II\VA - All The Singing Ladies\cd 1\04. Françoise Hardy - Le temps de l'amour.wav

Peak level 96.6 %
Extraction speed 5.3 X
Track quality 100.0 %
Test CRC 04EC0097
Copy CRC 04EC0097
Track not present in AccurateRip database
Copy OK

Track 5

Filename H:\#NEW RIPS II\VA - All The Singing Ladies\cd 1\05. Alabama Shakes - Hold On.wav

Peak level 96.6 %
Extraction speed 5.9 X
Track quality 100.0 %
Test CRC 182D34B3
Copy CRC 182D34B3
Track not present in AccurateRip database
Copy OK

Track 6

Filename H:\#NEW RIPS II\VA - All The Singing Ladies\cd 1\06. Blondie - Denis.wav

Peak level 96.2 %
Extraction speed 4.3 X
Track quality 99.9 %
Test CRC E6FB6403
Copy CRC E6FB6403
Track not present in AccurateRip database
Copy OK

Track 7

Filename H:\#NEW RIPS II\VA - All The Singing Ladies\cd 1\07. Katie Melua - Nine Million Bicycles.wav

Peak level 96.6 %
Extraction speed 6.2 X
Track quality 100.0 %
Test CRC CC293F2B
Copy CRC CC293F2B
Track not present in AccurateRip database
Copy OK

Track 8

Filename H:\#NEW RIPS II\VA - All The Singing Ladies\cd 1\08. Intergalactic Lovers - Delay.wav

Peak level 96.6 %
Extraction speed 6.6 X
Track quality 100.0 %
Test CRC E6FD57FB
Copy CRC E6FD57FB
Track not present in AccurateRip database
Copy OK

Track 9

Filename H:\#NEW RIPS II\VA - All The Singing Ladies\cd 1\09. Sade - Smooth Operator.wav

Peak level 83.1 %
Extraction speed 7.1 X
Track quality 100.0 %
Test CRC 8B6178A7
Copy CRC 8B6178A7
Track not present in AccurateRip database
Copy OK

Track 10

Filename H:\#NEW RIPS II\VA - All The Singing Ladies\cd 1\10. Aretha Franklin - I Say a Little Prayer.wav

Peak level 96.6 %
Extraction speed 7.2 X
Track quality 100.0 %
Test CRC 86258162
Copy CRC 86258162
Track not present in AccurateRip database
Copy OK

Track 11

Filename H:\#NEW RIPS II\VA - All The Singing Ladies\cd 1\11. Bessie Smith - Nobody Knows You When You're Down and Out.wav

Peak level 96.2 %
Extraction speed 7.1 X
Track quality 100.0 %
Test CRC 70733BB9
Copy CRC 70733BB9
Track not present in AccurateRip database
Copy OK

Track 12

Filename H:\#NEW RIPS II\VA - All The Singing Ladies\cd 1\12. Angèle - La Loi de Murphy.wav

Peak level 96.6 %
Extraction speed 7.3 X
Track quality 100.0 %
Test CRC E7CC1284
Copy CRC E7CC1284
Track not present in AccurateRip database
Copy OK

Track 13

Filename H:\#NEW RIPS II\VA - All The Singing Ladies\cd 1\13. KT Tunstall - Black Horse and the Cherry Tree.wav

Peak level 80.2 %
Extraction speed 7.4 X
Track quality 100.0 %
Test CRC 7366E67D
Copy CRC 7366E67D
Track not present in AccurateRip database
Copy OK

Track 14

Filename H:\#NEW RIPS II\VA - All The Singing Ladies\cd 1\14. Diana Ross & The Supremes - You Can't Hurry Love.wav

Peak level 96.6 %
Extraction speed 6.0 X
Track quality 99.9 %
Test CRC D3C8ED5E
Copy CRC D3C8ED5E
Track not present in AccurateRip database
Copy OK

Track 15

Filename H:\#NEW RIPS II\VA - All The Singing Ladies\cd 1\15. Laura Mvula - Green Garden.wav

Peak level 82.8 %
Extraction speed 8.1 X
Track quality 100.0 %
Test CRC 61817288
Copy CRC 61817288
Track not present in AccurateRip database
Copy OK

Track 16

Filename H:\#NEW RIPS II\VA - All The Singing Ladies\cd 1\16. Carly Simon - You're So Vain.wav

Peak level 89.7 %
Extraction speed 8.5 X
Track quality 100.0 %
Test CRC 857167BC
Copy CRC 857167BC
Track not present in AccurateRip database
Copy OK

Track 17

Filename H:\#NEW RIPS II\VA - All The Singing Ladies\cd 1\17. Melanie De Biasio - Gold Junkies.wav

Peak level 96.6 %
Extraction speed 8.3 X
Track quality 100.0 %
Test CRC 1F7EE61D
Copy CRC 1F7EE61D
Track not present in AccurateRip database
Copy OK

Track 18

Filename H:\#NEW RIPS II\VA - All The Singing Ladies\cd 1\18. Siouxsie & The Banshees - Christine.wav

Peak level 96.6 %
Extraction speed 8.3 X
Track quality 100.0 %
Test CRC ED8CA9CE
Copy CRC ED8CA9CE
Track not present in AccurateRip database
Copy OK

Track 19

Filename H:\#NEW RIPS II\VA - All The Singing Ladies\cd 1\19. Vaya Con Dios - What's a Woman.wav

Peak level 98.4 %
Extraction speed 8.9 X
Track quality 100.0 %
Test CRC 809C3BA3
Copy CRC 809C3BA3
Track not present in AccurateRip database
Copy OK

Track 20

Filename H:\#NEW RIPS II\VA - All The Singing Ladies\cd 1\20. Ella Fitzgerald - Miss Otis Regrets (She's Unable to Lunch Today).wav

Peak level 96.6 %
Extraction speed 8.6 X
Track quality 100.0 %
Test CRC D00083D5
Copy CRC D00083D5
Track not present in AccurateRip database
Copy OK

Track 21

Filename H:\#NEW RIPS II\VA - All The Singing Ladies\cd 1\21. Marianne Faithfull - The Ballad of Lucy Jordan.wav

Peak level 96.6 %
Extraction speed 9.2 X
Track quality 100.0 %
Test CRC 699996BD
Copy CRC 699996BD
Track not present in AccurateRip database
Copy OK

Track 22

Filename H:\#NEW RIPS II\VA - All The Singing Ladies\cd 1\22. Angie Stone - Wish I Didn't Miss You.wav

Peak level 96.6 %
Extraction speed 8.0 X
Track quality 99.9 %
Test CRC 0FE5D69F
Copy CRC 0FE5D69F
Track not present in AccurateRip database
Copy OK


None of the tracks are present in the AccurateRip database

No errors occurred

End of status report

–– CUETools DB Plugin V2.1.6

[CTDB TOCID: bT0fPjuH9CBJhCgJSngek3F.bT4-] disk not present in database
Submit result: bT0fPjuH9CBJhCgJSngek3F.bT4- has been uploaded


==== Log checksum D8AAF25E93F3DC60D4404373B5E571092F4B7A9E857BF3D3BB106E726B204015 ====

––––––––––––––––––––––––––––––

Exact Audio Copy V1.3 from 2. September 2016

EAC extraction logfile from 3. May 2018, 13:34

Various / All the Singing Ladies volume 1

Used drive : HL-DT-STDVDRAM GH24NSC0 Adapter: 1 ID: 0

Read mode : Secure
Utilize accurate stream : Yes
Defeat audio cache : Yes
Make use of C2 pointers : No

Read offset correction : 6
Overread into Lead-In and Lead-Out : No
Fill up missing offset samples with silence : Yes
Delete leading and trailing silent blocks : No
Null samples used in CRC calculations : Yes
Used interface : Native Win32 interface for Win NT & 2000
Gap handling : Appended to previous track

Used output format : User Defined Encoder
Selected bitrate : 1024 kBit/s
Quality : High
Add ID3 tag : No
Command line compressor : C:\Program Files (x86)\Exact Audio Copy\Flac\flac.exe
Additional command line options : -8 -V -T "ARTIST=%artist%" -T "TITLE=%title%" -T "ALBUM=%albumtitle%" -T "DATE=%year%" -T "TRACKNUMBER=%tracknr%" -T "GENRE=%genre%" -T "PERFORMER=%albuminterpret%" -T "COMPOSER=%composer%" %haslyrics%–tag-from-file=LYRICS="%lyricsfile%"%haslyrics% -T "ALBUMARTIST=%albumartist%" -T "DISCNUMBER=%cdnumber%" -T "TOTALDISCS=%totalcds%" -T "TOTALTRACKS=%numtracks%" -T "COMMENT=%comment%" %source% -o %dest%


TOC of the extracted CD

Track | Start | Length | Start sector | End sector
––––––––––––––––––––––––––––-
1 | 0:00.00 | 3:49.63 | 0 | 17237
2 | 3:49.63 | 3:33.29 | 17238 | 33241
3 | 7:23.17 | 3:46.13 | 33242 | 50204
4 | 11:09.30 | 2:23.65 | 50205 | 60994
5 | 13:33.20 | 3:45.37 | 60995 | 77906
6 | 17:18.57 | 2:15.33 | 77907 | 88064
7 | 19:34.15 | 3:13.08 | 88065 | 102547
8 | 22:47.23 | 3:48.63 | 102548 | 119710
9 | 26:36.11 | 4:56.27 | 119711 | 141937
10 | 31:32.38 | 3:31.52 | 141938 | 157814
11 | 35:04.15 | 2:57.00 | 157815 | 171089
12 | 38:01.15 | 3:13.28 | 171090 | 185592
13 | 41:14.43 | 2:50.31 | 185593 | 198373
14 | 44:04.74 | 2:49.47 | 198374 | 211095
15 | 46:54.46 | 4:09.20 | 211096 | 229790
16 | 51:03.66 | 4:17.32 | 229791 | 249097
17 | 55:21.23 | 3:17.08 | 249098 | 263880
18 | 58:38.31 | 3:00.06 | 263881 | 277386
19 | 61:38.37 | 3:50.26 | 277387 | 294662
20 | 65:28.63 | 3:00.29 | 294663 | 308191
21 | 68:29.17 | 4:06.34 | 308192 | 326675
22 | 72:35.51 | 4:28.42 | 326676 | 346817


Track 1

Filename H:\#NEW RIPS II\VA - All The Singing Ladies\cd 1\01. Cyndi Lauper - Girls Just Want to Have Fun.wav

Pre-gap length 0:00:02.00

Peak level 96.6 %
Extraction speed 4.7 X
Track quality 100.0 %
Test CRC F26D6AD5
Copy CRC F26D6AD5
Track not present in AccurateRip database
Copy OK

Track 2

Filename H:\#NEW RIPS II\VA - All The Singing Ladies\cd 1\02. First Aid Kit - My Silver Lining.wav

Peak level 87.2 %
Extraction speed 5.0 X
Track quality 100.0 %
Test CRC 06BDFBA5
Copy CRC 06BDFBA5
Track not present in AccurateRip database
Copy OK

Track 3

Filename H:\#NEW RIPS II\VA - All The Singing Ladies\cd 1\03. Erykah Badu - On & On.wav

Peak level 96.6 %
Extraction speed 5.4 X
Track quality 100.0 %
Test CRC 5C92379C
Copy CRC 5C92379C
Track not present in AccurateRip database
Copy OK

Track 4

Filename H:\#NEW RIPS II\VA - All The Singing Ladies\cd 1\04. Françoise Hardy - Le temps de l'amour.wav

Peak level 96.6 %
Extraction speed 5.3 X
Track quality 100.0 %
Test CRC 04EC0097
Copy CRC 04EC0097
Track not present in AccurateRip database
Copy OK

Track 5

Filename H:\#NEW RIPS II\VA - All The Singing Ladies\cd 1\05. Alabama Shakes - Hold On.wav

Peak level 96.6 %
Extraction speed 5.9 X
Track quality 100.0 %
Test CRC 182D34B3
Copy CRC 182D34B3
Track not present in AccurateRip database
Copy OK

Track 6

Filename H:\#NEW RIPS II\VA - All The Singing Ladies\cd 1\06. Blondie - Denis.wav

Peak level 96.2 %
Extraction speed 4.3 X
Track quality 99.9 %
Test CRC E6FB6403
Copy CRC E6FB6403
Track not present in AccurateRip database
Copy OK

Track 7

Filename H:\#NEW RIPS II\VA - All The Singing Ladies\cd 1\07. Katie Melua - Nine Million Bicycles.wav

Peak level 96.6 %
Extraction speed 6.2 X
Track quality 100.0 %
Test CRC CC293F2B
Copy CRC CC293F2B
Track not present in AccurateRip database
Copy OK

Track 8

Filename H:\#NEW RIPS II\VA - All The Singing Ladies\cd 1\08. Intergalactic Lovers - Delay.wav

Peak level 96.6 %
Extraction speed 6.6 X
Track quality 100.0 %
Test CRC E6FD57FB
Copy CRC E6FD57FB
Track not present in AccurateRip database
Copy OK

Track 9

Filename H:\#NEW RIPS II\VA - All The Singing Ladies\cd 1\09. Sade - Smooth Operator.wav

Peak level 83.1 %
Extraction speed 7.1 X
Track quality 100.0 %
Test CRC 8B6178A7
Copy CRC 8B6178A7
Track not present in AccurateRip database
Copy OK

Track 10

Filename H:\#NEW RIPS II\VA - All The Singing Ladies\cd 1\10. Aretha Franklin - I Say a Little Prayer.wav

Peak level 96.6 %
Extraction speed 7.2 X
Track quality 100.0 %
Test CRC 86258162
Copy CRC 86258162
Track not present in AccurateRip database
Copy OK

Track 11

Filename H:\#NEW RIPS II\VA - All The Singing Ladies\cd 1\11. Bessie Smith - Nobody Knows You When You're Down and Out.wav

Peak level 96.2 %
Extraction speed 7.1 X
Track quality 100.0 %
Test CRC 70733BB9
Copy CRC 70733BB9
Track not present in AccurateRip database
Copy OK

Track 12

Filename H:\#NEW RIPS II\VA - All The Singing Ladies\cd 1\12. Angèle - La Loi de Murphy.wav

Peak level 96.6 %
Extraction speed 7.3 X
Track quality 100.0 %
Test CRC E7CC1284
Copy CRC E7CC1284
Track not present in AccurateRip database
Copy OK

Track 13

Filename H:\#NEW RIPS II\VA - All The Singing Ladies\cd 1\13. KT Tunstall - Black Horse and the Cherry Tree.wav

Peak level 80.2 %
Extraction speed 7.4 X
Track quality 100.0 %
Test CRC 7366E67D
Copy CRC 7366E67D
Track not present in AccurateRip database
Copy OK

Track 14

Filename H:\#NEW RIPS II\VA - All The Singing Ladies\cd 1\14. Diana Ross & The Supremes - You Can't Hurry Love.wav

Peak level 96.6 %
Extraction speed 6.0 X
Track quality 99.9 %
Test CRC D3C8ED5E
Copy CRC D3C8ED5E
Track not present in AccurateRip database
Copy OK

Track 15

Filename H:\#NEW RIPS II\VA - All The Singing Ladies\cd 1\15. Laura Mvula - Green Garden.wav

Peak level 82.8 %
Extraction speed 8.1 X
Track quality 100.0 %
Test CRC 61817288
Copy CRC 61817288
Track not present in AccurateRip database
Copy OK

Track 16

Filename H:\#NEW RIPS II\VA - All The Singing Ladies\cd 1\16. Carly Simon - You're So Vain.wav

Peak level 89.7 %
Extraction speed 8.5 X
Track quality 100.0 %
Test CRC 857167BC
Copy CRC 857167BC
Track not present in AccurateRip database
Copy OK

Track 17

Filename H:\#NEW RIPS II\VA - All The Singing Ladies\cd 1\17. Melanie De Biasio - Gold Junkies.wav

Peak level 96.6 %
Extraction speed 8.3 X
Track quality 100.0 %
Test CRC 1F7EE61D
Copy CRC 1F7EE61D
Track not present in AccurateRip database
Copy OK

Track 18

Filename H:\#NEW RIPS II\VA - All The Singing Ladies\cd 1\18. Siouxsie & The Banshees - Christine.wav

Peak level 96.6 %
Extraction speed 8.3 X
Track quality 100.0 %
Test CRC ED8CA9CE
Copy CRC ED8CA9CE
Track not present in AccurateRip database
Copy OK

Track 19

Filename H:\#NEW RIPS II\VA - All The Singing Ladies\cd 1\19. Vaya Con Dios - What's a Woman.wav

Peak level 98.4 %
Extraction speed 8.9 X
Track quality 100.0 %
Test CRC 809C3BA3
Copy CRC 809C3BA3
Track not present in AccurateRip database
Copy OK

Track 20

Filename H:\#NEW RIPS II\VA - All The Singing Ladies\cd 1\20. Ella Fitzgerald - Miss Otis Regrets (She's Unable to Lunch Today).wav

Peak level 96.6 %
Extraction speed 8.6 X
Track quality 100.0 %
Test CRC D00083D5
Copy CRC D00083D5
Track not present in AccurateRip database
Copy OK

Track 21

Filename H:\#NEW RIPS II\VA - All The Singing Ladies\cd 1\21. Marianne Faithfull - The Ballad of Lucy Jordan.wav

Peak level 96.6 %
Extraction speed 9.2 X
Track quality 100.0 %
Test CRC 699996BD
Copy CRC 699996BD
Track not present in AccurateRip database
Copy OK

Track 22

Filename H:\#NEW RIPS II\VA - All The Singing Ladies\cd 1\22. Angie Stone - Wish I Didn't Miss You.wav

Peak level 96.6 %
Extraction speed 8.0 X
Track quality 99.9 %
Test CRC 0FE5D69F
Copy CRC 0FE5D69F
Track not present in AccurateRip database
Copy OK


None of the tracks are present in the AccurateRip database

No errors occurred

End of status report

–– CUETools DB Plugin V2.1.6

[CTDB TOCID: bT0fPjuH9CBJhCgJSngek3F.bT4-] disk not present in database
Submit result: bT0fPjuH9CBJhCgJSngek3F.bT4- has been uploaded


==== Log checksum D8AAF25E93F3DC60D4404373B5E571092F4B7A9E857BF3D3BB106E726B204015 ====

Exact Audio Copy V1.3 from 2. September 2016

EAC extraction logfile from 3. May 2018, 14:02

Various / All the Singing Ladies volume 1

Used drive : HL-DT-STDVDRAM GH24NSC0 Adapter: 1 ID: 0

Read mode : Secure
Utilize accurate stream : Yes
Defeat audio cache : Yes
Make use of C2 pointers : No

Read offset correction : 6
Overread into Lead-In and Lead-Out : No
Fill up missing offset samples with silence : Yes
Delete leading and trailing silent blocks : No
Null samples used in CRC calculations : Yes
Used interface : Native Win32 interface for Win NT & 2000
Gap handling : Appended to previous track

Used output format : User Defined Encoder
Selected bitrate : 1024 kBit/s
Quality : High
Add ID3 tag : No
Command line compressor : C:\Program Files (x86)\Exact Audio Copy\Flac\flac.exe
Additional command line options : -8 -V -T "ARTIST=%artist%" -T "TITLE=%title%" -T "ALBUM=%albumtitle%" -T "DATE=%year%" -T "TRACKNUMBER=%tracknr%" -T "GENRE=%genre%" -T "PERFORMER=%albuminterpret%" -T "COMPOSER=%composer%" %haslyrics%–tag-from-file=LYRICS="%lyricsfile%"%haslyrics% -T "ALBUMARTIST=%albumartist%" -T "DISCNUMBER=%cdnumber%" -T "TOTALDISCS=%totalcds%" -T "TOTALTRACKS=%numtracks%" -T "COMMENT=%comment%" %source% -o %dest%


TOC of the extracted CD

Track | Start | Length | Start sector | End sector
––––––––––––––––––––––––––––-
1 | 0:00.00 | 4:28.50 | 0 | 20149
2 | 4:28.50 | 3:26.45 | 20150 | 35644
3 | 7:55.20 | 2:20.34 | 35645 | 46178
4 | 10:15.54 | 4:11.22 | 46179 | 65025
5 | 14:27.01 | 2:16.00 | 65026 | 75225
6 | 16:43.01 | 4:02.55 | 75226 | 93430
7 | 20:45.56 | 3:48.51 | 93431 | 110581
8 | 24:34.32 | 4:05.29 | 110582 | 128985
9 | 28:39.61 | 3:16.63 | 128986 | 143748
10 | 31:56.49 | 3:04.50 | 143749 | 157598
11 | 35:01.24 | 2:58.50 | 157599 | 170998
12 | 37:59.74 | 3:01.68 | 170999 | 184641
13 | 41:01.67 | 4:32.38 | 184642 | 205079
14 | 45:34.30 | 2:24.22 | 205080 | 215901
15 | 47:58.52 | 4:20.58 | 215902 | 235459
16 | 52:19.35 | 4:40.50 | 235460 | 256509
17 | 57:00.10 | 3:26.51 | 256510 | 272010
18 | 60:26.61 | 5:18.20 | 272011 | 295880
19 | 65:45.06 | 3:46.62 | 295881 | 312892
20 | 69:31.68 | 2:04.34 | 312893 | 322226
21 | 71:36.27 | 4:15.16 | 322227 | 341367


Track 1

Filename H:\#NEW RIPS II\VA - All The Singing Ladies\cd 2\01. Grace Jones - I've Seen That Face Before (Libertango).wav

Pre-gap length 0:00:02.00

Peak level 96.6 %
Extraction speed 4.8 X
Track quality 100.0 %
Test CRC 50FDE74A
Copy CRC 50FDE74A
Track not present in AccurateRip database
Copy OK

Track 2

Filename H:\#NEW RIPS II\VA - All The Singing Ladies\cd 2\02. Selah Sue - Alone.wav

Peak level 77.9 %
Extraction speed 5.0 X
Track quality 100.0 %
Test CRC 0F9B78E4
Copy CRC 0F9B78E4
Track not present in AccurateRip database
Copy OK

Track 3

Filename H:\#NEW RIPS II\VA - All The Singing Ladies\cd 2\03. Emmylou Harris - Mister Sandman.wav

Peak level 96.6 %
Extraction speed 4.9 X
Track quality 100.0 %
Test CRC 0F4D5A67
Copy CRC 0F4D5A67
Track not present in AccurateRip database
Copy OK

Track 4

Filename H:\#NEW RIPS II\VA - All The Singing Ladies\cd 2\04. Solange - Cranes in the Sky.wav

Peak level 72.5 %
Extraction speed 4.9 X
Track quality 99.9 %
Test CRC 674AB509
Copy CRC 674AB509
Track not present in AccurateRip database
Copy OK

Track 5

Filename H:\#NEW RIPS II\VA - All The Singing Ladies\cd 2\05. Jacqueline Taïeb - 7 heures du matin.wav

Peak level 94.0 %
Extraction speed 5.5 X
Track quality 100.0 %
Test CRC C1428DE6
Copy CRC C1428DE6
Track not present in AccurateRip database
Copy OK

Track 6

Filename H:\#NEW RIPS II\VA - All The Singing Ladies\cd 2\06. Gossip - Heavy Cross.wav

Peak level 66.0 %
Extraction speed 6.3 X
Track quality 100.0 %
Test CRC 97014C1F
Copy CRC 97014C1F
Track not present in AccurateRip database
Copy OK

Track 7

Filename H:\#NEW RIPS II\VA - All The Singing Ladies\cd 2\07. Alicia Keys - If I Ain't Got You.wav

Peak level 96.6 %
Extraction speed 6.5 X
Track quality 100.0 %
Test CRC 79254A0E
Copy CRC 79254A0E
Track not present in AccurateRip database
Copy OK

Track 8

Filename H:\#NEW RIPS II\VA - All The Singing Ladies\cd 2\08. Natalie Imbruglia - Torn.wav

Peak level 92.4 %
Extraction speed 6.9 X
Track quality 100.0 %
Test CRC 68B6F4E7
Copy CRC 68B6F4E7
Track not present in AccurateRip database
Copy OK

Track 9

Filename H:\#NEW RIPS II\VA - All The Singing Ladies\cd 2\09. Goldfrapp - A&E.wav

Peak level 96.6 %
Extraction speed 5.6 X
Track quality 99.9 %
Test CRC 11657455
Copy CRC 11657455
Track not present in AccurateRip database
Copy OK

Track 10

Filename H:\#NEW RIPS II\VA - All The Singing Ladies\cd 2\10. The Bangles - Manic Monday.wav

Peak level 96.6 %
Extraction speed 7.1 X
Track quality 100.0 %
Test CRC 54CB25F9
Copy CRC 54CB25F9
Track not present in AccurateRip database
Copy OK

Track 11

Filename H:\#NEW RIPS II\VA - All The Singing Ladies\cd 2\11. Etta James - At Last.wav

Peak level 96.5 %
Extraction speed 7.2 X
Track quality 100.0 %
Test CRC 7AF2B3CA
Copy CRC 7AF2B3CA
Track not present in AccurateRip database
Copy OK

Track 12

Filename H:\#NEW RIPS II\VA - All The Singing Ladies\cd 2\12. Billie Holiday - All of Me.wav

Peak level 91.0 %
Extraction speed 5.9 X
Track quality 99.9 %
Test CRC 24BEAE3C
Copy CRC 24BEAE3C
Track not present in AccurateRip database
Copy OK

Track 13

Filename H:\#NEW RIPS II\VA - All The Singing Ladies\cd 2\13. Sheryl Crow - All I Wanna Do.wav

Peak level 91.6 %
Extraction speed 8.1 X
Track quality 100.0 %
Test CRC 26EF4E50
Copy CRC 26EF4E50
Track not present in AccurateRip database
Copy OK

Track 14

Filename H:\#NEW RIPS II\VA - All The Singing Ladies\cd 2\14. Dusty Springfield - Son of a Preacher Man.wav

Peak level 96.6 %
Extraction speed 7.5 X
Track quality 100.0 %
Test CRC 50E495DE
Copy CRC 50E495DE
Track not present in AccurateRip database
Copy OK

Track 15

Filename H:\#NEW RIPS II\VA - All The Singing Ladies\cd 2\15. tUnE-yArDs - Bizness.wav

Peak level 64.8 %
Extraction speed 8.3 X
Track quality 100.0 %
Test CRC 37DC55F0
Copy CRC 37DC55F0
Track not present in AccurateRip database
Copy OK

Track 16

Filename H:\#NEW RIPS II\VA - All The Singing Ladies\cd 2\16. Janis Ian - At Seventeen.wav

Peak level 96.6 %
Extraction speed 8.7 X
Track quality 100.0 %
Test CRC FC305AEA
Copy CRC FC305AEA
Track not present in AccurateRip database
Copy OK

Track 17

Filename H:\#NEW RIPS II\VA - All The Singing Ladies\cd 2\17. Zap Mama - Brrlak!.wav

Peak level 87.0 %
Extraction speed 8.6 X
Track quality 100.0 %
Test CRC B854AE0C
Copy CRC B854AE0C
Track not present in AccurateRip database
Copy OK

Track 18

Filename H:\#NEW RIPS II\VA - All The Singing Ladies\cd 2\18. Anne Clark - Our Darkness.wav

Peak level 96.6 %
Extraction speed 9.3 X
Track quality 100.0 %
Test CRC D8CCDF26
Copy CRC D8CCDF26
Track not present in AccurateRip database
Copy OK

Track 19

Filename H:\#NEW RIPS II\VA - All The Singing Ladies\cd 2\19. Agnes Obel - Riverside.wav

Peak level 92.4 %
Extraction speed 9.2 X
Track quality 100.0 %
Test CRC 6836F170
Copy CRC 6836F170
Track not present in AccurateRip database
Copy OK

Track 20

Filename H:\#NEW RIPS II\VA - All The Singing Ladies\cd 2\20. Mahalia Jackson - Joshua Fit the Battle of Jericho.wav

Peak level 95.9 %
Extraction speed 8.6 X
Track quality 100.0 %
Test CRC D534FFEA
Copy CRC D534FFEA
Track not present in AccurateRip database
Copy OK

Track 21

Filename H:\#NEW RIPS II\VA - All The Singing Ladies\cd 2\21. Patti Smith Group - Dancing Barefoot.wav

Peak level 96.6 %
Extraction speed 9.7 X
Track quality 100.0 %
Test CRC D2DACDF6
Copy CRC D2DACDF6
Track not present in AccurateRip database
Copy OK


None of the tracks are present in the AccurateRip database

No errors occurred

End of status report

–– CUETools DB Plugin V2.1.6

[CTDB TOCID: tVL3hb7sRr3qJwU2WFouuO86qkQ-] disk not present in database
Submit result: tVL3hb7sRr3qJwU2WFouuO86qkQ- has been uploaded


==== Log checksum 09C66A7E7BA4BC85F4F3B82ED2429D4CE9C4794A45D19466F925AC9F45922628 ====

––––––––––––––––––––––––––––––

Exact Audio Copy V1.3 from 2. September 2016

EAC extraction logfile from 3. May 2018, 14:02

Various / All the Singing Ladies volume 1

Used drive : HL-DT-STDVDRAM GH24NSC0 Adapter: 1 ID: 0

Read mode : Secure
Utilize accurate stream : Yes
Defeat audio cache : Yes
Make use of C2 pointers : No

Read offset correction : 6
Overread into Lead-In and Lead-Out : No
Fill up missing offset samples with silence : Yes
Delete leading and trailing silent blocks : No
Null samples used in CRC calculations : Yes
Used interface : Native Win32 interface for Win NT & 2000
Gap handling : Appended to previous track

Used output format : User Defined Encoder
Selected bitrate : 1024 kBit/s
Quality : High
Add ID3 tag : No
Command line compressor : C:\Program Files (x86)\Exact Audio Copy\Flac\flac.exe
Additional command line options : -8 -V -T "ARTIST=%artist%" -T "TITLE=%title%" -T "ALBUM=%albumtitle%" -T "DATE=%year%" -T "TRACKNUMBER=%tracknr%" -T "GENRE=%genre%" -T "PERFORMER=%albuminterpret%" -T "COMPOSER=%composer%" %haslyrics%–tag-from-file=LYRICS="%lyricsfile%"%haslyrics% -T "ALBUMARTIST=%albumartist%" -T "DISCNUMBER=%cdnumber%" -T "TOTALDISCS=%totalcds%" -T "TOTALTRACKS=%numtracks%" -T "COMMENT=%comment%" %source% -o %dest%


TOC of the extracted CD

Track | Start | Length | Start sector | End sector
––––––––––––––––––––––––––––-
1 | 0:00.00 | 4:28.50 | 0 | 20149
2 | 4:28.50 | 3:26.45 | 20150 | 35644
3 | 7:55.20 | 2:20.34 | 35645 | 46178
4 | 10:15.54 | 4:11.22 | 46179 | 65025
5 | 14:27.01 | 2:16.00 | 65026 | 75225
6 | 16:43.01 | 4:02.55 | 75226 | 93430
7 | 20:45.56 | 3:48.51 | 93431 | 110581
8 | 24:34.32 | 4:05.29 | 110582 | 128985
9 | 28:39.61 | 3:16.63 | 128986 | 143748
10 | 31:56.49 | 3:04.50 | 143749 | 157598
11 | 35:01.24 | 2:58.50 | 157599 | 170998
12 | 37:59.74 | 3:01.68 | 170999 | 184641
13 | 41:01.67 | 4:32.38 | 184642 | 205079
14 | 45:34.30 | 2:24.22 | 205080 | 215901
15 | 47:58.52 | 4:20.58 | 215902 | 235459
16 | 52:19.35 | 4:40.50 | 235460 | 256509
17 | 57:00.10 | 3:26.51 | 256510 | 272010
18 | 60:26.61 | 5:18.20 | 272011 | 295880
19 | 65:45.06 | 3:46.62 | 295881 | 312892
20 | 69:31.68 | 2:04.34 | 312893 | 322226
21 | 71:36.27 | 4:15.16 | 322227 | 341367


Track 1

Filename H:\#NEW RIPS II\VA - All The Singing Ladies\cd 2\01. Grace Jones - I've Seen That Face Before (Libertango).wav

Pre-gap length 0:00:02.00

Peak level 96.6 %
Extraction speed 4.8 X
Track quality 100.0 %
Test CRC 50FDE74A
Copy CRC 50FDE74A
Track not present in AccurateRip database
Copy OK

Track 2

Filename H:\#NEW RIPS II\VA - All The Singing Ladies\cd 2\02. Selah Sue - Alone.wav

Peak level 77.9 %
Extraction speed 5.0 X
Track quality 100.0 %
Test CRC 0F9B78E4
Copy CRC 0F9B78E4
Track not present in AccurateRip database
Copy OK

Track 3

Filename H:\#NEW RIPS II\VA - All The Singing Ladies\cd 2\03. Emmylou Harris - Mister Sandman.wav

Peak level 96.6 %
Extraction speed 4.9 X
Track quality 100.0 %
Test CRC 0F4D5A67
Copy CRC 0F4D5A67
Track not present in AccurateRip database
Copy OK

Track 4

Filename H:\#NEW RIPS II\VA - All The Singing Ladies\cd 2\04. Solange - Cranes in the Sky.wav

Peak level 72.5 %
Extraction speed 4.9 X
Track quality 99.9 %
Test CRC 674AB509
Copy CRC 674AB509
Track not present in AccurateRip database
Copy OK

Track 5

Filename H:\#NEW RIPS II\VA - All The Singing Ladies\cd 2\05. Jacqueline Taïeb - 7 heures du matin.wav

Peak level 94.0 %
Extraction speed 5.5 X
Track quality 100.0 %
Test CRC C1428DE6
Copy CRC C1428DE6
Track not present in AccurateRip database
Copy OK

Track 6

Filename H:\#NEW RIPS II\VA - All The Singing Ladies\cd 2\06. Gossip - Heavy Cross.wav

Peak level 66.0 %
Extraction speed 6.3 X
Track quality 100.0 %
Test CRC 97014C1F
Copy CRC 97014C1F
Track not present in AccurateRip database
Copy OK

Track 7

Filename H:\#NEW RIPS II\VA - All The Singing Ladies\cd 2\07. Alicia Keys - If I Ain't Got You.wav

Peak level 96.6 %
Extraction speed 6.5 X
Track quality 100.0 %
Test CRC 79254A0E
Copy CRC 79254A0E
Track not present in AccurateRip database
Copy OK

Track 8

Filename H:\#NEW RIPS II\VA - All The Singing Ladies\cd 2\08. Natalie Imbruglia - Torn.wav

Peak level 92.4 %
Extraction speed 6.9 X
Track quality 100.0 %
Test CRC 68B6F4E7
Copy CRC 68B6F4E7
Track not present in AccurateRip database
Copy OK

Track 9

Filename H:\#NEW RIPS II\VA - All The Singing Ladies\cd 2\09. Goldfrapp - A&E.wav

Peak level 96.6 %
Extraction speed 5.6 X
Track quality 99.9 %
Test CRC 11657455
Copy CRC 11657455
Track not present in AccurateRip database
Copy OK

Track 10

Filename H:\#NEW RIPS II\VA - All The Singing Ladies\cd 2\10. The Bangles - Manic Monday.wav

Peak level 96.6 %
Extraction speed 7.1 X
Track quality 100.0 %
Test CRC 54CB25F9
Copy CRC 54CB25F9
Track not present in AccurateRip database
Copy OK

Track 11

Filename H:\#NEW RIPS II\VA - All The Singing Ladies\cd 2\11. Etta James - At Last.wav

Peak level 96.5 %
Extraction speed 7.2 X
Track quality 100.0 %
Test CRC 7AF2B3CA
Copy CRC 7AF2B3CA
Track not present in AccurateRip database
Copy OK

Track 12

Filename H:\#NEW RIPS II\VA - All The Singing Ladies\cd 2\12. Billie Holiday - All of Me.wav

Peak level 91.0 %
Extraction speed 5.9 X
Track quality 99.9 %
Test CRC 24BEAE3C
Copy CRC 24BEAE3C
Track not present in AccurateRip database
Copy OK

Track 13

Filename H:\#NEW RIPS II\VA - All The Singing Ladies\cd 2\13. Sheryl Crow - All I Wanna Do.wav

Peak level 91.6 %
Extraction speed 8.1 X
Track quality 100.0 %
Test CRC 26EF4E50
Copy CRC 26EF4E50
Track not present in AccurateRip database
Copy OK

Track 14

Filename H:\#NEW RIPS II\VA - All The Singing Ladies\cd 2\14. Dusty Springfield - Son of a Preacher Man.wav

Peak level 96.6 %
Extraction speed 7.5 X
Track quality 100.0 %
Test CRC 50E495DE
Copy CRC 50E495DE
Track not present in AccurateRip database
Copy OK

Track 15

Filename H:\#NEW RIPS II\VA - All The Singing Ladies\cd 2\15. tUnE-yArDs - Bizness.wav

Peak level 64.8 %
Extraction speed 8.3 X
Track quality 100.0 %
Test CRC 37DC55F0
Copy CRC 37DC55F0
Track not present in AccurateRip database
Copy OK

Track 16

Filename H:\#NEW RIPS II\VA - All The Singing Ladies\cd 2\16. Janis Ian - At Seventeen.wav

Peak level 96.6 %
Extraction speed 8.7 X
Track quality 100.0 %
Test CRC FC305AEA
Copy CRC FC305AEA
Track not present in AccurateRip database
Copy OK

Track 17

Filename H:\#NEW RIPS II\VA - All The Singing Ladies\cd 2\17. Zap Mama - Brrlak!.wav

Peak level 87.0 %
Extraction speed 8.6 X
Track quality 100.0 %
Test CRC B854AE0C
Copy CRC B854AE0C
Track not present in AccurateRip database
Copy OK

Track 18

Filename H:\#NEW RIPS II\VA - All The Singing Ladies\cd 2\18. Anne Clark - Our Darkness.wav

Peak level 96.6 %
Extraction speed 9.3 X
Track quality 100.0 %
Test CRC D8CCDF26
Copy CRC D8CCDF26
Track not present in AccurateRip database
Copy OK

Track 19

Filename H:\#NEW RIPS II\VA - All The Singing Ladies\cd 2\19. Agnes Obel - Riverside.wav

Peak level 92.4 %
Extraction speed 9.2 X
Track quality 100.0 %
Test CRC 6836F170
Copy CRC 6836F170
Track not present in AccurateRip database
Copy OK

Track 20

Filename H:\#NEW RIPS II\VA - All The Singing Ladies\cd 2\20. Mahalia Jackson - Joshua Fit the Battle of Jericho.wav

Peak level 95.9 %
Extraction speed 8.6 X
Track quality 100.0 %
Test CRC D534FFEA
Copy CRC D534FFEA
Track not present in AccurateRip database
Copy OK

Track 21

Filename H:\#NEW RIPS II\VA - All The Singing Ladies\cd 2\21. Patti Smith Group - Dancing Barefoot.wav

Peak level 96.6 %
Extraction speed 9.7 X
Track quality 100.0 %
Test CRC D2DACDF6
Copy CRC D2DACDF6
Track not present in AccurateRip database
Copy OK


None of the tracks are present in the AccurateRip database

No errors occurred

End of status report

–– CUETools DB Plugin V2.1.6

[CTDB TOCID: tVL3hb7sRr3qJwU2WFouuO86qkQ-] disk not present in database
Submit result: tVL3hb7sRr3qJwU2WFouuO86qkQ- has been uploaded


==== Log checksum 09C66A7E7BA4BC85F4F3B82ED2429D4CE9C4794A45D19466F925AC9F45922628 ====

Thanks to the Original ripper funkyman !