Subcategories

VA - Alpine Dreaming: The Helvetia Records Story, 1920-1924 (2018)

Posted By: delpotro
VA - Alpine Dreaming: The Helvetia Records Story, 1920-1924 (2018)

VA - Alpine Dreaming: The Helvetia Records Story, 1920-1924 (2018)
XLD Rip | FLAC (tracks+log+.cue) - 339 Mb | MP3 CBR 320 kbps - 253 Mb | 01:50:26
Folk | Label: Archeophone Records

In 1920 Ferdinand Ingold, a poor but visionary Swiss settler in the small Wisconsin town of Monroe, audaciously launched a record label, Helvetia—invoking his homeland’s ancient name and celebrating its musical heritage. Praised in the immigrant press yet beset by fiscal challenges, Helvetia issued a scant 36 sides. Scattered, scarce, and nearly forgotten, Ingold’s entire catalog, newly restored and remastered, is offered here. Rollicking and somber, sentimental and lusty, these Swiss, German, and Tyrolean tunes and songs feature virtuoso instrumental combos, vocal quartets, and especially yodelers from Swiss communities in New Jersey, Ohio, and Wisconsin. Illuminating one of the first American record labels established by an immigrant for his own community, Alpine Dreaming both recalls a bygone era and resonates with all who seek better New World lives while remembering their homelands. Produced in cooperation with the Mills Music Library and the Center for the Study of Upper Midwestern Cultures at the University of Wisconsin–Madison.
Tracklist:
Disc 1
1. Charles Schoenenberger & Louisa Schneckenbuehl – Säntis Marsch
2. Otto Rindlisbacher & Karl Hoppe – Frohsinn Auf Den Alpen
3. Charles Schoenenberger & Louisa Schneckenbuehl – Hoert Ihr's Von Den Bergen Klingen
4. Charles Schoenenberger & Louisa Schneckenbuehl – Hans Und Liesel
5. Maenner Quartett – Das Lieben Bringt Grosse Freude
6. Charles Schoenenberger – Unterwaldner Jodel
7. Charles Schoenenberger – Der Rote Schwyzer
8. Charles Schoenenberger & Louisa Schneckenbuehl – Vo Mine Berge Muss I Scheide
9. Otto Rindlisbacher & Karl Hoppe – Auf Dem Schoenen Zuerichsee
10. Charles Schoenenberger & Louisa Schneckenbuehl – Kuhreigen
11. Charles Schoenenberger – The Boy From Emmenthal
12. Piano Accordion Duet – Puppchen, Du Bist Mein Augenstern
13. Frieda Haldi, Jacob Jost & Constantin Wunderle – Emmenthal, Du Bist Mei Freud
14. Maenner Quartett – Wo Di Alpen Rosen Blueh'n
15. Charles Schoenenberger – Bin A Lustige Bueb
16. Charles Schoenenberger & Louisa Schneckenbuehl – Chuyer Chnabe
17. Charles Schoenenberger & Louisa Schneckenbuehl – Cuckoo Yodel Song
18. Otto Rindlisbacher & Karl Hoppe – Stille Nacht - O, Du Froehliche

Disc 2
1. Otto Rindlisbacher & Karl Hoppe – Gersauer Laendler
2. Charles Schoenenberger – Durlhofer Jodel
3. Charles Schoenenberger – Schweizer Jodellied
4. Charles Schoenenberger – Der Liebe Bueb Vom Emmenthal
5. Charles Schoenenberger & Louisa Schneckenbuehl – Wo Den Himmel Berge Kraenzen
6. Gemischtes Quartett – Sah Ein Knab' Ein Roeslein Steh'n
7. Otto Rindlisbacher & Karl Hoppe – Der Lustige Aelpler
8. Charles Schoenenberger – Vo Luzern Uf Weggis Zue
9. Charles Schoenenberger & Louisa Schneckenbuehl – Niene Gehts So Schön Und Lustig
10. Charles Schoenenberger – Im Frühjahr
11. Charles Schoenenberger – Swiss Yodel Song
12. Piano Accordion Duet – Wo Steht Den Das Geschrieben
13. Frieda Haldi, Jacob Jost & Constantin Wunderle – Hüttel Am Rhein
14. Maenner Quartett – Stille Liebe
15. Charles Schoenenberger & Louisa Schneckenbuehl – Lueget Vo Berg Und Tal
16. Charles Schoenenberger & Louisa Schneckenbuehl – O'Schweizerland
17. Charles Schoenenberger & Louisa Schneckenbuehl – The Boy From The Forest
18. Otto Rindlisbacher & Karl Hoppe – Nearer, My God, To Thee

X Lossless Decoder version 20191004 (152.0)

XLD extraction logfile from 2019-11-12 13:13:44 -0600

Various Artists / Alpine Dreaming - The Helvetia Records Story, 1920-1924

Used drive : TSSTcorp CDDVDW SE-S084D (revision TS01)
Media type : Pressed CD

Ripper mode : XLD Secure Ripper
Disable audio cache : OK for the drive with a cache less than 1375KiB
Make use of C2 pointers : NO
Read offset correction : 6
Max retry count : 20
Gap status : Analyzed, Appended (except HTOA)

TOC of the extracted CD
Track | Start | Length | Start sector | End sector
––––––––––––––––––––––––––––-
1 | 00:00:00 | 03:01:69 | 0 | 13643
2 | 03:01:69 | 03:16:62 | 13644 | 28405
3 | 06:18:56 | 03:05:16 | 28406 | 42296
4 | 09:23:72 | 02:50:19 | 42297 | 55065
5 | 12:14:16 | 02:24:66 | 55066 | 65931
6 | 14:39:07 | 02:32:47 | 65932 | 77378
7 | 17:11:54 | 02:49:11 | 77379 | 90064
8 | 20:00:65 | 02:48:34 | 90065 | 102698
9 | 22:49:24 | 03:14:62 | 102699 | 117310
10 | 26:04:11 | 03:05:60 | 117311 | 131245
11 | 29:09:71 | 03:30:74 | 131246 | 147069
12 | 32:40:70 | 03:09:12 | 147070 | 161256
13 | 35:50:07 | 02:55:08 | 161257 | 174389
14 | 38:45:15 | 02:54:25 | 174390 | 187464
15 | 41:39:40 | 02:54:35 | 187465 | 200549
16 | 44:34:00 | 03:02:34 | 200550 | 214233
17 | 47:36:34 | 03:05:24 | 214234 | 228132
18 | 50:41:58 | 03:19:37 | 228133 | 243094

AccurateRip Summary
Disc not found in AccurateRip DB.

All Tracks
Album gain : -2.84 dB
Peak : 0.999725
Statistics
Read error : 0
Jitter error (maybe fixed) : 0
Retry sector count : 0
Damaged sector count : 0

Track 01
Filename : /Users/user/Uploads/Various Artists - Alpine Dreaming - The Helvetia Records Story, 1920-1924 (2018) [LAME MP3 (VBR-new quality 0.0)]/01 Säntis Marsch [Santis March].mp3
/Users/user/Uploads/Various Artists - Alpine Dreaming - The Helvetia Records Story, 1920-1924 (2018) [LAME MP3 (VBR-new quality 2.0)]/01 Säntis Marsch [Santis March].mp3
/Users/user/Uploads/Various Artists - Alpine Dreaming - The Helvetia Records Story, 1920-1924 (2018) [LAME MP3 (CBR 320kbps)]/01 Säntis Marsch [Santis March].mp3
/Users/user/Uploads/Various Artists - Alpine Dreaming - The Helvetia Records Story, 1920-1924 (2018) [FLAC (level 8)]/01 Säntis Marsch [Santis March].flac
Pre-gap length : 00:02:00

Track gain : -2.79 dB
Peak : 0.903809
CRC32 hash (test run) : 6EACC04A
CRC32 hash : 6EACC04A
CRC32 hash (skip zero) : 8E07B31E
AccurateRip v1 signature : 3AD4A624
AccurateRip v2 signature : F9457536
->Track not present in AccurateRip database.
Statistics
Read error : 0
Jitter error (maybe fixed) : 0
Retry sector count : 0
Damaged sector count : 0

Track 02
Filename : /Users/user/Uploads/Various Artists - Alpine Dreaming - The Helvetia Records Story, 1920-1924 (2018) [LAME MP3 (VBR-new quality 0.0)]/02 Frohsinn auf den Alpen ([Joy in the Alps].mp3
/Users/user/Uploads/Various Artists - Alpine Dreaming - The Helvetia Records Story, 1920-1924 (2018) [LAME MP3 (VBR-new quality 2.0)]/02 Frohsinn auf den Alpen ([Joy in the Alps].mp3
/Users/user/Uploads/Various Artists - Alpine Dreaming - The Helvetia Records Story, 1920-1924 (2018) [LAME MP3 (CBR 320kbps)]/02 Frohsinn auf den Alpen ([Joy in the Alps].mp3
/Users/user/Uploads/Various Artists - Alpine Dreaming - The Helvetia Records Story, 1920-1924 (2018) [FLAC (level 8)]/02 Frohsinn auf den Alpen ([Joy in the Alps].flac
Pre-gap length : 00:01:56

Track gain : -3.50 dB
Peak : 0.992340
CRC32 hash (test run) : BABD7CBC
CRC32 hash : BABD7CBC
CRC32 hash (skip zero) : 0BF45A36
AccurateRip v1 signature : 5646709D
AccurateRip v2 signature : 8062E06A
->Track not present in AccurateRip database.
Statistics
Read error : 0
Jitter error (maybe fixed) : 0
Retry sector count : 0
Damaged sector count : 0

Track 03
Filename : /Users/user/Uploads/Various Artists - Alpine Dreaming - The Helvetia Records Story, 1920-1924 (2018) [LAME MP3 (VBR-new quality 0.0)]/03 Hoert Ihr's von den Bergen Klingen [Hear It Sound from the Mountains].mp3
/Users/user/Uploads/Various Artists - Alpine Dreaming - The Helvetia Records Story, 1920-1924 (2018) [LAME MP3 (VBR-new quality 2.0)]/03 Hoert Ihr's von den Bergen Klingen [Hear It Sound from the Mountains].mp3
/Users/user/Uploads/Various Artists - Alpine Dreaming - The Helvetia Records Story, 1920-1924 (2018) [LAME MP3 (CBR 320kbps)]/03 Hoert Ihr's von den Bergen Klingen [Hear It Sound from the Mountains].mp3
/Users/user/Uploads/Various Artists - Alpine Dreaming - The Helvetia Records Story, 1920-1924 (2018) [FLAC (level 8)]/03 Hoert Ihr's von den Bergen Klingen [Hear It Sound from the Mountains].flac
Pre-gap length : 00:01:56

Track gain : -2.52 dB
Peak : 0.864136
CRC32 hash (test run) : 2FF27F44
CRC32 hash : 2FF27F44
CRC32 hash (skip zero) : EBC82916
AccurateRip v1 signature : D2AC4BB7
AccurateRip v2 signature : 5BDDA579
->Track not present in AccurateRip database.
Statistics
Read error : 0
Jitter error (maybe fixed) : 0
Retry sector count : 0
Damaged sector count : 0

Track 04
Filename : /Users/user/Uploads/Various Artists - Alpine Dreaming - The Helvetia Records Story, 1920-1924 (2018) [LAME MP3 (VBR-new quality 0.0)]/04 Hans und Liesel [Hans and Liesel].mp3
/Users/user/Uploads/Various Artists - Alpine Dreaming - The Helvetia Records Story, 1920-1924 (2018) [LAME MP3 (VBR-new quality 2.0)]/04 Hans und Liesel [Hans and Liesel].mp3
/Users/user/Uploads/Various Artists - Alpine Dreaming - The Helvetia Records Story, 1920-1924 (2018) [LAME MP3 (CBR 320kbps)]/04 Hans und Liesel [Hans and Liesel].mp3
/Users/user/Uploads/Various Artists - Alpine Dreaming - The Helvetia Records Story, 1920-1924 (2018) [FLAC (level 8)]/04 Hans und Liesel [Hans and Liesel].flac
Pre-gap length : 00:01:56

Track gain : -2.53 dB
Peak : 0.907837
CRC32 hash (test run) : 1CD46918
CRC32 hash : 1CD46918
CRC32 hash (skip zero) : 23C6F412
AccurateRip v1 signature : E06BAF30
AccurateRip v2 signature : B1980590
->Track not present in AccurateRip database.
Statistics
Read error : 0
Jitter error (maybe fixed) : 0
Retry sector count : 0
Damaged sector count : 0

Track 05
Filename : /Users/user/Uploads/Various Artists - Alpine Dreaming - The Helvetia Records Story, 1920-1924 (2018) [LAME MP3 (VBR-new quality 0.0)]/05 Das Lieben Bringt Grosse Freude [Loving Brings Great Joy].mp3
/Users/user/Uploads/Various Artists - Alpine Dreaming - The Helvetia Records Story, 1920-1924 (2018) [LAME MP3 (VBR-new quality 2.0)]/05 Das Lieben Bringt Grosse Freude [Loving Brings Great Joy].mp3
/Users/user/Uploads/Various Artists - Alpine Dreaming - The Helvetia Records Story, 1920-1924 (2018) [LAME MP3 (CBR 320kbps)]/05 Das Lieben Bringt Grosse Freude [Loving Brings Great Joy].mp3
/Users/user/Uploads/Various Artists - Alpine Dreaming - The Helvetia Records Story, 1920-1924 (2018) [FLAC (level 8)]/05 Das Lieben Bringt Grosse Freude [Loving Brings Great Joy].flac
Pre-gap length : 00:01:56

Track gain : -2.71 dB
Peak : 0.901245
CRC32 hash (test run) : 860011C5
CRC32 hash : 860011C5
CRC32 hash (skip zero) : 40F9B08C
AccurateRip v1 signature : 3F2F5FB9
AccurateRip v2 signature : 5D5D452D
->Track not present in AccurateRip database.
Statistics
Read error : 0
Jitter error (maybe fixed) : 0
Retry sector count : 0
Damaged sector count : 0

Track 06
Filename : /Users/user/Uploads/Various Artists - Alpine Dreaming - The Helvetia Records Story, 1920-1924 (2018) [LAME MP3 (VBR-new quality 0.0)]/06 Unterwaldner Jodel [Unterwaldner Yodel].mp3
/Users/user/Uploads/Various Artists - Alpine Dreaming - The Helvetia Records Story, 1920-1924 (2018) [LAME MP3 (VBR-new quality 2.0)]/06 Unterwaldner Jodel [Unterwaldner Yodel].mp3
/Users/user/Uploads/Various Artists - Alpine Dreaming - The Helvetia Records Story, 1920-1924 (2018) [LAME MP3 (CBR 320kbps)]/06 Unterwaldner Jodel [Unterwaldner Yodel].mp3
/Users/user/Uploads/Various Artists - Alpine Dreaming - The Helvetia Records Story, 1920-1924 (2018) [FLAC (level 8)]/06 Unterwaldner Jodel [Unterwaldner Yodel].flac
Pre-gap length : 00:01:56

Track gain : -2.37 dB
Peak : 0.862976
CRC32 hash (test run) : 070514C6
CRC32 hash : 070514C6
CRC32 hash (skip zero) : 996B69C3
AccurateRip v1 signature : 8F7596E6
AccurateRip v2 signature : 7FBFC29D
->Track not present in AccurateRip database.
Statistics
Read error : 0
Jitter error (maybe fixed) : 0
Retry sector count : 0
Damaged sector count : 0

Track 07
Filename : /Users/user/Uploads/Various Artists - Alpine Dreaming - The Helvetia Records Story, 1920-1924 (2018) [LAME MP3 (VBR-new quality 0.0)]/07 Der Rote Schwyzer [The Red-Haired Swiss].mp3
/Users/user/Uploads/Various Artists - Alpine Dreaming - The Helvetia Records Story, 1920-1924 (2018) [LAME MP3 (VBR-new quality 2.0)]/07 Der Rote Schwyzer [The Red-Haired Swiss].mp3
/Users/user/Uploads/Various Artists - Alpine Dreaming - The Helvetia Records Story, 1920-1924 (2018) [LAME MP3 (CBR 320kbps)]/07 Der Rote Schwyzer [The Red-Haired Swiss].mp3
/Users/user/Uploads/Various Artists - Alpine Dreaming - The Helvetia Records Story, 1920-1924 (2018) [FLAC (level 8)]/07 Der Rote Schwyzer [The Red-Haired Swiss].flac
Pre-gap length : 00:01:56

Track gain : -2.80 dB
Peak : 0.813690
CRC32 hash (test run) : 17581A2D
CRC32 hash : 17581A2D
CRC32 hash (skip zero) : 2250323B
AccurateRip v1 signature : AB9ACD61
AccurateRip v2 signature : F0CEA926
->Track not present in AccurateRip database.
Statistics
Read error : 0
Jitter error (maybe fixed) : 0
Retry sector count : 0
Damaged sector count : 0

Track 08
Filename : /Users/user/Uploads/Various Artists - Alpine Dreaming - The Helvetia Records Story, 1920-1924 (2018) [LAME MP3 (VBR-new quality 0.0)]/08 Vo Mine Berge Muss I Scheide .mp3
/Users/user/Uploads/Various Artists - Alpine Dreaming - The Helvetia Records Story, 1920-1924 (2018) [LAME MP3 (VBR-new quality 2.0)]/08 Vo Mine Berge Muss I Scheide .mp3
/Users/user/Uploads/Various Artists - Alpine Dreaming - The Helvetia Records Story, 1920-1924 (2018) [LAME MP3 (CBR 320kbps)]/08 Vo Mine Berge Muss I Scheide .mp3
/Users/user/Uploads/Various Artists - Alpine Dreaming - The Helvetia Records Story, 1920-1924 (2018) [FLAC (level 8)]/08 Vo Mine Berge Muss I Scheide .flac
Pre-gap length : 00:01:56

Track gain : -2.87 dB
Peak : 0.895172
CRC32 hash (test run) : 9568BBF7
CRC32 hash : 9568BBF7
CRC32 hash (skip zero) : 32F85E5E
AccurateRip v1 signature : 7051129D
AccurateRip v2 signature : 75C86764
->Track not present in AccurateRip database.
Statistics
Read error : 0
Jitter error (maybe fixed) : 0
Retry sector count : 0
Damaged sector count : 0

Track 09
Filename : /Users/user/Uploads/Various Artists - Alpine Dreaming - The Helvetia Records Story, 1920-1924 (2018) [LAME MP3 (VBR-new quality 0.0)]/09 Auf dem Schoenen Zuerichsee [The Beautiful Lake Zurich].mp3
/Users/user/Uploads/Various Artists - Alpine Dreaming - The Helvetia Records Story, 1920-1924 (2018) [LAME MP3 (VBR-new quality 2.0)]/09 Auf dem Schoenen Zuerichsee [The Beautiful Lake Zurich].mp3
/Users/user/Uploads/Various Artists - Alpine Dreaming - The Helvetia Records Story, 1920-1924 (2018) [LAME MP3 (CBR 320kbps)]/09 Auf dem Schoenen Zuerichsee [The Beautiful Lake Zurich].mp3
/Users/user/Uploads/Various Artists - Alpine Dreaming - The Helvetia Records Story, 1920-1924 (2018) [FLAC (level 8)]/09 Auf dem Schoenen Zuerichsee [The Beautiful Lake Zurich].flac
Pre-gap length : 00:01:56

Track gain : -3.48 dB
Peak : 0.844421
CRC32 hash (test run) : 965FDC4C
CRC32 hash : 965FDC4C
CRC32 hash (skip zero) : BAD8D112
AccurateRip v1 signature : 399C2A3F
AccurateRip v2 signature : 9A26A6C7
->Track not present in AccurateRip database.
Statistics
Read error : 0
Jitter error (maybe fixed) : 0
Retry sector count : 0
Damaged sector count : 0

Track 10
Filename : /Users/user/Uploads/Various Artists - Alpine Dreaming - The Helvetia Records Story, 1920-1924 (2018) [LAME MP3 (VBR-new quality 0.0)]/10 Kuhrgeigen [Cow Call].mp3
/Users/user/Uploads/Various Artists - Alpine Dreaming - The Helvetia Records Story, 1920-1924 (2018) [LAME MP3 (VBR-new quality 2.0)]/10 Kuhrgeigen [Cow Call].mp3
/Users/user/Uploads/Various Artists - Alpine Dreaming - The Helvetia Records Story, 1920-1924 (2018) [LAME MP3 (CBR 320kbps)]/10 Kuhrgeigen [Cow Call].mp3
/Users/user/Uploads/Various Artists - Alpine Dreaming - The Helvetia Records Story, 1920-1924 (2018) [FLAC (level 8)]/10 Kuhrgeigen [Cow Call].flac
Pre-gap length : 00:01:56

Track gain : -2.60 dB
Peak : 0.988770
CRC32 hash (test run) : 2BBE9960
CRC32 hash : 2BBE9960
CRC32 hash (skip zero) : BC4513B4
AccurateRip v1 signature : 49794F22
AccurateRip v2 signature : 554673A2
->Track not present in AccurateRip database.
Statistics
Read error : 0
Jitter error (maybe fixed) : 0
Retry sector count : 0
Damaged sector count : 0

Track 11
Filename : /Users/user/Uploads/Various Artists - Alpine Dreaming - The Helvetia Records Story, 1920-1924 (2018) [LAME MP3 (VBR-new quality 0.0)]/11 The Boy from Emmenthal.mp3
/Users/user/Uploads/Various Artists - Alpine Dreaming - The Helvetia Records Story, 1920-1924 (2018) [LAME MP3 (VBR-new quality 2.0)]/11 The Boy from Emmenthal.mp3
/Users/user/Uploads/Various Artists - Alpine Dreaming - The Helvetia Records Story, 1920-1924 (2018) [LAME MP3 (CBR 320kbps)]/11 The Boy from Emmenthal.mp3
/Users/user/Uploads/Various Artists - Alpine Dreaming - The Helvetia Records Story, 1920-1924 (2018) [FLAC (level 8)]/11 The Boy from Emmenthal.flac
Pre-gap length : 00:01:56

Track gain : -2.25 dB
Peak : 0.808136
CRC32 hash (test run) : D652E5B4
CRC32 hash : D652E5B4
CRC32 hash (skip zero) : F2EE2DBE
AccurateRip v1 signature : BC1881B6
AccurateRip v2 signature : 1792B15E
->Track not present in AccurateRip database.
Statistics
Read error : 0
Jitter error (maybe fixed) : 0
Retry sector count : 0
Damaged sector count : 0

Track 12
Filename : /Users/user/Uploads/Various Artists - Alpine Dreaming - The Helvetia Records Story, 1920-1924 (2018) [LAME MP3 (VBR-new quality 0.0)]/12 Puppchen, Du Bist Mein Augenstern [Little Doll, You Are My Eyes Star].mp3
/Users/user/Uploads/Various Artists - Alpine Dreaming - The Helvetia Records Story, 1920-1924 (2018) [LAME MP3 (VBR-new quality 2.0)]/12 Puppchen, Du Bist Mein Augenstern [Little Doll, You Are My Eyes Star].mp3
/Users/user/Uploads/Various Artists - Alpine Dreaming - The Helvetia Records Story, 1920-1924 (2018) [LAME MP3 (CBR 320kbps)]/12 Puppchen, Du Bist Mein Augenstern [Little Doll, You Are My Eyes Star].mp3
/Users/user/Uploads/Various Artists - Alpine Dreaming - The Helvetia Records Story, 1920-1924 (2018) [FLAC (level 8)]/12 Puppchen, Du Bist Mein Augenstern [Little Doll, You Are My Eyes Star].flac
Pre-gap length : 00:01:56

Track gain : -3.16 dB
Peak : 0.883667
CRC32 hash (test run) : AEBFB6E9
CRC32 hash : AEBFB6E9
CRC32 hash (skip zero) : E6AB79F3
AccurateRip v1 signature : 22E68B32
AccurateRip v2 signature : 627C5898
->Track not present in AccurateRip database.
Statistics
Read error : 0
Jitter error (maybe fixed) : 0
Retry sector count : 0
Damaged sector count : 0

Track 13
Filename : /Users/user/Uploads/Various Artists - Alpine Dreaming - The Helvetia Records Story, 1920-1924 (2018) [LAME MP3 (VBR-new quality 0.0)]/13 Emmenthal, Du Bist Mei Freud [Emmenthal, You Are My Joy].mp3
/Users/user/Uploads/Various Artists - Alpine Dreaming - The Helvetia Records Story, 1920-1924 (2018) [LAME MP3 (VBR-new quality 2.0)]/13 Emmenthal, Du Bist Mei Freud [Emmenthal, You Are My Joy].mp3
/Users/user/Uploads/Various Artists - Alpine Dreaming - The Helvetia Records Story, 1920-1924 (2018) [LAME MP3 (CBR 320kbps)]/13 Emmenthal, Du Bist Mei Freud [Emmenthal, You Are My Joy].mp3
/Users/user/Uploads/Various Artists - Alpine Dreaming - The Helvetia Records Story, 1920-1924 (2018) [FLAC (level 8)]/13 Emmenthal, Du Bist Mei Freud [Emmenthal, You Are My Joy].flac
Pre-gap length : 00:01:56

Track gain : -2.96 dB
Peak : 0.830719
CRC32 hash (test run) : 04FA72F4
CRC32 hash : 04FA72F4
CRC32 hash (skip zero) : 04DA8804
AccurateRip v1 signature : 8EF58837
AccurateRip v2 signature : A5B27052
->Track not present in AccurateRip database.
Statistics
Read error : 0
Jitter error (maybe fixed) : 0
Retry sector count : 0
Damaged sector count : 0

Track 14
Filename : /Users/user/Uploads/Various Artists - Alpine Dreaming - The Helvetia Records Story, 1920-1924 (2018) [LAME MP3 (VBR-new quality 0.0)]/14 Wo di Alpen Rosen Blueh'n [Where The Alpine Roses Bloom].mp3
/Users/user/Uploads/Various Artists - Alpine Dreaming - The Helvetia Records Story, 1920-1924 (2018) [LAME MP3 (VBR-new quality 2.0)]/14 Wo di Alpen Rosen Blueh'n [Where The Alpine Roses Bloom].mp3
/Users/user/Uploads/Various Artists - Alpine Dreaming - The Helvetia Records Story, 1920-1924 (2018) [LAME MP3 (CBR 320kbps)]/14 Wo di Alpen Rosen Blueh'n [Where The Alpine Roses Bloom].mp3
/Users/user/Uploads/Various Artists - Alpine Dreaming - The Helvetia Records Story, 1920-1924 (2018) [FLAC (level 8)]/14 Wo di Alpen Rosen Blueh'n [Where The Alpine Roses Bloom].flac
Pre-gap length : 00:02:00

Track gain : -2.54 dB
Peak : 0.773132
CRC32 hash (test run) : E904DBE9
CRC32 hash : E904DBE9
CRC32 hash (skip zero) : 414F10F4
AccurateRip v1 signature : 67DE44E1
AccurateRip v2 signature : F83EECB0
->Track not present in AccurateRip database.
Statistics
Read error : 0
Jitter error (maybe fixed) : 0
Retry sector count : 0
Damaged sector count : 0

Track 15
Filename : /Users/user/Uploads/Various Artists - Alpine Dreaming - The Helvetia Records Story, 1920-1924 (2018) [LAME MP3 (VBR-new quality 0.0)]/15 Bin a Lustige Bueb .mp3
/Users/user/Uploads/Various Artists - Alpine Dreaming - The Helvetia Records Story, 1920-1924 (2018) [LAME MP3 (VBR-new quality 2.0)]/15 Bin a Lustige Bueb .mp3
/Users/user/Uploads/Various Artists - Alpine Dreaming - The Helvetia Records Story, 1920-1924 (2018) [LAME MP3 (CBR 320kbps)]/15 Bin a Lustige Bueb .mp3
/Users/user/Uploads/Various Artists - Alpine Dreaming - The Helvetia Records Story, 1920-1924 (2018) [FLAC (level 8)]/15 Bin a Lustige Bueb .flac
Pre-gap length : 00:01:56

Track gain : -2.63 dB
Peak : 0.991913
CRC32 hash (test run) : 5EF0770D
CRC32 hash : 5EF0770D
CRC32 hash (skip zero) : D8366AE9
AccurateRip v1 signature : 6E80007C
AccurateRip v2 signature : 9DB482EC
->Track not present in AccurateRip database.
Statistics
Read error : 0
Jitter error (maybe fixed) : 0
Retry sector count : 0
Damaged sector count : 0

Track 16
Filename : /Users/user/Uploads/Various Artists - Alpine Dreaming - The Helvetia Records Story, 1920-1924 (2018) [LAME MP3 (VBR-new quality 0.0)]/16 Chuyer Chnabe [Boy from Chuyer].mp3
/Users/user/Uploads/Various Artists - Alpine Dreaming - The Helvetia Records Story, 1920-1924 (2018) [LAME MP3 (VBR-new quality 2.0)]/16 Chuyer Chnabe [Boy from Chuyer].mp3
/Users/user/Uploads/Various Artists - Alpine Dreaming - The Helvetia Records Story, 1920-1924 (2018) [LAME MP3 (CBR 320kbps)]/16 Chuyer Chnabe [Boy from Chuyer].mp3
/Users/user/Uploads/Various Artists - Alpine Dreaming - The Helvetia Records Story, 1920-1924 (2018) [FLAC (level 8)]/16 Chuyer Chnabe [Boy from Chuyer].flac
Pre-gap length : 00:01:56

Track gain : -2.52 dB
Peak : 0.999725
CRC32 hash (test run) : 6C70F201
CRC32 hash : 6C70F201
CRC32 hash (skip zero) : B3C58927
AccurateRip v1 signature : 1FA1C94D
AccurateRip v2 signature : 634D9953
->Track not present in AccurateRip database.
Statistics
Read error : 0
Jitter error (maybe fixed) : 0
Retry sector count : 0
Damaged sector count : 0

Track 17
Filename : /Users/user/Uploads/Various Artists - Alpine Dreaming - The Helvetia Records Story, 1920-1924 (2018) [LAME MP3 (VBR-new quality 0.0)]/17 Cuckoo Yodel Song.mp3
/Users/user/Uploads/Various Artists - Alpine Dreaming - The Helvetia Records Story, 1920-1924 (2018) [LAME MP3 (VBR-new quality 2.0)]/17 Cuckoo Yodel Song.mp3
/Users/user/Uploads/Various Artists - Alpine Dreaming - The Helvetia Records Story, 1920-1924 (2018) [LAME MP3 (CBR 320kbps)]/17 Cuckoo Yodel Song.mp3
/Users/user/Uploads/Various Artists - Alpine Dreaming - The Helvetia Records Story, 1920-1924 (2018) [FLAC (level 8)]/17 Cuckoo Yodel Song.flac
Pre-gap length : 00:01:56

Track gain : -2.40 dB
Peak : 0.971619
CRC32 hash (test run) : 60FDD00A
CRC32 hash : 60FDD00A
CRC32 hash (skip zero) : 5080F5AD
AccurateRip v1 signature : BFB4FA97
AccurateRip v2 signature : ACA0EB56
->Track not present in AccurateRip database.
Statistics
Read error : 0
Jitter error (maybe fixed) : 0
Retry sector count : 0
Damaged sector count : 0

Track 18
Filename : /Users/user/Uploads/Various Artists - Alpine Dreaming - The Helvetia Records Story, 1920-1924 (2018) [LAME MP3 (VBR-new quality 0.0)]/18 Stille Nacht-O, du Froehliche [Silent Night-O, How Joyful].mp3
/Users/user/Uploads/Various Artists - Alpine Dreaming - The Helvetia Records Story, 1920-1924 (2018) [LAME MP3 (VBR-new quality 2.0)]/18 Stille Nacht-O, du Froehliche [Silent Night-O, How Joyful].mp3
/Users/user/Uploads/Various Artists - Alpine Dreaming - The Helvetia Records Story, 1920-1924 (2018) [LAME MP3 (CBR 320kbps)]/18 Stille Nacht-O, du Froehliche [Silent Night-O, How Joyful].mp3
/Users/user/Uploads/Various Artists - Alpine Dreaming - The Helvetia Records Story, 1920-1924 (2018) [FLAC (level 8)]/18 Stille Nacht-O, du Froehliche [Silent Night-O, How Joyful].flac
Pre-gap length : 00:01:56

Track gain : -3.51 dB
Peak : 0.914032
CRC32 hash (test run) : 4D620CAC
CRC32 hash : 4D620CAC
CRC32 hash (skip zero) : 1142B210
AccurateRip v1 signature : 7ECC324B
AccurateRip v2 signature : DFF507DD
->Track not present in AccurateRip database.
Statistics
Read error : 0
Jitter error (maybe fixed) : 0
Retry sector count : 0
Damaged sector count : 0

No errors occurred

End of status report
X Lossless Decoder version 20191004 (152.0)

XLD extraction logfile from 2019-11-12 21:24:54 -0600

Various Artists / Alpine Dreaming - The Helvetia Records Story, 1920-1924

Used drive : TSSTcorp CDDVDW SE-S084D (revision TS01)
Media type : Pressed CD

Ripper mode : XLD Secure Ripper
Disable audio cache : OK for the drive with a cache less than 1375KiB
Make use of C2 pointers : NO
Read offset correction : 6
Max retry count : 20
Gap status : Analyzed, Appended (except HTOA)

TOC of the extracted CD
Track | Start | Length | Start sector | End sector
––––––––––––––––––––––––––––-
1 | 00:00:00 | 02:51:59 | 0 | 12883
2 | 02:51:59 | 03:10:17 | 12884 | 27150
3 | 06:02:01 | 02:57:67 | 27151 | 40492
4 | 08:59:68 | 03:26:59 | 40493 | 56001
5 | 12:26:52 | 03:13:64 | 56002 | 70540
6 | 15:40:41 | 02:43:70 | 70541 | 82835
7 | 18:24:36 | 03:29:70 | 82836 | 98580
8 | 21:54:31 | 02:33:49 | 98581 | 110104
9 | 24:28:05 | 02:46:16 | 110105 | 122570
10 | 27:14:21 | 03:09:37 | 122571 | 136782
11 | 30:23:58 | 02:55:17 | 136783 | 149924
12 | 33:19:00 | 03:14:36 | 149925 | 164510
13 | 36:33:36 | 03:03:71 | 164511 | 178306
14 | 39:37:32 | 02:50:14 | 178307 | 191070
15 | 42:27:46 | 03:26:62 | 191071 | 206582
16 | 45:54:33 | 03:32:27 | 206583 | 222509
17 | 49:26:60 | 03:29:73 | 222510 | 238257
18 | 52:56:58 | 03:28:67 | 238258 | 253924

AccurateRip Summary
Disc not found in AccurateRip DB.

All Tracks
Album gain : -2.86 dB
Peak : 0.993652
Statistics
Read error : 0
Jitter error (maybe fixed) : 0
Retry sector count : 0
Damaged sector count : 0

Track 01
Filename : /Users/user/Uploads/Disc 2/Various Artists - Alpine Dreaming - The Helvetia Records Story, 1920-1924 (2018) [LAME MP3 (VBR-new quality 0.0)]/01 Gersauer Laendler [Gersauer Dance].mp3
/Users/user/Uploads/Disc 2/Various Artists - Alpine Dreaming - The Helvetia Records Story, 1920-1924 (2018) [LAME MP3 (VBR-new quality 2.0)]/01 Gersauer Laendler [Gersauer Dance].mp3
/Users/user/Uploads/Disc 2/Various Artists - Alpine Dreaming - The Helvetia Records Story, 1920-1924 (2018) [LAME MP3 (CBR 320kbps)]/01 Gersauer Laendler [Gersauer Dance].mp3
/Users/user/Uploads/Disc 2/Various Artists - Alpine Dreaming - The Helvetia Records Story, 1920-1924 (2018) [FLAC (level 8)]/01 Gersauer Laendler [Gersauer Dance].flac
Pre-gap length : 00:02:00

Track gain : -3.78 dB
Peak : 0.992462
CRC32 hash (test run) : 67993C09
CRC32 hash : 67993C09
CRC32 hash (skip zero) : 0C40E5E9
AccurateRip v1 signature : B64063D6
AccurateRip v2 signature : 8DFEB246
->Track not present in AccurateRip database.
Statistics
Read error : 0
Jitter error (maybe fixed) : 0
Retry sector count : 0
Damaged sector count : 0

Track 02
Filename : /Users/user/Uploads/Disc 2/Various Artists - Alpine Dreaming - The Helvetia Records Story, 1920-1924 (2018) [LAME MP3 (VBR-new quality 0.0)]/02 Dulhofer Jodel [Barnyard Boy's Yodel].mp3
/Users/user/Uploads/Disc 2/Various Artists - Alpine Dreaming - The Helvetia Records Story, 1920-1924 (2018) [LAME MP3 (VBR-new quality 2.0)]/02 Dulhofer Jodel [Barnyard Boy's Yodel].mp3
/Users/user/Uploads/Disc 2/Various Artists - Alpine Dreaming - The Helvetia Records Story, 1920-1924 (2018) [LAME MP3 (CBR 320kbps)]/02 Dulhofer Jodel [Barnyard Boy's Yodel].mp3
/Users/user/Uploads/Disc 2/Various Artists - Alpine Dreaming - The Helvetia Records Story, 1920-1924 (2018) [FLAC (level 8)]/02 Dulhofer Jodel [Barnyard Boy's Yodel].flac
Pre-gap length : 00:01:56

Track gain : -2.40 dB
Peak : 0.927002
CRC32 hash (test run) : D0B9A103
CRC32 hash : D0B9A103
CRC32 hash (skip zero) : D988714B
AccurateRip v1 signature : 8442B13C
AccurateRip v2 signature : 557CF1A4
->Track not present in AccurateRip database.
Statistics
Read error : 0
Jitter error (maybe fixed) : 0
Retry sector count : 0
Damaged sector count : 0

Track 03
Filename : /Users/user/Uploads/Disc 2/Various Artists - Alpine Dreaming - The Helvetia Records Story, 1920-1924 (2018) [LAME MP3 (VBR-new quality 0.0)]/03 Schweizer Jodellied [Swiss Yodel Song].mp3
/Users/user/Uploads/Disc 2/Various Artists - Alpine Dreaming - The Helvetia Records Story, 1920-1924 (2018) [LAME MP3 (VBR-new quality 2.0)]/03 Schweizer Jodellied [Swiss Yodel Song].mp3
/Users/user/Uploads/Disc 2/Various Artists - Alpine Dreaming - The Helvetia Records Story, 1920-1924 (2018) [LAME MP3 (CBR 320kbps)]/03 Schweizer Jodellied [Swiss Yodel Song].mp3
/Users/user/Uploads/Disc 2/Various Artists - Alpine Dreaming - The Helvetia Records Story, 1920-1924 (2018) [FLAC (level 8)]/03 Schweizer Jodellied [Swiss Yodel Song].flac
Pre-gap length : 00:01:56

Track gain : -2.52 dB
Peak : 0.890198
CRC32 hash (test run) : 801E27B6
CRC32 hash : 801E27B6
CRC32 hash (skip zero) : 02AF36C4
AccurateRip v1 signature : 135DD891
AccurateRip v2 signature : 41B606CD
->Track not present in AccurateRip database.
Statistics
Read error : 0
Jitter error (maybe fixed) : 0
Retry sector count : 0
Damaged sector count : 0

Track 04
Filename : /Users/user/Uploads/Disc 2/Various Artists - Alpine Dreaming - The Helvetia Records Story, 1920-1924 (2018) [LAME MP3 (VBR-new quality 0.0)]/04 Der Liebe Bueb Vom Emmenthal [The Beloved Boy From Emmental].mp3
/Users/user/Uploads/Disc 2/Various Artists - Alpine Dreaming - The Helvetia Records Story, 1920-1924 (2018) [LAME MP3 (VBR-new quality 2.0)]/04 Der Liebe Bueb Vom Emmenthal [The Beloved Boy From Emmental].mp3
/Users/user/Uploads/Disc 2/Various Artists - Alpine Dreaming - The Helvetia Records Story, 1920-1924 (2018) [LAME MP3 (CBR 320kbps)]/04 Der Liebe Bueb Vom Emmenthal [The Beloved Boy From Emmental].mp3
/Users/user/Uploads/Disc 2/Various Artists - Alpine Dreaming - The Helvetia Records Story, 1920-1924 (2018) [FLAC (level 8)]/04 Der Liebe Bueb Vom Emmenthal [The Beloved Boy From Emmental].flac
Pre-gap length : 00:01:56

Track gain : -2.28 dB
Peak : 0.753784
CRC32 hash (test run) : D03C93B9
CRC32 hash : D03C93B9
CRC32 hash (skip zero) : 3B7074F3
AccurateRip v1 signature : FB04D265
AccurateRip v2 signature : 533C5468
->Track not present in AccurateRip database.
Statistics
Read error : 0
Jitter error (maybe fixed) : 0
Retry sector count : 0
Damaged sector count : 0

Track 05
Filename : /Users/user/Uploads/Disc 2/Various Artists - Alpine Dreaming - The Helvetia Records Story, 1920-1924 (2018) [LAME MP3 (VBR-new quality 0.0)]/05 Wo Den Himmel Berg Kraezen [When The Mountains Scrape The Sky].mp3
/Users/user/Uploads/Disc 2/Various Artists - Alpine Dreaming - The Helvetia Records Story, 1920-1924 (2018) [LAME MP3 (VBR-new quality 2.0)]/05 Wo Den Himmel Berg Kraezen [When The Mountains Scrape The Sky].mp3
/Users/user/Uploads/Disc 2/Various Artists - Alpine Dreaming - The Helvetia Records Story, 1920-1924 (2018) [LAME MP3 (CBR 320kbps)]/05 Wo Den Himmel Berg Kraezen [When The Mountains Scrape The Sky].mp3
/Users/user/Uploads/Disc 2/Various Artists - Alpine Dreaming - The Helvetia Records Story, 1920-1924 (2018) [FLAC (level 8)]/05 Wo Den Himmel Berg Kraezen [When The Mountains Scrape The Sky].flac
Pre-gap length : 00:01:56

Track gain : -2.51 dB
Peak : 0.918762
CRC32 hash (test run) : D1925085
CRC32 hash : D1925085
CRC32 hash (skip zero) : 670BF4AB
AccurateRip v1 signature : F65F3252
AccurateRip v2 signature : 13C27914
->Track not present in AccurateRip database.
Statistics
Read error : 0
Jitter error (maybe fixed) : 0
Retry sector count : 0
Damaged sector count : 0

Track 06
Filename : /Users/user/Uploads/Disc 2/Various Artists - Alpine Dreaming - The Helvetia Records Story, 1920-1924 (2018) [LAME MP3 (VBR-new quality 0.0)]/06 Sah Ein Knab' Ein Roselein Steh'n [A Boy Saw A Little Rose Standing].mp3
/Users/user/Uploads/Disc 2/Various Artists - Alpine Dreaming - The Helvetia Records Story, 1920-1924 (2018) [LAME MP3 (VBR-new quality 2.0)]/06 Sah Ein Knab' Ein Roselein Steh'n [A Boy Saw A Little Rose Standing].mp3
/Users/user/Uploads/Disc 2/Various Artists - Alpine Dreaming - The Helvetia Records Story, 1920-1924 (2018) [LAME MP3 (CBR 320kbps)]/06 Sah Ein Knab' Ein Roselein Steh'n [A Boy Saw A Little Rose Standing].mp3
/Users/user/Uploads/Disc 2/Various Artists - Alpine Dreaming - The Helvetia Records Story, 1920-1924 (2018) [FLAC (level 8)]/06 Sah Ein Knab' Ein Roselein Steh'n [A Boy Saw A Little Rose Standing].flac
Pre-gap length : 00:01:56

Track gain : -2.82 dB
Peak : 0.864716
CRC32 hash (test run) : 0E83FEB5
CRC32 hash : 0E83FEB5
CRC32 hash (skip zero) : 5B212A65
AccurateRip v1 signature : D0BCBE97
AccurateRip v2 signature : 28E5A04C
->Track not present in AccurateRip database.
Statistics
Read error : 0
Jitter error (maybe fixed) : 0
Retry sector count : 0
Damaged sector count : 0

Track 07
Filename : /Users/user/Uploads/Disc 2/Various Artists - Alpine Dreaming - The Helvetia Records Story, 1920-1924 (2018) [LAME MP3 (VBR-new quality 0.0)]/07 Der Lustige Aelpler [The Jolly Mountaineer].mp3
/Users/user/Uploads/Disc 2/Various Artists - Alpine Dreaming - The Helvetia Records Story, 1920-1924 (2018) [LAME MP3 (VBR-new quality 2.0)]/07 Der Lustige Aelpler [The Jolly Mountaineer].mp3
/Users/user/Uploads/Disc 2/Various Artists - Alpine Dreaming - The Helvetia Records Story, 1920-1924 (2018) [LAME MP3 (CBR 320kbps)]/07 Der Lustige Aelpler [The Jolly Mountaineer].mp3
/Users/user/Uploads/Disc 2/Various Artists - Alpine Dreaming - The Helvetia Records Story, 1920-1924 (2018) [FLAC (level 8)]/07 Der Lustige Aelpler [The Jolly Mountaineer].flac
Pre-gap length : 00:01:56

Track gain : -3.57 dB
Peak : 0.891022
CRC32 hash (test run) : CBD22437
CRC32 hash : CBD22437
CRC32 hash (skip zero) : 8A38E2BA
AccurateRip v1 signature : 384EC81F
AccurateRip v2 signature : 2CB121D6
->Track not present in AccurateRip database.
Statistics
Read error : 0
Jitter error (maybe fixed) : 0
Retry sector count : 0
Damaged sector count : 0

Track 08
Filename : /Users/user/Uploads/Disc 2/Various Artists - Alpine Dreaming - The Helvetia Records Story, 1920-1924 (2018) [LAME MP3 (VBR-new quality 0.0)]/08 Vo Luzern Uf Weggis Zue [From Luzern To Weggis].mp3
/Users/user/Uploads/Disc 2/Various Artists - Alpine Dreaming - The Helvetia Records Story, 1920-1924 (2018) [LAME MP3 (VBR-new quality 2.0)]/08 Vo Luzern Uf Weggis Zue [From Luzern To Weggis].mp3
/Users/user/Uploads/Disc 2/Various Artists - Alpine Dreaming - The Helvetia Records Story, 1920-1924 (2018) [LAME MP3 (CBR 320kbps)]/08 Vo Luzern Uf Weggis Zue [From Luzern To Weggis].mp3
/Users/user/Uploads/Disc 2/Various Artists - Alpine Dreaming - The Helvetia Records Story, 1920-1924 (2018) [FLAC (level 8)]/08 Vo Luzern Uf Weggis Zue [From Luzern To Weggis].flac
Pre-gap length : 00:01:56

Track gain : -2.33 dB
Peak : 0.993652
CRC32 hash (test run) : E37C9593
CRC32 hash : E37C9593
CRC32 hash (skip zero) : 089572FF
AccurateRip v1 signature : 64A124EE
AccurateRip v2 signature : DFA8CB3F
->Track not present in AccurateRip database.
Statistics
Read error : 0
Jitter error (maybe fixed) : 0
Retry sector count : 0
Damaged sector count : 0

Track 09
Filename : /Users/user/Uploads/Disc 2/Various Artists - Alpine Dreaming - The Helvetia Records Story, 1920-1924 (2018) [LAME MP3 (VBR-new quality 0.0)]/09 Niene Gehts So Schön Und Lustig [Things Have Never Been So Merry].mp3
/Users/user/Uploads/Disc 2/Various Artists - Alpine Dreaming - The Helvetia Records Story, 1920-1924 (2018) [LAME MP3 (VBR-new quality 2.0)]/09 Niene Gehts So Schön Und Lustig [Things Have Never Been So Merry].mp3
/Users/user/Uploads/Disc 2/Various Artists - Alpine Dreaming - The Helvetia Records Story, 1920-1924 (2018) [LAME MP3 (CBR 320kbps)]/09 Niene Gehts So Schön Und Lustig [Things Have Never Been So Merry].mp3
/Users/user/Uploads/Disc 2/Various Artists - Alpine Dreaming - The Helvetia Records Story, 1920-1924 (2018) [FLAC (level 8)]/09 Niene Gehts So Schön Und Lustig [Things Have Never Been So Merry].flac
Pre-gap length : 00:01:56

Track gain : -2.54 dB
Peak : 0.981659
CRC32 hash (test run) : 261E4E8B
CRC32 hash : 261E4E8B
CRC32 hash (skip zero) : 2B7ECF1B
AccurateRip v1 signature : D150F961
AccurateRip v2 signature : B14966D6
->Track not present in AccurateRip database.
Statistics
Read error : 0
Jitter error (maybe fixed) : 0
Retry sector count : 0
Damaged sector count : 0

Track 10
Filename : /Users/user/Uploads/Disc 2/Various Artists - Alpine Dreaming - The Helvetia Records Story, 1920-1924 (2018) [LAME MP3 (VBR-new quality 0.0)]/10 Im Frühjahr [In The Spring].mp3
/Users/user/Uploads/Disc 2/Various Artists - Alpine Dreaming - The Helvetia Records Story, 1920-1924 (2018) [LAME MP3 (VBR-new quality 2.0)]/10 Im Frühjahr [In The Spring].mp3
/Users/user/Uploads/Disc 2/Various Artists - Alpine Dreaming - The Helvetia Records Story, 1920-1924 (2018) [LAME MP3 (CBR 320kbps)]/10 Im Frühjahr [In The Spring].mp3
/Users/user/Uploads/Disc 2/Various Artists - Alpine Dreaming - The Helvetia Records Story, 1920-1924 (2018) [FLAC (level 8)]/10 Im Frühjahr [In The Spring].flac
Pre-gap length : 00:01:56

Track gain : -2.76 dB
Peak : 0.874878
CRC32 hash (test run) : E340B28B
CRC32 hash : E340B28B
CRC32 hash (skip zero) : CE48C2D0
AccurateRip v1 signature : 1F5C0661
AccurateRip v2 signature : 7C075AC3
->Track not present in AccurateRip database.
Statistics
Read error : 0
Jitter error (maybe fixed) : 0
Retry sector count : 0
Damaged sector count : 0

Track 11
Filename : /Users/user/Uploads/Disc 2/Various Artists - Alpine Dreaming - The Helvetia Records Story, 1920-1924 (2018) [LAME MP3 (VBR-new quality 0.0)]/11 Swiss Yodel Song.mp3
/Users/user/Uploads/Disc 2/Various Artists - Alpine Dreaming - The Helvetia Records Story, 1920-1924 (2018) [LAME MP3 (VBR-new quality 2.0)]/11 Swiss Yodel Song.mp3
/Users/user/Uploads/Disc 2/Various Artists - Alpine Dreaming - The Helvetia Records Story, 1920-1924 (2018) [LAME MP3 (CBR 320kbps)]/11 Swiss Yodel Song.mp3
/Users/user/Uploads/Disc 2/Various Artists - Alpine Dreaming - The Helvetia Records Story, 1920-1924 (2018) [FLAC (level 8)]/11 Swiss Yodel Song.flac
Pre-gap length : 00:01:56

Track gain : -2.36 dB
Peak : 0.927338
CRC32 hash (test run) : DB15AB3C
CRC32 hash : DB15AB3C
CRC32 hash (skip zero) : 48AF3409
AccurateRip v1 signature : F67E2837
AccurateRip v2 signature : 3C98E190
->Track not present in AccurateRip database.
Statistics
Read error : 0
Jitter error (maybe fixed) : 0
Retry sector count : 0
Damaged sector count : 0

Track 12
Filename : /Users/user/Uploads/Disc 2/Various Artists - Alpine Dreaming - The Helvetia Records Story, 1920-1924 (2018) [LAME MP3 (VBR-new quality 0.0)]/12 Wo Steht Denn Das Geschrieben (Where Is That Written].mp3
/Users/user/Uploads/Disc 2/Various Artists - Alpine Dreaming - The Helvetia Records Story, 1920-1924 (2018) [LAME MP3 (VBR-new quality 2.0)]/12 Wo Steht Denn Das Geschrieben (Where Is That Written].mp3
/Users/user/Uploads/Disc 2/Various Artists - Alpine Dreaming - The Helvetia Records Story, 1920-1924 (2018) [LAME MP3 (CBR 320kbps)]/12 Wo Steht Denn Das Geschrieben (Where Is That Written].mp3
/Users/user/Uploads/Disc 2/Various Artists - Alpine Dreaming - The Helvetia Records Story, 1920-1924 (2018) [FLAC (level 8)]/12 Wo Steht Denn Das Geschrieben (Where Is That Written].flac
Pre-gap length : 00:01:56

Track gain : -3.21 dB
Peak : 0.869934
CRC32 hash (test run) : 05A87893
CRC32 hash : 05A87893
CRC32 hash (skip zero) : 4ADA0D79
AccurateRip v1 signature : 445AA8A1
AccurateRip v2 signature : 3F856D89
->Track not present in AccurateRip database.
Statistics
Read error : 0
Jitter error (maybe fixed) : 0
Retry sector count : 0
Damaged sector count : 0

Track 13
Filename : /Users/user/Uploads/Disc 2/Various Artists - Alpine Dreaming - The Helvetia Records Story, 1920-1924 (2018) [LAME MP3 (VBR-new quality 0.0)]/13 Hüttel Am Rhein [Hut On The Rhine].mp3
/Users/user/Uploads/Disc 2/Various Artists - Alpine Dreaming - The Helvetia Records Story, 1920-1924 (2018) [LAME MP3 (VBR-new quality 2.0)]/13 Hüttel Am Rhein [Hut On The Rhine].mp3
/Users/user/Uploads/Disc 2/Various Artists - Alpine Dreaming - The Helvetia Records Story, 1920-1924 (2018) [LAME MP3 (CBR 320kbps)]/13 Hüttel Am Rhein [Hut On The Rhine].mp3
/Users/user/Uploads/Disc 2/Various Artists - Alpine Dreaming - The Helvetia Records Story, 1920-1924 (2018) [FLAC (level 8)]/13 Hüttel Am Rhein [Hut On The Rhine].flac
Pre-gap length : 00:01:56

Track gain : -2.54 dB
Peak : 0.924225
CRC32 hash (test run) : BAE2927A
CRC32 hash : BAE2927A
CRC32 hash (skip zero) : 831294E7
AccurateRip v1 signature : CE7643A8
AccurateRip v2 signature : 0D6DC3C6
->Track not present in AccurateRip database.
Statistics
Read error : 0
Jitter error (maybe fixed) : 0
Retry sector count : 0
Damaged sector count : 0

Track 14
Filename : /Users/user/Uploads/Disc 2/Various Artists - Alpine Dreaming - The Helvetia Records Story, 1920-1924 (2018) [LAME MP3 (VBR-new quality 0.0)]/14 Stille Liebe [Silent Love].mp3
/Users/user/Uploads/Disc 2/Various Artists - Alpine Dreaming - The Helvetia Records Story, 1920-1924 (2018) [LAME MP3 (VBR-new quality 2.0)]/14 Stille Liebe [Silent Love].mp3
/Users/user/Uploads/Disc 2/Various Artists - Alpine Dreaming - The Helvetia Records Story, 1920-1924 (2018) [LAME MP3 (CBR 320kbps)]/14 Stille Liebe [Silent Love].mp3
/Users/user/Uploads/Disc 2/Various Artists - Alpine Dreaming - The Helvetia Records Story, 1920-1924 (2018) [FLAC (level 8)]/14 Stille Liebe [Silent Love].flac
Pre-gap length : 00:01:56

Track gain : -3.35 dB
Peak : 0.856415
CRC32 hash (test run) : D79F51AA
CRC32 hash : D79F51AA
CRC32 hash (skip zero) : EC5CAA24
AccurateRip v1 signature : D7B25E70
AccurateRip v2 signature : 7627D05A
->Track not present in AccurateRip database.
Statistics
Read error : 0
Jitter error (maybe fixed) : 0
Retry sector count : 0
Damaged sector count : 0

Track 15
Filename : /Users/user/Uploads/Disc 2/Various Artists - Alpine Dreaming - The Helvetia Records Story, 1920-1924 (2018) [LAME MP3 (VBR-new quality 0.0)]/15 Lueget Vo Berg Und Tal [Lueget From Mountain And Valley].mp3
/Users/user/Uploads/Disc 2/Various Artists - Alpine Dreaming - The Helvetia Records Story, 1920-1924 (2018) [LAME MP3 (VBR-new quality 2.0)]/15 Lueget Vo Berg Und Tal [Lueget From Mountain And Valley].mp3
/Users/user/Uploads/Disc 2/Various Artists - Alpine Dreaming - The Helvetia Records Story, 1920-1924 (2018) [LAME MP3 (CBR 320kbps)]/15 Lueget Vo Berg Und Tal [Lueget From Mountain And Valley].mp3
/Users/user/Uploads/Disc 2/Various Artists - Alpine Dreaming - The Helvetia Records Story, 1920-1924 (2018) [FLAC (level 8)]/15 Lueget Vo Berg Und Tal [Lueget From Mountain And Valley].flac
Pre-gap length : 00:01:56

Track gain : -2.72 dB
Peak : 0.944977
CRC32 hash (test run) : B54F5FDF
CRC32 hash : B54F5FDF
CRC32 hash (skip zero) : 536B0729
AccurateRip v1 signature : CA00CE19
AccurateRip v2 signature : 0D9C0BBA
->Track not present in AccurateRip database.
Statistics
Read error : 0
Jitter error (maybe fixed) : 0
Retry sector count : 0
Damaged sector count : 0

Track 16
Filename : /Users/user/Uploads/Disc 2/Various Artists - Alpine Dreaming - The Helvetia Records Story, 1920-1924 (2018) [LAME MP3 (VBR-new quality 0.0)]/16 O'Schweizerland [O Switzerland].mp3
/Users/user/Uploads/Disc 2/Various Artists - Alpine Dreaming - The Helvetia Records Story, 1920-1924 (2018) [LAME MP3 (VBR-new quality 2.0)]/16 O'Schweizerland [O Switzerland].mp3
/Users/user/Uploads/Disc 2/Various Artists - Alpine Dreaming - The Helvetia Records Story, 1920-1924 (2018) [LAME MP3 (CBR 320kbps)]/16 O'Schweizerland [O Switzerland].mp3
/Users/user/Uploads/Disc 2/Various Artists - Alpine Dreaming - The Helvetia Records Story, 1920-1924 (2018) [FLAC (level 8)]/16 O'Schweizerland [O Switzerland].flac
Pre-gap length : 00:01:56

Track gain : -2.72 dB
Peak : 0.981415
CRC32 hash (test run) : D601E40B
CRC32 hash : D601E40B
CRC32 hash (skip zero) : B5261961
AccurateRip v1 signature : 5BCEA443
AccurateRip v2 signature : 5389784B
->Track not present in AccurateRip database.
Statistics
Read error : 0
Jitter error (maybe fixed) : 0
Retry sector count : 0
Damaged sector count : 0

Track 17
Filename : /Users/user/Uploads/Disc 2/Various Artists - Alpine Dreaming - The Helvetia Records Story, 1920-1924 (2018) [LAME MP3 (VBR-new quality 0.0)]/17 The Boy From The Forest.mp3
/Users/user/Uploads/Disc 2/Various Artists - Alpine Dreaming - The Helvetia Records Story, 1920-1924 (2018) [LAME MP3 (VBR-new quality 2.0)]/17 The Boy From The Forest.mp3
/Users/user/Uploads/Disc 2/Various Artists - Alpine Dreaming - The Helvetia Records Story, 1920-1924 (2018) [LAME MP3 (CBR 320kbps)]/17 The Boy From The Forest.mp3
/Users/user/Uploads/Disc 2/Various Artists - Alpine Dreaming - The Helvetia Records Story, 1920-1924 (2018) [FLAC (level 8)]/17 The Boy From The Forest.flac
Pre-gap length : 00:01:56

Track gain : -2.61 dB
Peak : 0.992249
CRC32 hash (test run) : 1AD25933
CRC32 hash : 1AD25933
CRC32 hash (skip zero) : EA6DA1FB
AccurateRip v1 signature : B48B2582
AccurateRip v2 signature : C448B674
->Track not present in AccurateRip database.
Statistics
Read error : 0
Jitter error (maybe fixed) : 0
Retry sector count : 0
Damaged sector count : 0

Track 18
Filename : /Users/user/Uploads/Disc 2/Various Artists - Alpine Dreaming - The Helvetia Records Story, 1920-1924 (2018) [LAME MP3 (VBR-new quality 0.0)]/18 Nearer, My God, To Thee.mp3
/Users/user/Uploads/Disc 2/Various Artists - Alpine Dreaming - The Helvetia Records Story, 1920-1924 (2018) [LAME MP3 (VBR-new quality 2.0)]/18 Nearer, My God, To Thee.mp3
/Users/user/Uploads/Disc 2/Various Artists - Alpine Dreaming - The Helvetia Records Story, 1920-1924 (2018) [LAME MP3 (CBR 320kbps)]/18 Nearer, My God, To Thee.mp3
/Users/user/Uploads/Disc 2/Various Artists - Alpine Dreaming - The Helvetia Records Story, 1920-1924 (2018) [FLAC (level 8)]/18 Nearer, My God, To Thee.flac
Pre-gap length : 00:01:56

Track gain : -3.52 dB
Peak : 0.837341
CRC32 hash (test run) : BACB4792
CRC32 hash : BACB4792
CRC32 hash (skip zero) : 999EF697
AccurateRip v1 signature : 97074AC6
AccurateRip v2 signature : 4D944815
->Track not present in AccurateRip database.
Statistics
Read error : 0
Jitter error (maybe fixed) : 0
Retry sector count : 0
Damaged sector count : 0

No errors occurred

End of status report

––-BEGIN XLD SIGNATURE––-
WdHBhi9Jzjc81CQYzFhKIt5vgGqJ7RWendiUpUQLZoO5icL7Eh9MginJl.hZROELTEqpM3K2HNgE_puRgYaKKoV8XFm4iba0uJQvG04
––-END XLD SIGNATURE––-

Thanks to the Original ripper !