Subcategories

Various Artists - The Best Of Indian Classical Music Ever - Hindustani Classical Vocal From 1902 To 2010 (2011) {14CD Bos Set}

Posted By: ruskaval
Various Artists - The Best Of Indian Classical Music Ever - Hindustani Classical Vocal From 1902 To 2010 (2011) {14CD Bos Set}

Various Artists - The Best Of Indian Classical Music Ever - Hindustani Classical Vocal From 1902 To 2010 (2011) {14CD Bos Set Saregama}
EAC rip (secure mode) | FLAC (tracks)+CUE+LOG -> 4.22 Gb
Full Artwork @ 600 dpi (png) -> 241 Mb | 5% repair rar
© 1902-2010, 2011 Saregama India | CDNF 151100 - 113
Indian Music / World Music / Classical / Vocal

One of the best collections of Indian Vocal Music ever. Some rare and hard to find tracks and musicians are included in this very large disc set - 14 discs in total. The inlays within the pack provide song track details as well as the history of each musician. For anyone wishing to gain an insight into the Classical tradition, this is one of the best collections to start with. Saregama is proud to present this premium pact of 14 CDs that is a labor of respect and adulation. Comprising of vocal music spread over 108 years. The next step was to then select the 100 artistes featured herein over 135 tracks, their Gharanas their Gayakis and the Guru Shishya Parampara imbibed by them. This pack gives connoisseurs a glimpse of the creativity of performing artistes their methodologies their thinking patterns and how & why their signature styles also been artistes of repute with a prowess of their own.
Various Artists - The Best Of Indian Classical Music Ever - Hindustani Classical Vocal From 1902 To 2010 (2011) {14CD Bos Set}

Gauhar Jan, Peara Sahab, Ustad Kale Khan, Master Dinanath Mangeshkar, Ustad Rahimat Khan, Phiroz Dastur, Pt. Krishna Rao Pandit , Kesarbai Kerkar, Ustad Amir Khan, Ustad Bade Ghulam Ali Khan, Pt. Bhimsen Joshi, Ustad Nissar Hussain Khan, Pt. Kumar Gandharva, Pt. Jasraj, Ustad Barkat Ali Khan, Kishori Amonkar, Pt. Ajoy Chakravarty, Pt. Jitendra Abhisheki, Ustad Rashid Khan, Kalapini Komkali, Meeta Pandit & Many more.

Saregama is proud to present this premium pact of 14 CDs that is a labor of respect and adulation. Comprising of vocal music spread over 108 years. The next step was to then select the 100 artistes featured herein over 135 tracks, their Gharanas their Gayakis and the Guru Shishya Parampara imbibed by them. This pack gives connoisseurs a glimpse of the creativity of performing artistes their methodologies their thinking patterns and how & why their signature styles also been artistes of repute with a prowess of their own. Thus this pack also highlights the significance of perceptive teamwork.

The pack catalogues various Ragas the recording processes on different formats from 78 rpm recordings to extended play recordings to long play recording to cassettes and then to compact Disc recordings and is thus also a documentation of technology. This set of 14 CDs Shall from remain as a classic reference material not just for artistes ragas or jod ragas or ragas emphasizing the time factor (based on the 8 Prahars), this pack has it all. The various shades of Semi Classical music have also been painted on this historic canvas through renditions of Thumri, Dadra, Kajri, Chaiti, Bhajans, etc. the age old legacy of traditional Gharanas be it the Agra Gharana, Kirana Gharna, Gwalior Gharana, Mewati Gharana, Indore Gharana, Banaras Gharana, Jaipur Gharana, Patiala Gharana and many other this pack emanated as essence of each.

The repertoire in these 14 CDs is rich and yet succinct incorporating the work spread over nearly 11 decades is no easy task. Further selecting parameters for a bifurcation was equally formidable. Thus having studied closely their repertoire we have compressed into 4 CDs the work of artistes spread over five decades (1902-1950). There are 2 CDs each for the 2 decades between 195101960 and 2001-2010. Although we at Saregama have done our best to Showcase the works of as many legendary vocalists as possible there have been some who have not been featured herein purely due to constraints at our end.

Personnel & tracklist:
CD 1

• Gauhar Jan
• Peara Sahab
• Ustad Monjuddin Khan
• Ustad Kale Khan • Achhan Bai
• Malka Jan
• Ustad Abdul Karim Khan
• Janki Bai
• Zohra Bai
• Badi Moti Bai
• Kashi Bai

Various Artists - The Best Of Indian Classical Music Ever - Hindustani Classical Vocal From 1902 To 2010 (2011) {14CD Bos Set}


CD 2
• Master Dinanath Mageshkar
• Sundera Bai
• Ustad Rahimat Khan
• Pt. Ramkrishna Bua Vaze
• Laxmibai Jadhav
• Pt. Haribhau Ghangrekar
• Pt. Vinayakrao Patwardhan
• Pt. Mairashi Bua
• Pt. B.R. Deodhar
• Pt. Narayan Rao Vyas
• Dr. Gangubai Hagal
• Pt. Sawai Gandharva

Various Artists - The Best Of Indian Classical Music Ever - Hindustani Classical Vocal From 1902 To 2010 (2011) {14CD Bos Set}


CD 3
• Padmavati Shaligram
• Suresh Babu Mane
• Phiroz Dastur
• Pt. Omkarnath Thakur
• Pt. Basavraj Rajguru
• Pt. Krishna Rao Pandit
• Ustad Vilayat Hussain
• Pt. S.N. Ratajankar
• Smt. Anjanibai Lokekar

Various Artists - The Best Of Indian Classical Music Ever - Hindustani Classical Vocal From 1902 To 2010 (2011) {14CD Bos Set}


CD 4
• Begum Aktar
• Ustad Bade Ghulam Ali Khan
• Kesarbai Kerkar • Ustad Khadim Hussain
• Sharafat Hussain
• Rasoolan Bai
• Ustad Faiyaz Khan
• Siddeshwari Devi

Various Artists - The Best Of Indian Classical Music Ever - Hindustani Classical Vocal From 1902 To 2010 (2011) {14CD Bos Set}


CD 5
• Kesarbai Kerkar
• Dr. Gangubai Hangal
• Ustad Amir Khan
• Pt. D.V. Paluskar
• Ustad Bade Ghulam Ali Khan
• Pt. Basavraj Rajguru
• Pt. Bimsen Joshi

Various Artists - The Best Of Indian Classical Music Ever - Hindustani Classical Vocal From 1902 To 2010 (2011) {14CD Bos Set}


CD 6
• Manik Varma
• Pt. Mallikarjun Mansur
• Ustad Nissar Hussain Khan
• Hirabai Barodekar & Sarawati Rane
• Pt. Kumar Gandharva
• Pt. D.V. Paluskar

Various Artists - The Best Of Indian Classical Music Ever - Hindustani Classical Vocal From 1902 To 2010 (2011) {14CD Bos Set}


CD 7
• Ustad Nazakat Ali Khan and Ustad Salamat Ali Khan
• Nirmala Devi & Lakshmi Shankar
• Ustad Niyaz Ahmed Khan & Ustad Faiyez Ahmed Khan
• Malavika Kanan
• Pt. Bhimsen Joshi
• Pt. D.V. Paluskar

Various Artists - The Best Of Indian Classical Music Ever - Hindustani Classical Vocal From 1902 To 2010 (2011) {14CD Bos Set}


CD 8
• Pt. Jasraj
• Begum Parween Sultana
• Dr. Prabha Atre
• Ustad Barkat Ali Khan
• Pt. Jasraj with Pt. Maniramji & Pt. Pratap Narayanji
• Lakshmi Shankar
• Ustad Ghulam Mustafa Khan
• Pt. Kumar Gandharva & Vasundhara Komkali

Various Artists - The Best Of Indian Classical Music Ever - Hindustani Classical Vocal From 1902 To 2010 (2011) {14CD Bos Set}


CD 9
• Kishori Amonkar
Pt. Bhimsen Joshi
• Pt. Kumar Gandharva
• Shobha Gurut
• Sandhya Mukherjee
• Hiradevi Mishra
• Girija Devi

Various Artists - The Best Of Indian Classical Music Ever - Hindustani Classical Vocal From 1902 To 2010 (2011) {14CD Bos Set}


CD 10
• Pt. C.R. Vyas
• Dr. Ashwini Bhide
• Malini Rajurkar
• Pt. Jagdish Prasad

Various Artists - The Best Of Indian Classical Music Ever - Hindustani Classical Vocal From 1902 To 2010 (2011) {14CD Bos Set}


CD 11
• Pt. Jitendra Abhisheki
• Kankana Banerjee
• Pt. Rajan Sajan Mishra
• Pt. Ajay Pohankar
• Pt. Ajoy Chakravarty

Various Artists - The Best Of Indian Classical Music Ever - Hindustani Classical Vocal From 1902 To 2010 (2011) {14CD Bos Set}


CD 12
• Pt. Umakant Gundecha & Pt. Ramakant Gundecha
• Shruti Sodalikar
• Pt. Vidhyadhar Vyas
• Pt. Babanrao Haldankar
• Pt. Yashwant Bua Joshi
• Girija Devi & Shobha Gurut
• Krishna Hangal

Various Artists - The Best Of Indian Classical Music Ever - Hindustani Classical Vocal From 1902 To 2010 (2011) {14CD Bos Set}


CD 13
• Pt. Sanjeev Abhyankar
• Arti Ankalikar
• Pt. Ulhas Kashalkar
• Pt. Shivanand Patil
• Ustad Rashid Khan

Various Artists - The Best Of Indian Classical Music Ever - Hindustani Classical Vocal From 1902 To 2010 (2011) {14CD Bos Set}


CD 14
• Pt. Madhup Mudgal
• Kalapini Komkali
• Parthsarathy Desikan
• Meeta Pandit
• Sandipan Samajapti
• Rahul Deshpande
• Shrinivas Joshi
• Pt. Bhimsen Joshi

Various Artists - The Best Of Indian Classical Music Ever - Hindustani Classical Vocal From 1902 To 2010 (2011) {14CD Bos Set}


Exact Audio Copy V1.0 beta 1 from 15. November 2010

EAC extraction logfile from 8. March 2011, 13:18

Various / The Best Of Indian Classical Music Ever 01

Used drive : PLEXTOR DVDR PX-608CU Adapter: 6 ID: 0

Read mode : Secure
Utilize accurate stream : Yes
Defeat audio cache : Yes
Make use of C2 pointers : No

Read offset correction : 48
Overread into Lead-In and Lead-Out : No
Fill up missing offset samples with silence : Yes
Delete leading and trailing silent blocks : No
Null samples used in CRC calculations : Yes
Used interface : Installed external ASPI interface
Gap handling : Appended to previous track

Used output format : User Defined Encoder
Selected bitrate : 1024 kBit/s
Quality : High
Add ID3 tag : No
Command line compressor : C:\Program Files (x86)\Exact Audio Copy\Flac\flac.exe
Additional command line options : -8 -V -T "ARTIST=%a" -T "TITLE=%t" -T "ALBUM=%g" -T "DATE=%y" -T "TRACKNUMBER=%n" -T "TOTALTRACKS=%x" -T "GENRE=%m" -T "ALBUMARTIST=%v" -T "ALBUM ARTIST=%v" -T "COMMENT=EAC, FLAC -8" %s


TOC of the extracted CD

Track | Start | Length | Start sector | End sector
––––––––––––––––––––––––––––-
1 | 0:00.00 | 2:24.29 | 0 | 10828
2 | 2:24.29 | 2:14.45 | 10829 | 20923
3 | 4:38.74 | 2:24.15 | 20924 | 31738
4 | 7:03.14 | 2:33.36 | 31739 | 43249
5 | 9:36.50 | 2:37.38 | 43250 | 55062
6 | 12:14.13 | 2:34.31 | 55063 | 66643
7 | 14:48.44 | 2:50.02 | 66644 | 79395
8 | 17:38.46 | 3:07.42 | 79396 | 93462
9 | 20:46.13 | 3:14.08 | 93463 | 108020
10 | 24:00.21 | 3:08.35 | 108021 | 122155
11 | 27:08.56 | 3:06.01 | 122156 | 136106
12 | 30:14.57 | 2:50.57 | 136107 | 148913
13 | 33:05.39 | 2:52.35 | 148914 | 161848
14 | 35:57.74 | 1:38.71 | 161849 | 169269
15 | 37:36.70 | 2:43.73 | 169270 | 181567
16 | 40:20.68 | 2:22.17 | 181568 | 192234
17 | 42:43.10 | 3:06.28 | 192235 | 206212
18 | 45:49.38 | 2:53.66 | 206213 | 219253
19 | 48:43.29 | 3:11.68 | 219254 | 233646
20 | 51:55.22 | 3:32.52 | 233647 | 249598
21 | 55:27.74 | 3:23.11 | 249599 | 264834
22 | 58:51.10 | 3:22.24 | 264835 | 280008


Track 1

Filename C:\VA - The Best of Indian Classical Music Ever (2011) [FLAC]\CD01\01 - Gauhar Jan - Raga Jogia.wav

Pre-gap length 0:00:02.00

Peak level 94.4 %
Extraction speed 2.5 X
Track quality 100.0 %
Test CRC 5A823AF5
Copy CRC 5A823AF5
Track not present in AccurateRip database
Copy OK

Track 2

Filename C:\VA - The Best of Indian Classical Music Ever (2011) [FLAC]\CD01\02 - Gauhar Jan - Raga Jaunpuri.wav

Peak level 90.7 %
Extraction speed 2.6 X
Track quality 100.0 %
Test CRC 8E326EAD
Copy CRC 8E326EAD
Track not present in AccurateRip database
Copy OK

Track 3

Filename C:\VA - The Best of Indian Classical Music Ever (2011) [FLAC]\CD01\03 - Peara Sahab - Raga Asawari.wav

Peak level 90.9 %
Extraction speed 2.8 X
Track quality 100.0 %
Test CRC BB26B252
Copy CRC BB26B252
Track not present in AccurateRip database
Copy OK

Track 4

Filename C:\VA - The Best of Indian Classical Music Ever (2011) [FLAC]\CD01\04 - Peara Sahab - Raga Mand.wav

Peak level 97.8 %
Extraction speed 3.1 X
Track quality 100.0 %
Test CRC 2ACEC677
Copy CRC 2ACEC677
Track not present in AccurateRip database
Copy OK

Track 5

Filename C:\VA - The Best of Indian Classical Music Ever (2011) [FLAC]\CD01\05 - Monjuddin Khan - Raga Multani.wav

Peak level 94.4 %
Extraction speed 3.2 X
Track quality 100.0 %
Test CRC DC26386B
Copy CRC DC26386B
Track not present in AccurateRip database
Copy OK

Track 6

Filename C:\VA - The Best of Indian Classical Music Ever (2011) [FLAC]\CD01\06 - Monjuddin Khan - Raga Bhairavi.wav

Peak level 99.7 %
Extraction speed 2.8 X
Track quality 99.9 %
Test CRC 8EDE0F58
Copy CRC 8EDE0F58
Track not present in AccurateRip database
Copy OK

Track 7

Filename C:\VA - The Best of Indian Classical Music Ever (2011) [FLAC]\CD01\07 - Kale Khan - Raga Mand.wav

Peak level 97.0 %
Extraction speed 3.0 X
Track quality 99.9 %
Test CRC E9372617
Copy CRC E9372617
Track not present in AccurateRip database
Copy OK

Track 8

Filename C:\VA - The Best of Indian Classical Music Ever (2011) [FLAC]\CD01\08 - Mohammed Bandi - Raga Sindh Kafi.wav

Peak level 94.4 %
Extraction speed 3.8 X
Track quality 100.0 %
Test CRC 57CD8EB6
Copy CRC 57CD8EB6
Track not present in AccurateRip database
Copy OK

Track 9

Filename C:\VA - The Best of Indian Classical Music Ever (2011) [FLAC]\CD01\09 - Mohammed Bandi - Raga Thumri Bhairavi.wav

Peak level 95.5 %
Extraction speed 3.9 X
Track quality 100.0 %
Test CRC B62A8C15
Copy CRC B62A8C15
Track not present in AccurateRip database
Copy OK

Track 10

Filename C:\VA - The Best of Indian Classical Music Ever (2011) [FLAC]\CD01\10 - Achhan Bai - Piloo Thumri.wav

Peak level 94.4 %
Extraction speed 4.1 X
Track quality 100.0 %
Test CRC A2E2FB9E
Copy CRC A2E2FB9E
Track not present in AccurateRip database
Copy OK

Track 11

Filename C:\VA - The Best of Indian Classical Music Ever (2011) [FLAC]\CD01\11 - Achhan Bai - Chaiti.wav

Peak level 94.4 %
Extraction speed 4.2 X
Track quality 100.0 %
Test CRC F9C6A009
Copy CRC F9C6A009
Track not present in AccurateRip database
Copy OK

Track 12

Filename C:\VA - The Best of Indian Classical Music Ever (2011) [FLAC]\CD01\12 - Malka Jan - Raga Gandhari.wav

Peak level 94.4 %
Extraction speed 4.2 X
Track quality 100.0 %
Test CRC 460C3108
Copy CRC 460C3108
Track not present in AccurateRip database
Copy OK

Track 13

Filename C:\VA - The Best of Indian Classical Music Ever (2011) [FLAC]\CD01\13 - Malka Jan - Kajri Piloo.wav

Peak level 88.1 %
Extraction speed 4.3 X
Track quality 100.0 %
Test CRC 43745678
Copy CRC 43745678
Track not present in AccurateRip database
Copy OK

Track 14

Filename C:\VA - The Best of Indian Classical Music Ever (2011) [FLAC]\CD01\14 - Abdul Karim Khan - Raga Jogia Jhaptaal.wav

Peak level 99.1 %
Extraction speed 3.0 X
Track quality 99.8 %
Test CRC 65790C97
Copy CRC 65790C97
Track not present in AccurateRip database
Copy OK

Track 15

Filename C:\VA - The Best of Indian Classical Music Ever (2011) [FLAC]\CD01\15 - Abdul Karim Khan - Raga Lalat.wav

Peak level 94.4 %
Extraction speed 4.4 X
Track quality 100.0 %
Test CRC 2FEA4EB7
Copy CRC 2FEA4EB7
Track not present in AccurateRip database
Copy OK

Track 16

Filename C:\VA - The Best of Indian Classical Music Ever (2011) [FLAC]\CD01\16 - Abdul Karim Khan - Raga Hindol.wav

Peak level 98.8 %
Extraction speed 4.4 X
Track quality 100.0 %
Test CRC 7857FABD
Copy CRC 7857FABD
Track not present in AccurateRip database
Copy OK

Track 17

Filename C:\VA - The Best of Indian Classical Music Ever (2011) [FLAC]\CD01\17 - Janki Bai - Kajri (Tu Hi Bata Do Jag Mein Jawani).wav

Peak level 96.3 %
Extraction speed 4.7 X
Track quality 100.0 %
Test CRC E63AC184
Copy CRC E63AC184
Track not present in AccurateRip database
Copy OK

Track 18

Filename C:\VA - The Best of Indian Classical Music Ever (2011) [FLAC]\CD01\18 - Janki Bai - Chaiti (Saiyyan Mora Pakde Dagariya).wav

Peak level 99.6 %
Extraction speed 4.8 X
Track quality 100.0 %
Test CRC 2ADF336F
Copy CRC 2ADF336F
Track not present in AccurateRip database
Copy OK

Track 19

Filename C:\VA - The Best of Indian Classical Music Ever (2011) [FLAC]\CD01\19 - Zohra Bai - Raga Puria Dhannasshri (Chalori Mai Auliya Darbar).wav

Peak level 86.9 %
Extraction speed 4.2 X
Track quality 99.9 %
Test CRC 96CF652A
Copy CRC 96CF652A
Track not present in AccurateRip database
Copy OK

Track 20

Filename C:\VA - The Best of Indian Classical Music Ever (2011) [FLAC]\CD01\20 - Zohra Bai - Raga Jhinjoti (Balam Naina Tore Rasile).wav

Peak level 83.7 %
Extraction speed 5.2 X
Track quality 100.0 %
Test CRC F5995B62
Copy CRC F5995B62
Track not present in AccurateRip database
Copy OK

Track 21

Filename C:\VA - The Best of Indian Classical Music Ever (2011) [FLAC]\CD01\21 - Badi Moti Bai - Poorvi (Kaanha Bikh Bhari Bansia).wav

Peak level 99.7 %
Extraction speed 5.2 X
Track quality 100.0 %
Test CRC 6246DC89
Copy CRC 6246DC89
Track not present in AccurateRip database
Copy OK

Track 22

Filename C:\VA - The Best of Indian Classical Music Ever (2011) [FLAC]\CD01\22 - Kashi Bai - Dadra (Teri Kateeli Nigaahon Ne Maaraa).wav

Peak level 95.0 %
Extraction speed 5.3 X
Track quality 100.0 %
Test CRC 6285E940
Copy CRC 6285E940
Track not present in AccurateRip database
Copy OK


None of the tracks are present in the AccurateRip database

No errors occurred

End of status report

==== Log checksum B61FE8E6BBFC2502BC32979E755B7AF68316A64297AF620815FC80F21233028E ====

Exact Audio Copy V1.0 beta 1 from 15. November 2010

EAC extraction logfile from 8. March 2011, 15:51

Various / The Best Of Indian Classical Music Ever 02

Used drive : HL-DT-STDVDRAM GH22NS50 Adapter: 5 ID: 0

Read mode : Secure
Utilize accurate stream : Yes
Defeat audio cache : Yes
Make use of C2 pointers : No

Read offset correction : 667
Overread into Lead-In and Lead-Out : No
Fill up missing offset samples with silence : Yes
Delete leading and trailing silent blocks : No
Null samples used in CRC calculations : Yes
Used interface : Installed external ASPI interface
Gap handling : Appended to previous track

Used output format : User Defined Encoder
Selected bitrate : 1024 kBit/s
Quality : High
Add ID3 tag : No
Command line compressor : C:\Program Files (x86)\Exact Audio Copy\Flac\flac.exe
Additional command line options : -8 -V -T "ARTIST=%a" -T "TITLE=%t" -T "ALBUM=%g" -T "DATE=%y" -T "TRACKNUMBER=%n" -T "TOTALTRACKS=%x" -T "GENRE=%m" -T "ALBUMARTIST=%v" -T "ALBUM ARTIST=%v" -T "COMMENT=EAC, FLAC -8" %s


TOC of the extracted CD

Track | Start | Length | Start sector | End sector
––––––––––––––––––––––––––––-
1 | 0:00.00 | 2:59.45 | 0 | 13469
2 | 2:59.45 | 3:19.10 | 13470 | 28404
3 | 6:18.55 | 3:16.59 | 28405 | 43163
4 | 9:35.39 | 3:00.68 | 43164 | 56731
5 | 12:36.32 | 3:14.54 | 56732 | 71335
6 | 15:51.11 | 3:07.58 | 71336 | 85418
7 | 18:58.69 | 3:02.14 | 85419 | 99082
8 | 22:01.08 | 3:14.69 | 99083 | 113701
9 | 25:16.02 | 3:11.24 | 113702 | 128050
10 | 28:27.26 | 3:21.49 | 128051 | 143174
11 | 31:49.00 | 3:29.74 | 143175 | 158923
12 | 35:18.74 | 3:03.45 | 158924 | 172693
13 | 38:22.44 | 3:08.38 | 172694 | 186831
14 | 41:31.07 | 3:30.22 | 186832 | 202603
15 | 45:01.29 | 4:35.60 | 202604 | 223288
16 | 49:37.14 | 3:13.70 | 223289 | 237833
17 | 52:51.09 | 3:46.29 | 237834 | 254812
18 | 56:37.38 | 3:25.05 | 254813 | 270192
19 | 60:02.43 | 3:27.46 | 270193 | 285763
20 | 63:30.14 | 4:15.26 | 285764 | 304914


Track 1

Filename C:\VA - The Best of Indian Classical Music Ever (2011) [FLAC]\CD02\01 - Dinanath Mangeshkar - Raga Darbari (Nain So Nain Mila Rakhoongi).wav

Pre-gap length 0:00:02.00

Peak level 99.5 %
Extraction speed 1.0 X
Track quality 100.0 %
Test CRC A10464C4
Copy CRC A10464C4
Track not present in AccurateRip database
Copy OK

Track 2

Filename C:\VA - The Best of Indian Classical Music Ever (2011) [FLAC]\CD02\02 - Dinanath Mangeshkar - Raga Basant (Ab Rut Bhar Aayi).wav

Peak level 93.4 %
Extraction speed 1.1 X
Track quality 100.0 %
Test CRC 7D273CCB
Copy CRC 7D273CCB
Track not present in AccurateRip database
Copy OK

Track 3

Filename C:\VA - The Best of Indian Classical Music Ever (2011) [FLAC]\CD02\03 - Sundera Bai - Raga Kalingada (Jo Baat Hai Jata).wav

Peak level 94.4 %
Extraction speed 1.2 X
Track quality 100.0 %
Test CRC B08D66CB
Copy CRC B08D66CB
Track not present in AccurateRip database
Copy OK

Track 4

Filename C:\VA - The Best of Indian Classical Music Ever (2011) [FLAC]\CD02\04 - Sundera Bai - Raga Tilang (Kahe Ko Neha).wav

Peak level 94.4 %
Extraction speed 1.2 X
Track quality 100.0 %
Test CRC 308B6CA6
Copy CRC 308B6CA6
Track not present in AccurateRip database
Copy OK

Track 5

Filename C:\VA - The Best of Indian Classical Music Ever (2011) [FLAC]\CD02\05 - Rahimat Khan - Raga Malkauns (Peer Na Jaani).wav

Peak level 94.4 %
Extraction speed 1.4 X
Track quality 100.0 %
Test CRC 72EF6C39
Copy CRC 72EF6C39
Track not present in AccurateRip database
Copy OK

Track 6

Filename C:\VA - The Best of Indian Classical Music Ever (2011) [FLAC]\CD02\06 - Ramkrishna Bua Vaze - Raga Miyan Malhar (Bol Re Papiyara).wav

Peak level 94.6 %
Extraction speed 1.4 X
Track quality 100.0 %
Test CRC 7A622A2D
Copy CRC 7A622A2D
Track not present in AccurateRip database
Copy OK

Track 7

Filename C:\VA - The Best of Indian Classical Music Ever (2011) [FLAC]\CD02\07 - Ramkrishna Bua Vaze - Raga Nat Bihag (Damaru Dam Dam Baje).wav

Peak level 96.4 %
Extraction speed 1.4 X
Track quality 100.0 %
Test CRC 78EAFFE3
Copy CRC 78EAFFE3
Track not present in AccurateRip database
Copy OK

Track 8

Filename C:\VA - The Best of Indian Classical Music Ever (2011) [FLAC]\CD02\08 - Laxmibai Jadhav - Raga Yaman (Yeri Ek Nazar).wav

Peak level 94.4 %
Extraction speed 1.3 X
Track quality 99.9 %
Test CRC 3B1BAAC6
Copy CRC 3B1BAAC6
Track not present in AccurateRip database
Copy OK

Track 9

Filename C:\VA - The Best of Indian Classical Music Ever (2011) [FLAC]\CD02\09 - Laxmibai Jadhav - Raga Kafi (Girdhar Jhulat Radhe Sang).wav

Peak level 94.4 %
Extraction speed 1.6 X
Track quality 100.0 %
Test CRC 249A8606
Copy CRC 249A8606
Track not present in AccurateRip database
Copy OK

Track 10

Filename C:\VA - The Best of Indian Classical Music Ever (2011) [FLAC]\CD02\10 - Haribhau Ghangrekar - Raga Shudda Kalyan (Tuhi Aad Tuhi Naad).wav

Peak level 96.0 %
Extraction speed 1.7 X
Track quality 100.0 %
Test CRC 07009170
Copy CRC 07009170
Track not present in AccurateRip database
Copy OK

Track 11

Filename C:\VA - The Best of Indian Classical Music Ever (2011) [FLAC]\CD02\11 - Vinayakrao Patwardhan - Raga Misra Kafi (Madhu Bansari Pyari).wav

Peak level 99.8 %
Extraction speed 1.8 X
Track quality 100.0 %
Test CRC 71CE6EA1
Copy CRC 71CE6EA1
Track not present in AccurateRip database
Copy OK

Track 12

Filename C:\VA - The Best of Indian Classical Music Ever (2011) [FLAC]\CD02\12 - Mairashi Bua - Raga Bahar (Nai Rut Nai Phuli).wav

Peak level 94.4 %
Extraction speed 1.5 X
Track quality 99.9 %
Test CRC C90BFE82
Copy CRC C90BFE82
Track not present in AccurateRip database
Copy OK

Track 13

Filename C:\VA - The Best of Indian Classical Music Ever (2011) [FLAC]\CD02\13 - B R Deodhar - Raga Sindhura (Saj Saj Aawat Hai).wav

Peak level 98.9 %
Extraction speed 1.8 X
Track quality 100.0 %
Test CRC F9FAC703
Copy CRC F9FAC703
Track not present in AccurateRip database
Copy OK

Track 14

Filename C:\VA - The Best of Indian Classical Music Ever (2011) [FLAC]\CD02\14 - Narayanrao Vyas - Raga Patdeep (Hori Khelan Jaat Kanhaiya).wav

Peak level 94.4 %
Extraction speed 1.9 X
Track quality 100.0 %
Test CRC 8D17CDA7
Copy CRC 8D17CDA7
Track not present in AccurateRip database
Copy OK

Track 15

Filename C:\VA - The Best of Indian Classical Music Ever (2011) [FLAC]\CD02\15 - Narayanrao Vyas - Bhajan (Radhe Krishna Bol Mukhse).wav

Peak level 94.4 %
Extraction speed 2.0 X
Track quality 100.0 %
Test CRC 8F285841
Copy CRC 8F285841
Track not present in AccurateRip database
Copy OK

Track 16

Filename C:\VA - The Best of Indian Classical Music Ever (2011) [FLAC]\CD02\16 - Gangubai Hangal - Raga Miyan Malhar (Kaahe Ladli Ladladai).wav

Peak level 98.0 %
Extraction speed 1.7 X
Track quality 99.9 %
Test CRC BB01C7FB
Copy CRC BB01C7FB
Track not present in AccurateRip database
Copy OK

Track 17

Filename C:\VA - The Best of Indian Classical Music Ever (2011) [FLAC]\CD02\17 - Gangubai Hangal - Raga Deshkar (Amila Mat Mashi Boloji).wav

Peak level 99.3 %
Extraction speed 2.1 X
Track quality 100.0 %
Test CRC B19582D2
Copy CRC B19582D2
Track not present in AccurateRip database
Copy OK

Track 18

Filename C:\VA - The Best of Indian Classical Music Ever (2011) [FLAC]\CD02\18 - Sawai Gandharva - Raga Gujari Todi (Samajh Man Gorakh Dhandha).wav

Peak level 89.1 %
Extraction speed 2.1 X
Track quality 100.0 %
Test CRC 8FCA9819
Copy CRC 8FCA9819
Track not present in AccurateRip database
Copy OK

Track 19

Filename C:\VA - The Best of Indian Classical Music Ever (2011) [FLAC]\CD02\19 - Sawai Gandharva - Raga Puriya (Piya Gunwanta).wav

Peak level 94.4 %
Extraction speed 2.2 X
Track quality 100.0 %
Test CRC DA77BEE3
Copy CRC DA77BEE3
Track not present in AccurateRip database
Copy OK

Track 20

Filename C:\VA - The Best of Indian Classical Music Ever (2011) [FLAC]\CD02\20 - Sawai Gandharva - Raga Bahar (Kaliyan Sang).wav

Peak level 94.5 %
Extraction speed 2.4 X
Track quality 100.0 %
Test CRC 47781919
Copy CRC 47781919
Track not present in AccurateRip database
Copy OK


None of the tracks are present in the AccurateRip database

No errors occurred

End of status report

==== Log checksum 6941BF01D6A2C05F5AFBE3BE57B6D044C71468798A3F41DF2B051B805F47CAC0 ====

Exact Audio Copy V1.0 beta 1 from 15. November 2010

EAC extraction logfile from 8. March 2011, 18:55

Various / The Best Of Indian Classical Music Ever 03

Used drive : HL-DT-STDVDRAM GH22NS50 Adapter: 5 ID: 0

Read mode : Secure
Utilize accurate stream : Yes
Defeat audio cache : Yes
Make use of C2 pointers : No

Read offset correction : 667
Overread into Lead-In and Lead-Out : No
Fill up missing offset samples with silence : Yes
Delete leading and trailing silent blocks : No
Null samples used in CRC calculations : Yes
Used interface : Installed external ASPI interface
Gap handling : Appended to previous track

Used output format : User Defined Encoder
Selected bitrate : 1024 kBit/s
Quality : High
Add ID3 tag : No
Command line compressor : C:\Program Files (x86)\Exact Audio Copy\Flac\flac.exe
Additional command line options : -8 -V -T "ARTIST=%a" -T "TITLE=%t" -T "ALBUM=%g" -T "DATE=%y" -T "TRACKNUMBER=%n" -T "TOTALTRACKS=%x" -T "GENRE=%m" -T "ALBUMARTIST=%v" -T "ALBUM ARTIST=%v" -T "COMMENT=EAC, FLAC -8" %s


TOC of the extracted CD

Track | Start | Length | Start sector | End sector
––––––––––––––––––––––––––––-
1 | 0:00.00 | 3:23.13 | 0 | 15237
2 | 3:23.13 | 3:54.45 | 15238 | 32832
3 | 7:17.58 | 3:01.14 | 32833 | 46421
4 | 10:18.72 | 3:06.20 | 46422 | 60391
5 | 13:25.17 | 6:49.26 | 60392 | 91092
6 | 20:14.43 | 4:39.41 | 91093 | 112058
7 | 24:54.09 | 3:18.02 | 112059 | 126910
8 | 28:12.11 | 3:13.66 | 126911 | 141451
9 | 31:26.02 | 3:26.07 | 141452 | 156908
10 | 34:52.09 | 3:21.57 | 156909 | 172040
11 | 38:13.66 | 6:02.04 | 172041 | 199194
12 | 44:15.70 | 6:36.55 | 199195 | 228949
13 | 50:52.50 | 3:09.32 | 228950 | 243156
14 | 54:02.07 | 7:28.09 | 243157 | 276765


Track 1

Filename C:\VA - The Best of Indian Classical Music Ever (2011) [FLAC]\CD03\01 - Padmavati Shaligram - Raga Todi (Langar Kankaria Na Maro).wav

Pre-gap length 0:00:02.00

Peak level 94.4 %
Extraction speed 1.0 X
Track quality 100.0 %
Test CRC F2C8EA99
Copy CRC F2C8EA99
Track not present in AccurateRip database
Copy OK

Track 2

Filename C:\VA - The Best of Indian Classical Music Ever (2011) [FLAC]\CD03\02 - Suresh Babu Mane - Raga Bhairavi (Baajuband Khul Jaaye).wav

Peak level 94.3 %
Extraction speed 1.0 X
Track quality 99.9 %
Test CRC 74800860
Copy CRC 74800860
Track not present in AccurateRip database
Copy OK

Track 3

Filename C:\VA - The Best of Indian Classical Music Ever (2011) [FLAC]\CD03\03 - Phiroz Dastur - Raga Kedar (Tori Hardam Parwar Aas).wav

Peak level 99.1 %
Extraction speed 1.2 X
Track quality 100.0 %
Test CRC 926E02C5
Copy CRC 926E02C5
Track not present in AccurateRip database
Copy OK

Track 4

Filename C:\VA - The Best of Indian Classical Music Ever (2011) [FLAC]\CD03\04 - Phiroz Dastur - Raga Adana (Khudarat Ayaan Chamke).wav

Peak level 78.3 %
Extraction speed 1.1 X
Track quality 99.9 %
Test CRC 9D505C2E
Copy CRC 9D505C2E
Track not present in AccurateRip database
Copy OK

Track 5

Filename C:\VA - The Best of Indian Classical Music Ever (2011) [FLAC]\CD03\05 - Omkarnath Thakur - Raga Todi (Garwa Main Sang Laagi).wav

Peak level 94.4 %
Extraction speed 1.5 X
Track quality 100.0 %
Test CRC C6BF4E67
Copy CRC C6BF4E67
Track not present in AccurateRip database
Copy OK

Track 6

Filename C:\VA - The Best of Indian Classical Music Ever (2011) [FLAC]\CD03\06 - Omkarnath Thakur - Bengali Kafi (Vande Mataram).wav

Peak level 96.9 %
Extraction speed 1.6 X
Track quality 100.0 %
Test CRC 014B02A8
Copy CRC 014B02A8
Track not present in AccurateRip database
Copy OK

Track 7

Filename C:\VA - The Best of Indian Classical Music Ever (2011) [FLAC]\CD03\07 - Basavraj Rajguru - Raga Sham Kalyan (Saawan Ki Saanj).wav

Peak level 94.4 %
Extraction speed 1.6 X
Track quality 100.0 %
Test CRC 94346321
Copy CRC 94346321
Track not present in AccurateRip database
Copy OK

Track 8

Filename C:\VA - The Best of Indian Classical Music Ever (2011) [FLAC]\CD03\08 - Basavraj Rajguru - Raga Maru Bihag (Man Mein Raho).wav

Peak level 94.4 %
Extraction speed 1.6 X
Track quality 100.0 %
Test CRC D3536C51
Copy CRC D3536C51
Track not present in AccurateRip database
Copy OK

Track 9

Filename C:\VA - The Best of Indian Classical Music Ever (2011) [FLAC]\CD03\09 - Krishna Rao Shankar Pandit - Bhairavi Tappa (Tu Sadde Naal Galla).wav

Peak level 89.4 %
Extraction speed 1.7 X
Track quality 100.0 %
Test CRC 54FFA30F
Copy CRC 54FFA30F
Track not present in AccurateRip database
Copy OK

Track 10

Filename C:\VA - The Best of Indian Classical Music Ever (2011) [FLAC]\CD03\10 - Krishna Rao Shankar Pandit - Raga Gaud Sarang Tarana (Dara Deem Tana).wav

Peak level 92.4 %
Extraction speed 1.8 X
Track quality 100.0 %
Test CRC 2CEBBE30
Copy CRC 2CEBBE30
Track not present in AccurateRip database
Copy OK

Track 11

Filename C:\VA - The Best of Indian Classical Music Ever (2011) [FLAC]\CD03\11 - Vilayat Hussain Khan - Raga Paraj (Chalo Mitawa Balam).wav

Peak level 96.3 %
Extraction speed 2.1 X
Track quality 100.0 %
Test CRC 8C9187FB
Copy CRC 8C9187FB
Track not present in AccurateRip database
Copy OK

Track 12

Filename C:\VA - The Best of Indian Classical Music Ever (2011) [FLAC]\CD03\12 - S N Ratanjankar - Raga Ramdasi Malhar (adhav Mukund Giridhar Gopal).wav

Peak level 100.0 %
Extraction speed 2.1 X
Track quality 100.0 %
Test CRC 1A3DB035
Copy CRC 1A3DB035
Track not present in AccurateRip database
Copy OK

Track 13

Filename C:\VA - The Best of Indian Classical Music Ever (2011) [FLAC]\CD03\13 - Anjanibai Lokekar - Raga Gaud Malhar (Balam Bahar Aayee).wav

Peak level 94.7 %
Extraction speed 2.0 X
Track quality 100.0 %
Test CRC A1CB9D62
Copy CRC A1CB9D62
Track not present in AccurateRip database
Copy OK

Track 14

Filename C:\VA - The Best of Indian Classical Music Ever (2011) [FLAC]\CD03\14 - Padmavati Shaligram - Bhairavi Thumri (Ja Main Tose Nahin Bolun).wav

Peak level 94.4 %
Extraction speed 2.4 X
Track quality 100.0 %
Test CRC 62401F97
Copy CRC 62401F97
Track not present in AccurateRip database
Copy OK


None of the tracks are present in the AccurateRip database

No errors occurred

End of status report

==== Log checksum 98A6498B1A6E1A9371F0D7371909356E3BA2DDDFD49FF7A3E1E8C0DFA55435E3 ====

Exact Audio Copy V1.0 beta 1 from 15. November 2010

EAC extraction logfile from 8. March 2011, 20:59

Various / The Best Of Indian Classical Music Ever 04

Used drive : PLEXTOR DVDR PX-608CU Adapter: 6 ID: 0

Read mode : Secure
Utilize accurate stream : Yes
Defeat audio cache : Yes
Make use of C2 pointers : No

Read offset correction : 48
Overread into Lead-In and Lead-Out : No
Fill up missing offset samples with silence : Yes
Delete leading and trailing silent blocks : No
Null samples used in CRC calculations : Yes
Used interface : Installed external ASPI interface
Gap handling : Appended to previous track

Used output format : User Defined Encoder
Selected bitrate : 1024 kBit/s
Quality : High
Add ID3 tag : No
Command line compressor : C:\Program Files (x86)\Exact Audio Copy\Flac\flac.exe
Additional command line options : -8 -V -T "ARTIST=%a" -T "TITLE=%t" -T "ALBUM=%g" -T "DATE=%y" -T "TRACKNUMBER=%n" -T "TOTALTRACKS=%x" -T "GENRE=%m" -T "ALBUMARTIST=%v" -T "ALBUM ARTIST=%v" -T "COMMENT=EAC, FLAC -8" %s


TOC of the extracted CD

Track | Start | Length | Start sector | End sector
––––––––––––––––––––––––––––-
1 | 0:00.00 | 6:20.49 | 0 | 28548
2 | 6:20.49 | 3:23.72 | 28549 | 43845
3 | 9:44.46 | 3:10.17 | 43846 | 58112
4 | 12:54.63 | 3:20.18 | 58113 | 73130
5 | 16:15.06 | 3:32.39 | 73131 | 89069
6 | 19:47.45 | 4:38.16 | 89070 | 109935
7 | 24:25.61 | 3:29.47 | 109936 | 125657
8 | 27:55.33 | 3:39.24 | 125658 | 142106
9 | 31:34.57 | 3:35.50 | 142107 | 158281
10 | 35:10.32 | 6:51.31 | 158282 | 189137
11 | 42:01.63 | 6:25.44 | 189138 | 218056
12 | 48:27.32 | 3:12.62 | 218057 | 232518
13 | 51:40.19 | 6:17.01 | 232519 | 260794
14 | 57:57.20 | 3:13.17 | 260795 | 275286


Track 1

Filename C:\VA - The Best of Indian Classical Music Ever (2011) [FLAC]\CD04\01 - Begum Akhtar - Thumri (Ab Ke Sawan Ghar Aaja).wav

Pre-gap length 0:00:02.00

Peak level 96.3 %
Extraction speed 2.9 X
Track quality 100.0 %
Test CRC D50632D6
Copy CRC D50632D6
Track not present in AccurateRip database
Copy OK

Track 2

Filename C:\VA - The Best of Indian Classical Music Ever (2011) [FLAC]\CD04\02 - Begum Akhtar - Poorvi (Nihure Nihure Baharen).wav

Peak level 97.8 %
Extraction speed 3.2 X
Track quality 100.0 %
Test CRC EF38C36B
Copy CRC EF38C36B
Track not present in AccurateRip database
Copy OK

Track 3

Filename C:\VA - The Best of Indian Classical Music Ever (2011) [FLAC]\CD04\03 - Begum Akhtar - Dadra (Koyaliya Mat Kar Pukar).wav

Peak level 92.9 %
Extraction speed 3.3 X
Track quality 100.0 %
Test CRC 1FF31112
Copy CRC 1FF31112
Track not present in AccurateRip database
Copy OK

Track 4

Filename C:\VA - The Best of Indian Classical Music Ever (2011) [FLAC]\CD04\04 - Bade Ghulam Ali Khan - Thumri (Yaad Piya Ki Aaye).wav

Peak level 98.8 %
Extraction speed 3.1 X
Track quality 99.9 %
Test CRC CACF94B4
Copy CRC CACF94B4
Track not present in AccurateRip database
Copy OK

Track 5

Filename C:\VA - The Best of Indian Classical Music Ever (2011) [FLAC]\CD04\05 - Bade Ghulam Ali Khan - Thumri (Aaye Na Balam).wav

Peak level 98.8 %
Extraction speed 3.3 X
Track quality 99.9 %
Test CRC 1D3A609D
Copy CRC 1D3A609D
Track not present in AccurateRip database
Copy OK

Track 6

Filename C:\VA - The Best of Indian Classical Music Ever (2011) [FLAC]\CD04\06 - Kesarbai Kerkar - Raga Lalita Gouri (Preetam Saiyan).wav

Peak level 79.7 %
Extraction speed 4.1 X
Track quality 100.0 %
Test CRC B0EC2310
Copy CRC B0EC2310
Track not present in AccurateRip database
Copy OK

Track 7

Filename C:\VA - The Best of Indian Classical Music Ever (2011) [FLAC]\CD04\07 - Mogubai Kurdikar - Raga Savani Kalyan (Dev Dev Sant Sang).wav

Peak level 82.7 %
Extraction speed 4.1 X
Track quality 100.0 %
Test CRC 982C5F08
Copy CRC 982C5F08
Track not present in AccurateRip database
Copy OK

Track 8

Filename C:\VA - The Best of Indian Classical Music Ever (2011) [FLAC]\CD04\08 - Mogubai Kurdikar - Raga Nayaki Kanada (Meri Piya Rasiya).wav

Peak level 85.3 %
Extraction speed 4.3 X
Track quality 100.0 %
Test CRC A71BC600
Copy CRC A71BC600
Track not present in AccurateRip database
Copy OK

Track 9

Filename C:\VA - The Best of Indian Classical Music Ever (2011) [FLAC]\CD04\09 - Khadim Hussain Khan - Raga Gaud Sarang (Pyari Laad Se Jhule).wav

Peak level 82.5 %
Extraction speed 4.5 X
Track quality 100.0 %
Test CRC 94AF6C43
Copy CRC 94AF6C43
Track not present in AccurateRip database
Copy OK

Track 10

Filename C:\VA - The Best of Indian Classical Music Ever (2011) [FLAC]\CD04\10 - Sharafat Hussain - Raga Husaini.wav

Peak level 98.8 %
Extraction speed 4.7 X
Track quality 99.9 %
Test CRC FA98E281
Copy CRC FA98E281
Track not present in AccurateRip database
Copy OK

Track 11

Filename C:\VA - The Best of Indian Classical Music Ever (2011) [FLAC]\CD04\11 - Rasoolan Bai - Kajri (Tarasat Jiyara Hamaar).wav

Peak level 92.3 %
Extraction speed 5.2 X
Track quality 100.0 %
Test CRC 1156EC7B
Copy CRC 1156EC7B
Track not present in AccurateRip database
Copy OK

Track 12

Filename C:\VA - The Best of Indian Classical Music Ever (2011) [FLAC]\CD04\12 - Faiyaz Khan - Raga Ramkali (Un Sang Lagi Ankhia).wav

Peak level 98.8 %
Extraction speed 5.0 X
Track quality 100.0 %
Test CRC 4983938F
Copy CRC 4983938F
Track not present in AccurateRip database
Copy OK

Track 13

Filename C:\VA - The Best of Indian Classical Music Ever (2011) [FLAC]\CD04\13 - Siddheshwari Devi - Bhairavi Thumri (Raske Bhare Tore Nain).wav

Peak level 96.9 %
Extraction speed 5.6 X
Track quality 100.0 %
Test CRC EAD536E3
Copy CRC EAD536E3
Track not present in AccurateRip database
Copy OK

Track 14

Filename C:\VA - The Best of Indian Classical Music Ever (2011) [FLAC]\CD04\14 - Faiyaz Khan - Thumri Bhairavi (Baju Band Khul Khul Jaaye).wav

Peak level 98.9 %
Extraction speed 5.3 X
Track quality 100.0 %
Test CRC 48C40580
Copy CRC 48C40580
Track not present in AccurateRip database
Copy OK


None of the tracks are present in the AccurateRip database

No errors occurred

End of status report

==== Log checksum 72B10922AF0687A2B92D01B86879406CE08D90DFEB7EFCF20D66D2F50CA9889D ====

Exact Audio Copy V1.0 beta 1 from 15. November 2010

EAC extraction logfile from 8. March 2011, 23:37

Various / The Best Of Indian Classical Music Ever 05

Used drive : HL-DT-STDVDRAM GH22NS50 Adapter: 5 ID: 0

Read mode : Secure
Utilize accurate stream : Yes
Defeat audio cache : Yes
Make use of C2 pointers : No

Read offset correction : 667
Overread into Lead-In and Lead-Out : No
Fill up missing offset samples with silence : Yes
Delete leading and trailing silent blocks : No
Null samples used in CRC calculations : Yes
Used interface : Installed external ASPI interface
Gap handling : Appended to previous track

Used output format : User Defined Encoder
Selected bitrate : 1024 kBit/s
Quality : High
Add ID3 tag : No
Command line compressor : C:\Program Files (x86)\Exact Audio Copy\Flac\flac.exe
Additional command line options : -8 -V -T "ARTIST=%a" -T "TITLE=%t" -T "ALBUM=%g" -T "DATE=%y" -T "TRACKNUMBER=%n" -T "TOTALTRACKS=%x" -T "GENRE=%m" -T "ALBUMARTIST=%v" -T "ALBUM ARTIST=%v" -T "COMMENT=EAC, FLAC -8" %s


TOC of the extracted CD

Track | Start | Length | Start sector | End sector
––––––––––––––––––––––––––––-
1 | 0:00.00 | 3:18.73 | 0 | 14922
2 | 3:18.73 | 6:24.54 | 14923 | 43776
3 | 9:43.52 | 18:29.09 | 43777 | 126960
4 | 28:12.61 | 18:03.54 | 126961 | 208239
5 | 46:16.40 | 17:54.13 | 208240 | 288802
6 | 64:10.53 | 6:27.74 | 288803 | 317901
7 | 70:38.52 | 6:23.68 | 317902 | 346694


Track 1

Filename C:\VA - The Best of Indian Classical Music Ever (2011) [FLAC]\CD05\01 - Kesarbai Kerkar - Raga Vibhas (Mora Re,m 1955).wav

Pre-gap length 0:00:02.00

Peak level 91.8 %
Extraction speed 1.1 X
Track quality 100.0 %
Test CRC F6657FDB
Copy CRC F6657FDB
Track not present in AccurateRip database
Copy OK

Track 2

Filename C:\VA - The Best of Indian Classical Music Ever (2011) [FLAC]\CD05\02 - Gangubai Hangal - Raga Asawari (Shri Mata Bhavani, 1960).wav

Peak level 98.8 %
Extraction speed 1.3 X
Track quality 100.0 %
Test CRC 6D407AC6
Copy CRC 6D407AC6
Track not present in AccurateRip database
Copy OK

Track 3

Filename C:\VA - The Best of Indian Classical Music Ever (2011) [FLAC]\CD05\03 - Amir Khan - Raga Marwa (1960).wav

Peak level 98.8 %
Extraction speed 1.7 X
Track quality 99.9 %
Test CRC A91D4E97
Copy CRC A91D4E97
Track not present in AccurateRip database
Copy OK

Track 4

Filename C:\VA - The Best of Indian Classical Music Ever (2011) [FLAC]\CD05\04 - DVPaluskar - Raga Shree (Khayal Jhaptaal, Hari Ke Charan Kamal, 1955).wav

Peak level 98.8 %
Extraction speed 2.2 X
Track quality 100.0 %
Test CRC 6CBBB28D
Copy CRC 6CBBB28D
Track not present in AccurateRip database
Copy OK

Track 5

Filename C:\VA - The Best of Indian Classical Music Ever (2011) [FLAC]\CD05\05 - Bade Ghulam Ali Khan - Raga Malkauns (1960).wav

Peak level 98.9 %
Extraction speed 2.5 X
Track quality 100.0 %
Test CRC 0DD8F1A6
Copy CRC 0DD8F1A6
Track not present in AccurateRip database
Copy OK

Track 6

Filename C:\VA - The Best of Indian Classical Music Ever (2011) [FLAC]\CD05\06 - Basavraj Rajguru - Raga Kausi Kanada (So Ghadi Ghadi Aaye, 1960).wav

Peak level 83.3 %
Extraction speed 2.5 X
Track quality 100.0 %
Test CRC 033C8247
Copy CRC 033C8247
Track not present in AccurateRip database
Copy OK

Track 7

Filename C:\VA - The Best of Indian Classical Music Ever (2011) [FLAC]\CD05\07 - himsen Joshi - Thumri Mishra Kafi (Piya To Manat Nahin, 1959).wav

Peak level 98.8 %
Extraction speed 2.4 X
Track quality 99.9 %
Test CRC 733CD87E
Copy CRC 733CD87E
Track not present in AccurateRip database
Copy OK


None of the tracks are present in the AccurateRip database

No errors occurred

End of status report

==== Log checksum D49C41CC7AB2A1437D54F855C9A2E3F2C37595BD61A49E28C099D04DDE914084 ====

Exact Audio Copy V1.0 beta 1 from 15. November 2010

EAC extraction logfile from 9. March 2011, 10:30

Various / The Best Of Indian Classical Music Ever 06

Used drive : PLEXTOR DVDR PX-608CU Adapter: 6 ID: 0

Read mode : Secure
Utilize accurate stream : Yes
Defeat audio cache : Yes
Make use of C2 pointers : No

Read offset correction : 48
Overread into Lead-In and Lead-Out : No
Fill up missing offset samples with silence : Yes
Delete leading and trailing silent blocks : No
Null samples used in CRC calculations : Yes
Used interface : Installed external ASPI interface
Gap handling : Appended to previous track

Used output format : User Defined Encoder
Selected bitrate : 1024 kBit/s
Quality : High
Add ID3 tag : No
Command line compressor : C:\Program Files (x86)\Exact Audio Copy\Flac\flac.exe
Additional command line options : -8 -V -T "ARTIST=%a" -T "TITLE=%t" -T "ALBUM=%g" -T "DATE=%y" -T "TRACKNUMBER=%n" -T "TOTALTRACKS=%x" -T "GENRE=%m" -T "ALBUMARTIST=%v" -T "ALBUM ARTIST=%v" -T "COMMENT=EAC, FLAC -8" %s


TOC of the extracted CD

Track | Start | Length | Start sector | End sector
––––––––––––––––––––––––––––-
1 | 0:00.00 | 11:06.20 | 0 | 49969
2 | 11:06.20 | 12:23.42 | 49970 | 105736
3 | 23:29.62 | 18:49.40 | 105737 | 190451
4 | 42:19.27 | 18:44.09 | 190452 | 274760
5 | 61:03.36 | 6:43.10 | 274761 | 304995
6 | 67:46.46 | 3:27.38 | 304996 | 320558


Track 1

Filename C:\VA - The Best of Indian Classical Music Ever (2011) [FLAC]\CD06\01 - Manik Varma - Raga Bhatiyar (1963).wav

Pre-gap length 0:00:02.00

Peak level 98.8 %
Extraction speed 3.4 X
Track quality 100.0 %
Test CRC 266F1E27
Copy CRC 266F1E27
Track not present in AccurateRip database
Copy OK

Track 2

Filename C:\VA - The Best of Indian Classical Music Ever (2011) [FLAC]\CD06\02 - Mallikarjun Mansur - Raga Jait Kalyan (1968).wav

Peak level 98.8 %
Extraction speed 4.1 X
Track quality 100.0 %
Test CRC F6223A34
Copy CRC F6223A34
Track not present in AccurateRip database
Copy OK

Track 3

Filename C:\VA - The Best of Indian Classical Music Ever (2011) [FLAC]\CD06\03 - Nissar Hussain Khan - Raga Abhogi (1961).wav

Peak level 98.8 %
Extraction speed 5.0 X
Track quality 100.0 %
Test CRC 53C498B1
Copy CRC 53C498B1
Track not present in AccurateRip database
Copy OK

Track 4

Filename C:\VA - The Best of Indian Classical Music Ever (2011) [FLAC]\CD06\04 - Hirabai Barodekar, Saraswati Rane - Raga Basant Bahar (1968).wav

Peak level 98.8 %
Extraction speed 5.7 X
Track quality 100.0 %
Test CRC 3FA1F246
Copy CRC 3FA1F246
Track not present in AccurateRip database
Copy OK

Track 5

Filename C:\VA - The Best of Indian Classical Music Ever (2011) [FLAC]\CD06\05 - Kumar Gandharva - Gorakhnath Bhajan (Duje Ke Sang Nahin Jaoonjee, 1969).wav

Peak level 83.6 %
Extraction speed 5.5 X
Track quality 99.9 %
Test CRC E2967992
Copy CRC E2967992
Track not present in AccurateRip database
Copy OK

Track 6

Filename C:\VA - The Best of Indian Classical Music Ever (2011) [FLAC]\CD06\06 - D V Paluskar - Bhajan (Payo Ji Maine Ramratan, 1962).wav

Peak level 84.1 %
Extraction speed 5.7 X
Track quality 100.0 %
Test CRC F36BD118
Copy CRC F36BD118
Track not present in AccurateRip database
Copy OK


None of the tracks are present in the AccurateRip database

No errors occurred

End of status report

==== Log checksum 289125C439C6FB833945FB9BF7E20008BBCAD7CF579C2343F550EF4B6D580CF5 ====

Exact Audio Copy V1.0 beta 1 from 15. November 2010

EAC extraction logfile from 9. March 2011, 13:50

Various / The Best Of Indian Classical Music Ever 07

Used drive : HL-DT-STDVDRAM GH22NS50 Adapter: 5 ID: 0

Read mode : Secure
Utilize accurate stream : Yes
Defeat audio cache : Yes
Make use of C2 pointers : No

Read offset correction : 667
Overread into Lead-In and Lead-Out : No
Fill up missing offset samples with silence : Yes
Delete leading and trailing silent blocks : No
Null samples used in CRC calculations : Yes
Used interface : Installed external ASPI interface
Gap handling : Appended to previous track

Used output format : User Defined Encoder
Selected bitrate : 1024 kBit/s
Quality : High
Add ID3 tag : No
Command line compressor : C:\Program Files (x86)\Exact Audio Copy\Flac\flac.exe
Additional command line options : -8 -V -T "ARTIST=%a" -T "TITLE=%t" -T "ALBUM=%g" -T "DATE=%y" -T "TRACKNUMBER=%n" -T "TOTALTRACKS=%x" -T "GENRE=%m" -T "ALBUMARTIST=%v" -T "ALBUM ARTIST=%v" -T "COMMENT=EAC, FLAC -8" %s


TOC of the extracted CD

Track | Start | Length | Start sector | End sector
––––––––––––––––––––––––––––-
1 | 0:00.00 | 6:30.61 | 0 | 29310
2 | 6:30.61 | 7:15.12 | 29311 | 61947
3 | 13:45.73 | 11:00.49 | 61948 | 111496
4 | 24:46.47 | 18:10.68 | 111497 | 193314
5 | 42:57.40 | 22:06.42 | 193315 | 292806
6 | 65:04.07 | 6:22.01 | 292807 | 321457
7 | 71:26.08 | 3:18.18 | 321458 | 336325


Track 1

Filename C:\VA - The Best of Indian Classical Music Ever (2011) [FLAC]\CD07\01 - Nazakat Ali Khan, Salamat Ali Khan - Raga Miyan Ki Todi (Sunder Nain, 1961).wav

Pre-gap length 0:00:02.00

Peak level 98.8 %
Extraction speed 1.3 X
Track quality 100.0 %
Test CRC AC282D18
Copy CRC AC282D18
Track not present in AccurateRip database
Copy OK

Track 2

Filename C:\VA - The Best of Indian Classical Music Ever (2011) [FLAC]\CD07\02 - Nazakat Ali Khan, Salamat Ali Khan - Pahadi Thumri (Saiya Bina Soona, 1961).wav

Peak level 98.8 %
Extraction speed 1.5 X
Track quality 100.0 %
Test CRC 7E951208
Copy CRC 7E951208
Track not present in AccurateRip database
Copy OK

Track 3

Filename C:\VA - The Best of Indian Classical Music Ever (2011) [FLAC]\CD07\03 - Nirmala Devi, Lakshmi Shankar - Thumri (Sawan Beeta Jaaye, 1966).wav

Peak level 98.8 %
Extraction speed 1.8 X
Track quality 100.0 %
Test CRC E3B2D95A
Copy CRC E3B2D95A
Track not present in AccurateRip database
Copy OK

Track 4

Filename C:\VA - The Best of Indian Classical Music Ever (2011) [FLAC]\CD07\04 - Niaz Ahmed Khan, Fayyaz Ahmed Khan - Raga Yaman (1963).wav

Peak level 89.4 %
Extraction speed 2.2 X
Track quality 100.0 %
Test CRC 70DC38A3
Copy CRC 70DC38A3
Track not present in AccurateRip database
Copy OK

Track 5

Filename C:\VA - The Best of Indian Classical Music Ever (2011) [FLAC]\CD07\05 - Malavika Kanan - Raga Chhayanat (1969).wav

Peak level 98.8 %
Extraction speed 2.5 X
Track quality 99.9 %
Test CRC 0CD4C517
Copy CRC 0CD4C517
Track not present in AccurateRip database
Copy OK

Track 6

Filename C:\VA - The Best of Indian Classical Music Ever (2011) [FLAC]\CD07\06 - Bhimsen Joshi - Thumri Jogiya (Piya Milan Ki Aas, 1962).wav

Peak level 98.8 %
Extraction speed 2.7 X
Track quality 100.0 %
Test CRC 46E17F43
Copy CRC 46E17F43
Track not present in AccurateRip database
Copy OK

Track 7

Filename C:\VA - The Best of Indian Classical Music Ever (2011) [FLAC]\CD07\07 - D V Paluskar - Bhajan (Chalo Man Ganga Jamuna Teer, 1962).wav

Peak level 94.1 %
Extraction speed 2.2 X
Track quality 99.9 %
Test CRC E320B636
Copy CRC E320B636
Track not present in AccurateRip database
Copy OK


None of the tracks are present in the AccurateRip database

No errors occurred

End of status report

==== Log checksum 387DBB09F5FFE4AE397C3D291DE5749CD4E66073EC57B38599FC73938F8EE361 ====

Exact Audio Copy V1.0 beta 1 from 15. November 2010

EAC extraction logfile from 9. March 2011, 16:25

Various / The Best Of Indian Classical Music Ever 08

Used drive : PLEXTOR DVDR PX-608CU Adapter: 6 ID: 0

Read mode : Secure
Utilize accurate stream : Yes
Defeat audio cache : Yes
Make use of C2 pointers : No

Read offset correction : 48
Overread into Lead-In and Lead-Out : No
Fill up missing offset samples with silence : Yes
Delete leading and trailing silent blocks : No
Null samples used in CRC calculations : Yes
Used interface : Installed external ASPI interface
Gap handling : Appended to previous track

Used output format : User Defined Encoder
Selected bitrate : 1024 kBit/s
Quality : High
Add ID3 tag : No
Command line compressor : C:\Program Files (x86)\Exact Audio Copy\Flac\flac.exe
Additional command line options : -8 -V -T "ARTIST=%a" -T "TITLE=%t" -T "ALBUM=%g" -T "DATE=%y" -T "TRACKNUMBER=%n" -T "TOTALTRACKS=%x" -T "GENRE=%m" -T "ALBUMARTIST=%v" -T "ALBUM ARTIST=%v" -T "COMMENT=EAC, FLAC -8" %s


TOC of the extracted CD

Track | Start | Length | Start sector | End sector
––––––––––––––––––––––––––––-
1 | 0:00.00 | 21:40.54 | 0 | 97553
2 | 21:40.54 | 15:22.60 | 97554 | 166763
3 | 37:03.39 | 10:45.39 | 166764 | 215177
4 | 47:49.03 | 6:41.27 | 215178 | 245279
5 | 54:30.30 | 4:50.38 | 245280 | 267067
6 | 59:20.68 | 6:58.34 | 267068 | 298451
7 | 66:19.27 | 6:40.56 | 298452 | 328507
8 | 73:00.08 | 3:59.31 | 328508 | 346463


Track 1

Filename C:\VA - The Best of Indian Classical Music Ever (2011) [FLAC]\CD08\01 - Jasraj - Raga Bilaskhani Todi (1971).wav

Pre-gap length 0:00:02.00

Peak level 98.0 %
Extraction speed 3.9 X
Track quality 100.0 %
Test CRC 7AC2D4CA
Copy CRC 7AC2D4CA
Track not present in AccurateRip database
Copy OK

Track 2

Filename C:\VA - The Best of Indian Classical Music Ever (2011) [FLAC]\CD08\02 - Parween Sultana - Raga Ahir Bhairav (1975).wav

Peak level 94.4 %
Extraction speed 4.8 X
Track quality 99.9 %
Test CRC B4534883
Copy CRC B4534883
Track not present in AccurateRip database
Copy OK

Track 3

Filename C:\VA - The Best of Indian Classical Music Ever (2011) [FLAC]\CD08\03 - Prabha Atre - Raga Kalavati (1971).wav

Peak level 95.8 %
Extraction speed 5.1 X
Track quality 99.9 %
Test CRC 45C3C5D7
Copy CRC 45C3C5D7
Track not present in AccurateRip database
Copy OK

Track 4

Filename C:\VA - The Best of Indian Classical Music Ever (2011) [FLAC]\CD08\04 - Barkat Ali Khan - Thumri (Ab Na Maanoon Tori Batiya, 1973).wav

Peak level 93.2 %
Extraction speed 5.6 X
Track quality 100.0 %
Test CRC 7C640FBC
Copy CRC 7C640FBC
Track not present in AccurateRip database
Copy OK

Track 5

Filename C:\VA - The Best of Indian Classical Music Ever (2011) [FLAC]\CD08\05 - Jasraj with Maniramji & Pratap Narayanji - Raga Dhanashree (1976).wav

Peak level 92.0 %
Extraction speed 5.6 X
Track quality 100.0 %
Test CRC 76F7728F
Copy CRC 76F7728F
Track not present in AccurateRip database
Copy OK

Track 6

Filename C:\VA - The Best of Indian Classical Music Ever (2011) [FLAC]\CD08\06 - Lakshmi Shankar - Thumri Khamaj (Shyam Bina Nahin Chain, 1975).wav

Peak level 81.1 %
Extraction speed 6.0 X
Track quality 100.0 %
Test CRC 61578506
Copy CRC 61578506
Track not present in AccurateRip database
Copy OK

Track 7

Filename C:\VA - The Best of Indian Classical Music Ever (2011) [FLAC]\CD08\07 - Ghulam Mustafa Khan - Dadra (Chain Na Paaiho Hame Tadpaai Ke, 1971).wav

Peak level 98.9 %
Extraction speed 6.2 X
Track quality 100.0 %
Test CRC A764B95F
Copy CRC A764B95F
Track not present in AccurateRip database
Copy OK

Track 8

Filename C:\VA - The Best of Indian Classical Music Ever (2011) [FLAC]\CD08\08 - Kumar Gandharva, Vasundhra Komkali - Meera Bhajan (Mhara Olagiya Ghar Aaya Ji, 1972).wav

Peak level 94.4 %
Extraction speed 5.2 X
Track quality 99.9 %
Test CRC CCECB0DD
Copy CRC CCECB0DD
Track not present in AccurateRip database
Copy OK


None of the tracks are present in the AccurateRip database

No errors occurred

End of status report

==== Log checksum B5D9C590D3C511AB81F423F4FF77EDCCC06596BE47E29527F0977A30200E5ED9 ====

Exact Audio Copy V1.0 beta 1 from 15. November 2010

EAC extraction logfile from 9. March 2011, 19:33

Various / The Best Of Indian Classical Music Ever 09

Used drive : PLEXTOR DVDR PX-608CU Adapter: 6 ID: 0

Read mode : Secure
Utilize accurate stream : Yes
Defeat audio cache : Yes
Make use of C2 pointers : No

Read offset correction : 48
Overread into Lead-In and Lead-Out : No
Fill up missing offset samples with silence : Yes
Delete leading and trailing silent blocks : No
Null samples used in CRC calculations : Yes
Used interface : Installed external ASPI interface
Gap handling : Appended to previous track

Used output format : User Defined Encoder
Selected bitrate : 1024 kBit/s
Quality : High
Add ID3 tag : No
Command line compressor : C:\Program Files (x86)\Exact Audio Copy\Flac\flac.exe
Additional command line options : -8 -V -T "ARTIST=%a" -T "TITLE=%t" -T "ALBUM=%g" -T "DATE=%y" -T "TRACKNUMBER=%n" -T "TOTALTRACKS=%x" -T "GENRE=%m" -T "ALBUMARTIST=%v" -T "ALBUM ARTIST=%v" -T "COMMENT=EAC, FLAC -8" %s


TOC of the extracted CD

Track | Start | Length | Start sector | End sector
––––––––––––––––––––––––––––-
1 | 0:00.00 | 21:00.01 | 0 | 94500
2 | 21:00.01 | 17:38.21 | 94501 | 173871
3 | 38:38.22 | 6:35.46 | 173872 | 203542
4 | 45:13.68 | 8:34.21 | 203543 | 242113
5 | 53:48.14 | 9:56.45 | 242114 | 286858
6 | 63:44.59 | 6:57.03 | 286859 | 318136
7 | 70:41.62 | 6:52.12 | 318137 | 349048


Track 1

Filename C:\VA - The Best of Indian Classical Music Ever (2011) [FLAC]\CD09\01 - Kishori Amonkar - Raga Bhoop (1971).wav

Pre-gap length 0:00:02.00

Peak level 97.8 %
Extraction speed 3.9 X
Track quality 100.0 %
Test CRC 1C4123E1
Copy CRC 1C4123E1
Track not present in AccurateRip database
Copy OK

Track 2

Filename C:\VA - The Best of Indian Classical Music Ever (2011) [FLAC]\CD09\02 - Bhimsen Joshi - Raga Gaud Sarang (1973).wav

Peak level 99.3 %
Extraction speed 4.8 X
Track quality 99.9 %
Test CRC DA83F863
Copy CRC DA83F863
Track not present in AccurateRip database
Copy OK

Track 3

Filename C:\VA - The Best of Indian Classical Music Ever (2011) [FLAC]\CD09\03 - Kumar Gandharva - Raga Chaiti Bhoop (Ni Mori Ka, 1976).wav

Peak level 96.7 %
Extraction speed 5.2 X
Track quality 100.0 %
Test CRC 15D28C56
Copy CRC 15D28C56
Track not present in AccurateRip database
Copy OK

Track 4

Filename C:\VA - The Best of Indian Classical Music Ever (2011) [FLAC]\CD09\04 - Shobha Gurtu - Thumri Des (Sawan Aayo Ma, 1978).wav

Peak level 76.9 %
Extraction speed 5.6 X
Track quality 100.0 %
Test CRC ED0D87D3
Copy CRC ED0D87D3
Track not present in AccurateRip database
Copy OK

Track 5

Filename C:\VA - The Best of Indian Classical Music Ever (2011) [FLAC]\CD09\05 - Sandhya Mukherjee - Thumri Mishra Khamaj (Dekhe Bina Bechain, 1971).wav

Peak level 97.7 %
Extraction speed 6.0 X
Track quality 100.0 %
Test CRC 2DB6FE1B
Copy CRC 2DB6FE1B
Track not present in AccurateRip database
Copy OK

Track 6

Filename C:\VA - The Best of Indian Classical Music Ever (2011) [FLAC]\CD09\06 - Hira Devi Mishra - Thumri Des (Mora Saiyan Bulawe Adhi Raat, 1975).wav

Peak level 84.9 %
Extraction speed 6.2 X
Track quality 100.0 %
Test CRC 8BA0282F
Copy CRC 8BA0282F
Track not present in AccurateRip database
Copy OK

Track 7

Filename C:\VA - The Best of Indian Classical Music Ever (2011) [FLAC]\CD09\07 - Girija Devi - Thumri Bhairavi Purab Ang (Nahak Laye Gawanwa, 1975).wav

Peak level 92.5 %
Extraction speed 6.4 X
Track quality 100.0 %
Test CRC 3EC5A46A
Copy CRC 3EC5A46A
Track not present in AccurateRip database
Copy OK


None of the tracks are present in the AccurateRip database

No errors occurred

End of status report

==== Log checksum 3E9F5B8A33B320F5D43A8A920FE1A5B0614F10ACB75486F3523AAA96D1E6B488 ====

Exact Audio Copy V1.0 beta 1 from 15. November 2010

EAC extraction logfile from 9. March 2011, 23:39

Various / The Best Of Indian Classical Music Ever 10

Used drive : HL-DT-STDVDRAM GH22NS50 Adapter: 5 ID: 0

Read mode : Secure
Utilize accurate stream : Yes
Defeat audio cache : Yes
Make use of C2 pointers : No

Read offset correction : 667
Overread into Lead-In and Lead-Out : No
Fill up missing offset samples with silence : Yes
Delete leading and trailing silent blocks : No
Null samples used in CRC calculations : Yes
Used interface : Installed external ASPI interface
Gap handling : Appended to previous track

Used output format : User Defined Encoder
Selected bitrate : 1024 kBit/s
Quality : High
Add ID3 tag : No
Command line compressor : C:\Program Files (x86)\Exact Audio Copy\Flac\flac.exe
Additional command line options : -8 -V -T "ARTIST=%a" -T "TITLE=%t" -T "ALBUM=%g" -T "DATE=%y" -T "TRACKNUMBER=%n" -T "TOTALTRACKS=%x" -T "GENRE=%m" -T "ALBUMARTIST=%v" -T "ALBUM ARTIST=%v" -T "COMMENT=EAC, FLAC -8" %s


TOC of the extracted CD

Track | Start | Length | Start sector | End sector
––––––––––––––––––––––––––––-
1 | 0:00.00 | 26:20.43 | 0 | 118542
2 | 26:20.43 | 12:08.67 | 118543 | 173209
3 | 38:29.35 | 22:18.08 | 173210 | 273567
4 | 60:47.43 | 11:01.37 | 273568 | 323179


Track 1

Filename C:\VA - The Best of Indian Classical Music Ever (2011) [FLAC]\CD10\01 - C R Vyas - Raga Shivmat Bhairav (1984).wav

Pre-gap length 0:00:02.00

Peak level 99.1 %
Extraction speed 1.5 X
Track quality 100.0 %
Test CRC F02AA237
Copy CRC F02AA237
Track not present in AccurateRip database
Copy OK

Track 2

Filename C:\VA - The Best of Indian Classical Music Ever (2011) [FLAC]\CD10\02 - Ashwini Bhide - Raga Bhoop Nat (Malaniya Lai, 1986).wav

Peak level 98.2 %
Extraction speed 1.8 X
Track quality 99.9 %
Test CRC BC66C931
Copy CRC BC66C931
Track not present in AccurateRip database
Copy OK

Track 3

Filename C:\VA - The Best of Indian Classical Music Ever (2011) [FLAC]\CD10\03 - Malini Rajurkar - Raga Chandrakauns Bageshri Ang (1983).wav

Peak level 93.5 %
Extraction speed 2.3 X
Track quality 100.0 %
Test CRC B5AC38BD
Copy CRC B5AC38BD
Track not present in AccurateRip database
Copy OK

Track 4

Filename C:\VA - The Best of Indian Classical Music Ever (2011) [FLAC]\CD10\04 - Jagdish Prasad - Thumri Des (Aeri More Piya Nahin Ghar, 1981).wav

Peak level 98.9 %
Extraction speed 2.4 X
Track quality 99.9 %
Test CRC 158A3E02
Copy CRC 158A3E02
Track not present in AccurateRip database
Copy OK


None of the tracks are present in the AccurateRip database

No errors occurred

End of status report

==== Log checksum DEB20FCB175DB62D91E7D4BCBDAC880FEBD8D7E4B74F9D996D6FA12F3180D41E ====

Exact Audio Copy V1.0 beta 1 from 15. November 2010

EAC extraction logfile from 10. March 2011, 9:23

Various / The Best Of Indian Classical Music Ever 11

Used drive : HL-DT-STDVDRAM GH22NS50 Adapter: 5 ID: 0

Read mode : Secure
Utilize accurate stream : Yes
Defeat audio cache : Yes
Make use of C2 pointers : No

Read offset correction : 667
Overread into Lead-In and Lead-Out : No
Fill up missing offset samples with silence : Yes
Delete leading and trailing silent blocks : No
Null samples used in CRC calculations : Yes
Used interface : Installed external ASPI interface
Gap handling : Appended to previous track

Used output format : User Defined Encoder
Selected bitrate : 1024 kBit/s
Quality : High
Add ID3 tag : No
Command line compressor : C:\Program Files (x86)\Exact Audio Copy\Flac\flac.exe
Additional command line options : -8 -V -T "ARTIST=%a" -T "TITLE=%t" -T "ALBUM=%g" -T "DATE=%y" -T "TRACKNUMBER=%n" -T "TOTALTRACKS=%x" -T "GENRE=%m" -T "ALBUMARTIST=%v" -T "ALBUM ARTIST=%v" -T "COMMENT=EAC, FLAC -8" %s


TOC of the extracted CD

Track | Start | Length | Start sector | End sector
––––––––––––––––––––––––––––-
1 | 0:00.00 | 11:51.40 | 0 | 53364
2 | 11:51.40 | 5:25.36 | 53365 | 77775
3 | 17:17.01 | 23:41.31 | 77776 | 184381
4 | 40:58.32 | 7:49.18 | 184382 | 219574
5 | 48:47.50 | 19:45.73 | 219575 | 308522
6 | 68:33.48 | 6:41.56 | 308523 | 338653


Track 1

Filename C:\VA - The Best of Indian Classical Music Ever (2011) [FLAC]\CD11\01 - Jitendra Abhisheki - Raga Devata Bhairav (Jare Re Kagawa Piya Ke Des, 1985).wav

Pre-gap length 0:00:02.00

Peak level 94.4 %
Extraction speed 1.0 X
Track quality 99.9 %
Test CRC 3123420C
Copy CRC 3123420C
Track not present in AccurateRip database
Copy OK

Track 2

Filename C:\VA - The Best of Indian Classical Music Ever (2011) [FLAC]\CD11\02 - Kankana Banerjee - Raga Gaud Sarang (Tu Barse Ja, 1984).wav

Peak level 96.3 %
Extraction speed 1.5 X
Track quality 100.0 %
Test CRC DA6E0FBA
Copy CRC DA6E0FBA
Track not present in AccurateRip database
Copy OK

Track 3

Filename C:\VA - The Best of Indian Classical Music Ever (2011) [FLAC]\CD11\03 - Rajan & Sajan Mishra - Raga Jog (1985).wav

Peak level 94.4 %
Extraction speed 2.0 X
Track quality 100.0 %
Test CRC 4E3A2E59
Copy CRC 4E3A2E59
Track not present in AccurateRip database
Copy OK

Track 4

Filename C:\VA - The Best of Indian Classical Music Ever (2011) [FLAC]\CD11\04 - Ajay Pohankar - Thumri Mishra Pilu (Main To Hui Badnam, 1985).wav

Peak level 94.4 %
Extraction speed 2.2 X
Track quality 100.0 %
Test CRC 9416EF2B
Copy CRC 9416EF2B
Track not present in AccurateRip database
Copy OK

Track 5

Filename C:\VA - The Best of Indian Classical Music Ever (2011) [FLAC]\CD11\05 - Ajoy Chakraborty - Raga Kalavati (1987).wav

Peak level 98.8 %
Extraction speed 2.5 X
Track quality 100.0 %
Test CRC 4F9FB989
Copy CRC 4F9FB989
Track not present in AccurateRip database
Copy OK

Track 6

Filename C:\VA - The Best of Indian Classical Music Ever (2011) [FLAC]\CD11\06 - Ajoy Chakraborty - Thumri Sohani (Ka Sang Khelan, 1987).wav

Peak level 89.0 %
Extraction speed 2.6 X
Track quality 100.0 %
Test CRC 89AE82DD
Copy CRC 89AE82DD
Track not present in AccurateRip database
Copy OK


None of the tracks are present in the AccurateRip database

No errors occurred

End of status report

==== Log checksum 5C2E1507CCF718A315CD09DC8DDC02225F883EC486B5DC28518D4827331CE308 ====

Exact Audio Copy V1.0 beta 1 from 15. November 2010

EAC extraction logfile from 10. March 2011, 13:51

Various / The Best Of Indian Classical Music Ever 12

Used drive : PLEXTOR DVDR PX-608CU Adapter: 6 ID: 0

Read mode : Secure
Utilize accurate stream : Yes
Defeat audio cache : Yes
Make use of C2 pointers : No

Read offset correction : 48
Overread into Lead-In and Lead-Out : No
Fill up missing offset samples with silence : Yes
Delete leading and trailing silent blocks : No
Null samples used in CRC calculations : Yes
Used interface : Installed external ASPI interface
Gap handling : Appended to previous track

Used output format : User Defined Encoder
Selected bitrate : 1024 kBit/s
Quality : High
Add ID3 tag : No
Command line compressor : C:\Program Files (x86)\Exact Audio Copy\Flac\flac.exe
Additional command line options : -8 -V -T "ARTIST=%a" -T "TITLE=%t" -T "ALBUM=%g" -T "DATE=%y" -T "TRACKNUMBER=%n" -T "TOTALTRACKS=%x" -T "GENRE=%m" -T "ALBUMARTIST=%v" -T "ALBUM ARTIST=%v" -T "COMMENT=EAC, FLAC -8" %s


TOC of the extracted CD

Track | Start | Length | Start sector | End sector
––––––––––––––––––––––––––––-
1 | 0:00.00 | 11:44.68 | 0 | 52867
2 | 11:44.68 | 12:58.54 | 52868 | 111271
3 | 24:43.47 | 10:28.29 | 111272 | 158400
4 | 35:12.01 | 11:20.65 | 158401 | 209465
5 | 46:32.66 | 7:53.14 | 209466 | 244954
6 | 54:26.05 | 13:12.60 | 244955 | 304414
7 | 67:38.65 | 11:06.54 | 304415 | 354418


Track 1

Filename C:\VA - The Best of Indian Classical Music Ever (2011) [FLAC]\CD12\01 - Umakant & Ramakant Gundecha - Raga Hindol Basant (Baadal Aayo Basant, 1995).wav

Pre-gap length 0:00:02.00

Peak level 94.4 %
Extraction speed 3.5 X
Track quality 100.0 %
Test CRC A5C4230C
Copy CRC A5C4230C
Track not present in AccurateRip database
Copy OK

Track 2

Filename C:\VA - The Best of Indian Classical Music Ever (2011) [FLAC]\CD12\02 - Shruti Sadolikar - Raga Dhani (Sade Naalave Miyan, 1997).wav

Peak level 94.9 %
Extraction speed 4.3 X
Track quality 100.0 %
Test CRC A3DC6252
Copy CRC A3DC6252
Track not present in AccurateRip database
Copy OK

Track 3

Filename C:\VA - The Best of Indian Classical Music Ever (2011) [FLAC]\CD12\03 - Vidyadhar Vyas - Raga Kedar (Kanganva Mora, 1997).wav

Peak level 94.4 %
Extraction speed 4.8 X
Track quality 100.0 %
Test CRC 288CEE46
Copy CRC 288CEE46
Track not present in AccurateRip database
Copy OK

Track 4

Filename C:\VA - The Best of Indian Classical Music Ever (2011) [FLAC]\CD12\04 - Babanrao [Pandit Shrikrishna] Haldankar - Raga Barwa (Baje Mori Paayaliya, 2000).wav

Peak level 95.0 %
Extraction speed 5.3 X
Track quality 100.0 %
Test CRC B26DC90A
Copy CRC B26DC90A
Track not present in AccurateRip database
Copy OK

Track 5

Filename C:\VA - The Best of Indian Classical Music Ever (2011) [FLAC]\CD12\05 - Yashwant Bua Joshi - Raga Shankara (Pratham Naad Pahachanu, 1997).wav

Peak level 96.2 %
Extraction speed 5.2 X
Track quality 99.9 %
Test CRC 6A46B12B
Copy CRC 6A46B12B
Track not present in AccurateRip database
Copy OK

Track 6

Filename C:\VA - The Best of Indian Classical Music Ever (2011) [FLAC]\CD12\06 - Girija Devi & Shobha Gurtu - Kajri (Jhini Jhini Atariya Ke Paar Kahe Karlu Guman, 1995).wav

Peak level 98.2 %
Extraction speed 6.2 X
Track quality 100.0 %
Test CRC 5716759A
Copy CRC 5716759A
Track not present in AccurateRip database
Copy OK

Track 7

Filename C:\VA - The Best of Indian Classical Music Ever (2011) [FLAC]\CD12\07 - Krishna Hangal - Raga Bhairavi (Bole Na Bole, 2000).wav

Peak level 96.2 %
Extraction speed 6.5 X
Track quality 100.0 %
Test CRC 96C21756
Copy CRC 96C21756
Track not present in AccurateRip database
Copy OK


None of the tracks are present in the AccurateRip database

No errors occurred

End of status report

==== Log checksum FFD39F456B5BB48ED59BC4A4A86E36411F3A0E48400C3F7BEE646911D478BA94 ====

Exact Audio Copy V1.0 beta 1 from 15. November 2010

EAC extraction logfile from 10. March 2011, 15:54

Various / The Best Of Indian Classical Music Ever 13

Used drive : PLEXTOR DVDR PX-608CU Adapter: 6 ID: 0

Read mode : Secure
Utilize accurate stream : Yes
Defeat audio cache : Yes
Make use of C2 pointers : No

Read offset correction : 48
Overread into Lead-In and Lead-Out : No
Fill up missing offset samples with silence : Yes
Delete leading and trailing silent blocks : No
Null samples used in CRC calculations : Yes
Used interface : Installed external ASPI interface
Gap handling : Appended to previous track

Used output format : User Defined Encoder
Selected bitrate : 1024 kBit/s
Quality : High
Add ID3 tag : No
Command line compressor : C:\Program Files (x86)\Exact Audio Copy\Flac\flac.exe
Additional command line options : -8 -V -T "ARTIST=%a" -T "TITLE=%t" -T "ALBUM=%g" -T "DATE=%y" -T "TRACKNUMBER=%n" -T "TOTALTRACKS=%x" -T "GENRE=%m" -T "ALBUMARTIST=%v" -T "ALBUM ARTIST=%v" -T "COMMENT=EAC, FLAC -8" %s


TOC of the extracted CD

Track | Start | Length | Start sector | End sector
––––––––––––––––––––––––––––-
1 | 0:00.00 | 19:37.69 | 0 | 88343
2 | 19:37.69 | 10:23.59 | 88344 | 135127
3 | 30:01.53 | 15:05.45 | 135128 | 203047
4 | 45:07.23 | 14:59.07 | 203048 | 270479
5 | 60:06.30 | 14:28.72 | 270480 | 335651


Track 1

Filename C:\VA - The Best of Indian Classical Music Ever (2011) [FLAC]\CD13\01 - Sanjeev Abhyankar - Raga Nat Bhairav (1991).wav

Pre-gap length 0:00:02.00

Peak level 96.9 %
Extraction speed 3.8 X
Track quality 100.0 %
Test CRC EE5F6C2E
Copy CRC EE5F6C2E
Track not present in AccurateRip database
Copy OK

Track 2

Filename C:\VA - The Best of Indian Classical Music Ever (2011) [FLAC]\CD13\02 - Arti Ankalikar - Raga Malkauns, Khayal Adha Chautaal (Chalo Hato Piya, 1992).wav

Peak level 97.6 %
Extraction speed 4.6 X
Track quality 100.0 %
Test CRC 7465F4F3
Copy CRC 7465F4F3
Track not present in AccurateRip database
Copy OK

Track 3

Filename C:\VA - The Best of Indian Classical Music Ever (2011) [FLAC]\CD13\03 - Ulhas Kashalkar - Raga Pat Bihag (Dhan Dhan Mangal Gavo, 1993).wav

Peak level 98.8 %
Extraction speed 5.3 X
Track quality 100.0 %
Test CRC E6BA7E6A
Copy CRC E6BA7E6A
Track not present in AccurateRip database
Copy OK

Track 4

Filename C:\VA - The Best of Indian Classical Music Ever (2011) [FLAC]\CD13\04 - Shivanand Patil - Raga Chandrakauns (1994).wav

Peak level 99.1 %
Extraction speed 5.9 X
Track quality 100.0 %
Test CRC EF9AF92F
Copy CRC EF9AF92F
Track not present in AccurateRip database
Copy OK

Track 5

Filename C:\VA - The Best of Indian Classical Music Ever (2011) [FLAC]\CD13\05 - Rashid Khan - Kaushik Dhwani, Teentaal (1994).wav

Peak level 98.8 %
Extraction speed 6.4 X
Track quality 100.0 %
Test CRC FAC01D0F
Copy CRC FAC01D0F
Track not present in AccurateRip database
Copy OK


None of the tracks are present in the AccurateRip database

No errors occurred

End of status report

==== Log checksum 1FB45A0EB859F36250345FB216F227CD0763D692E52793FC4838DCE4D6637E57 ====

Exact Audio Copy V1.0 beta 1 from 15. November 2010

EAC extraction logfile from 10. March 2011, 19:14

Various / The Best Of Indian Classical Music Ever 14

Used drive : PLEXTOR DVDR PX-608CU Adapter: 6 ID: 0

Read mode : Secure
Utilize accurate stream : Yes
Defeat audio cache : Yes
Make use of C2 pointers : No

Read offset correction : 48
Overread into Lead-In and Lead-Out : No
Fill up missing offset samples with silence : Yes
Delete leading and trailing silent blocks : No
Null samples used in CRC calculations : Yes
Used interface : Installed external ASPI interface
Gap handling : Appended to previous track

Used output format : User Defined Encoder
Selected bitrate : 1024 kBit/s
Quality : High
Add ID3 tag : No
Command line compressor : C:\Program Files (x86)\Exact Audio Copy\Flac\flac.exe
Additional command line options : -8 -V -T "ARTIST=%a" -T "TITLE=%t" -T "ALBUM=%g" -T "DATE=%y" -T "TRACKNUMBER=%n" -T "TOTALTRACKS=%x" -T "GENRE=%m" -T "ALBUMARTIST=%v" -T "ALBUM ARTIST=%v" -T "COMMENT=EAC, FLAC -8" %s


TOC of the extracted CD

Track | Start | Length | Start sector | End sector
––––––––––––––––––––––––––––-
1 | 0:00.00 | 10:53.62 | 0 | 49036
2 | 10:53.62 | 11:38.00 | 49037 | 101386
3 | 22:31.62 | 8:51.34 | 101387 | 141245
4 | 31:23.21 | 7:50.12 | 141246 | 176507
5 | 39:13.33 | 9:41.04 | 176508 | 220086
6 | 48:54.37 | 5:59.13 | 220087 | 247024
7 | 54:53.50 | 7:10.30 | 247025 | 279304
8 | 62:04.05 | 6:08.60 | 279305 | 306964


Track 1

Filename C:\VA - The Best of Indian Classical Music Ever (2011) [FLAC]\CD14\01 - Madhup Mudgal - Raga Bibhas (Hain Aan Mero, 2001).wav

Pre-gap length 0:00:02.00

Peak level 98.8 %
Extraction speed 3.2 X
Track quality 99.9 %
Test CRC C83384A9
Copy CRC C83384A9
Track not present in AccurateRip database
Copy OK

Track 2

Filename C:\VA - The Best of Indian Classical Music Ever (2011) [FLAC]\CD14\02 - Kalapini Komkali - Raga Des (Maan Har Linho Mora, 2001).wav

Peak level 96.3 %
Extraction speed 3.9 X
Track quality 99.9 %
Test CRC AC9520D8
Copy CRC AC9520D8
Track not present in AccurateRip database
Copy OK

Track 3

Filename C:\VA - The Best of Indian Classical Music Ever (2011) [FLAC]\CD14\03 - Parthasarathy Desikan - Raga Bairagi (Sur Sur Se Sadhale Rasik, 2007).wav

Peak level 94.4 %
Extraction speed 4.6 X
Track quality 100.0 %
Test CRC 45C5F226
Copy CRC 45C5F226
Track not present in AccurateRip database
Copy OK

Track 4

Filename C:\VA - The Best of Indian Classical Music Ever (2011) [FLAC]\CD14\04 - Meeta Pandit - Raga Tilang Tappa (2008).wav

Peak level 86.7 %
Extraction speed 4.9 X
Track quality 100.0 %
Test CRC 7AF14A6E
Copy CRC 7AF14A6E
Track not present in AccurateRip database
Copy OK

Track 5

Filename C:\VA - The Best of Indian Classical Music Ever (2011) [FLAC]\CD14\05 - Sandipan Samajpati - Raga Jhinjhoti (Jao Jao Sautan Ghar Saiyaan, 2005).wav

Peak level 94.4 %
Extraction speed 5.3 X
Track quality 100.0 %
Test CRC 2444E0C7
Copy CRC 2444E0C7
Track not present in AccurateRip database
Copy OK

Track 6

Filename C:\VA - The Best of Indian Classical Music Ever (2011) [FLAC]\CD14\06 - Rahul Deshpande - Raga Paraj (Pavan Chalat Aalikhiyo Charikhet, 2008).wav

Peak level 75.3 %
Extraction speed 5.5 X
Track quality 100.0 %
Test CRC 827AE534
Copy CRC 827AE534
Track not present in AccurateRip database
Copy OK

Track 7

Filename C:\VA - The Best of Indian Classical Music Ever (2011) [FLAC]\CD14\07 - Shrinivas Joshi - Raga Mishra Khamaj (Sur Sang Rangraliya, 2010).wav

Peak level 79.0 %
Extraction speed 5.8 X
Track quality 100.0 %
Test CRC 8C70B6DD
Copy CRC 8C70B6DD
Track not present in AccurateRip database
Copy OK

Track 8

Filename C:\VA - The Best of Indian Classical Music Ever (2011) [FLAC]\CD14\08 - Bhimsen Joshi - Raga Bhairavi (Jo Bhaje Hari Ko Sada, 1961).wav

Peak level 94.4 %
Extraction speed 6.0 X
Track quality 100.0 %
Test CRC E810DE47
Copy CRC E810DE47
Track not present in AccurateRip database
Copy OK


None of the tracks are present in the AccurateRip database

No errors occurred

End of status report

==== Log checksum 6E5CD5D7F160D596630AB41E821D1309C3889623384DFF0A467F210B61F3F39A ====


Various Artists - The Best Of Indian Classical Music Ever - Hindustani Classical Vocal From 1902 To 2010 (2011) {14CD Bos Set}




NEXT -> more Indian music on the way…


===