Subcategories

VA - Best Violin 50 (2011) (3CD Box Set)

Posted By: shamanicus
VA - Best Violin 50 (2011) (3CD Box Set)

VA - Best Violin 50 (2011)
EAC Rip | FLAC (tracks+.cue, log) | Covers | 1034 mb | MP3 CBR 320kbps | 03:50:07 | 526 mb
Classical | Label: Warner Classics

50 Best is a series of 3-CD sets which feature genres of music ranging from symphonies, concertos and solo instrumental works to chamber music, songs and operas.

Tracklist:

CD 1 (15 / 1:13:19)

01. Yehudi Menuhin, Alberto Lysy - The Four Seasons, Concerto No. 1 in E, RV 269 'La primavera Spring' (Op.8 No. 1): I. Allegro
02. Yehudi Menuhin, Alberto Lysy - The Four Seasons, Concerto No. 1 in E, RV 269 'La primavera Spring' (Op.8 No. 1): II. Largo
03. Yehudi Menuhin, Alberto Lysy - The Four Seasons, Concerto No. 1 in E, RV 269 'La primavera Spring' (Op.8 No. 1): III. Allegro
04. Nathan Milstein, Leon Pommers - Violin Sonata No. 2 in A, Op. 2 No. 2: I. Preludio a capriccio (Presto - Adagio - Presto)
05. Nathan Milstein, Leon Pommers - Violin Sonata No. 2 in A, Op. 2 No. 2: II. Corrente (Allegro)
06. Nathan Milstein, Leon Pommers - Violin Sonata No. 2 in A, Op. 2 No. 2: III. Adagio
07. Nathan Milstein, Leon Pommers - Violin Sonata No. 2 in A, Op. 2 No. 2: IV. Giga (Allegro)
08. Nathan Milstein, Leon Pommers - Violin Sonata in G minor 'Il trillo del diavolo': III. Grave-Allegro assai: Cadenza - Adagio
09. Europa Galante, Fabio Biondi - String Quintet in E major Op. 13 No. 5 Minuetto in A
10. Nathan Milstein, Leon Pommers - 'La Follia,' Op. 5 No. 12
11. Pavlo Beznosiuk, Anthony Halstead - Brandenburg Concerto No. 5 in D BWV1050: III. Allegro
12. Anne-Sophie Mutter, Leslie Pearson, English Chamber Orchestra, Salvatore Accardo - Violin Concerto in A minor, BWV 1041: I. [Allegro]
13. Christian Tetzlaff - 3 Sonatas & 3 Partitas, BWV 1001-1006, Partita No. 2 in D Minor, BWV 1004: V. Chaconne
14. Oleg Kagan, Sviatoslav Richter - Violin Sonata in B flat K378: III. Rondo - Allegro
15. Christian Tetzlaff, Deutsche Kammerphilharmonie - Violin Concerto No. 5 in A Major, K.219 'Turkish': III. Rondeau (Tempo di menuetto - Allegro)


CD 2 (13 / 1:18:01)

01. Yehudi Menuhin, Philharmonia Orchestra, Sir John Pritchard - Romances: No. 1 in G, Op.40 (c1802)
02. Christian Ferras, Pierre Barbizet - Violin Concerto in D Op. 61 (cadenzas by Vasa Prihoda): I. Allegro ma non troppo
03. Josef Suk, New Philharmonia Orchestra, Sir Adrian Boult - Violin Concerto in D Op. 61 (cadenzas by Vasa Prihoda): I. Allegro ma non troppo
04. Josef Suk, New Philharmonia Orchestra, Sir Adrian Boult - Violin Concerto in D Op. 61 (cadenzas by Vasa Prihoda): II. Larghetto
05. Josef Suk, New Philharmonia Orchestra, Sir Adrian Boult - Violin Concerto in D Op. 61 (cadenzas by Vasa Prihoda): III. Rondo (Allegro)
06. Gidon Kremer, Berliner Philharmoniker, Herbert von Karajan - Violin Concerto in D Major, Op.77: II. Allegro giocoso, ma non troppo vivace (Cadenza by Kreisler)
07. Yehudi Menuhin, Philharmonia Orchestra, Efrem Kurtz - Violin Concerto in E Minor, Op.64: II. Andante
08. Ulf Hoelscher, New Philharmonia Orchestra, Pierre Dervaux - Introduction and Rondo capriccioso for Violin and Orchestra, Op. 28
09. Sarah Chang, Berliner Philharmoniker, Plácido Domingo - Thaïs: Méditation from 'Thaïs'
10. Masuko Ushioda, Japan Philharmonic Symphony Orchestra, Seiji Ozawa - Concerto for violin and orchestra No. 1 in G minor Op. 26: Second movement: Adagio
11. Tasmin Little, John Lenehan - Salut d'amour Op. 12
12. Ida Haendel, Bournemouth Symphony Orchestra, Paovo Berglund - Violin Concerto in D minor Op. 47: III. Allegro ma non tanto
13. Augustin Dumay, Jean-Philippe Collard - Berceuse Op. 16


CD 3 (22 / 1:18:47)

01. Maxim Vengerov, Vag Papian - Bazzini: La ronde des lutins, Op.25: Scherzo fantastique
02. Kyung-Wha Chung, Itamar Golan - Dvorák: Humoresques, Op.101, B187 n.7 in G♭
03. Michael Rabin - Paganini: Caprice for Violin Solo, Op.1 n.24 in A minor
04. Gidon Kremer, Andrei Gavrilov - Rossini: Andante & Variations for Violin & Piano
05. Tasmin Little, John Lenehan - Kreisler: La Gitarra
06. Dmitri Sitkovetsky, Pavel Gililov - Khachaturian: Gayaneh: Sabre Dance
07. Tasmin Little, Piers Lane - Rimsky-Korsakov: Tale of Tsar Saltan: Suite, Op. 57 - 'Flight of the Bumblebee'
08. Maxim Vengerov, Ian Brown - Wieniawski: Polonaise brillante for Violin & Piano no.1 in D, Op.4
09. Fritz Kreisler, Franz Rupp - Kreisler: Liebefround
10. Tasmin Little, John Lenehan - Brahms: Hungarian Dance No5
11. David Oistrakh, Victor Yampolsky - Tchaikovsky: Valse-Scherzo in C, Op.34
12. Michael Rabin, Leon Pommers - Sarasate: Spanish Dances, Op.23 n.2 'Zapateada'
13. Kyung-Wha Chung, Itamar Golan - Kreisler: Schön Rosmarin
14. Michael Rabin, Leon Pommers - Josef Suk: Pieces for Violin & Piano, Op.17 n.4: Burlesca
15. Tasmin Little, Piers Lane - Falla: La vida breve: Dance espagnole
16. Maxim Vengerov - R.Shchedrin: Balalaika, Op.100
17. Kyung-Wha Chung, Itamar Golan - Schubert: Ellens Gesang III, D.839, Op.52 n.6: 'Ave Maria'
18. Maxim Vengerov, Ian Brown - Sarasate: Introduction & Tarantella Op.43
19. Nathan Milstein, Leon Pommers - Kreisler: Preludium & Allegro in style of Pugnani
20. Tasmin Little, John Lenehan - Vittorio Monti: Csárdás
21. Michael Rabin, Hollywood Bowl Sym Orch, Felix Slatkin - Paganini: Moto perpetuo in C, Op.11
22. Michael Rabin, Hollywood Bowl Sym Orch, Felix Slatkin - Grigoras Dinicu: Hora staccata

Exact Audio Copy V1.3 from 2. September 2016

EAC extraction logfile from 15. April 2018, 11:49

Various Artists / 50 Best Violin

Used drive : Memorex MRX-650LE v7 Adapter: 1 ID: 0

Read mode : Secure
Utilize accurate stream : Yes
Defeat audio cache : Yes
Make use of C2 pointers : No

Read offset correction : 6
Overread into Lead-In and Lead-Out : No
Fill up missing offset samples with silence : Yes
Delete leading and trailing silent blocks : No
Null samples used in CRC calculations : Yes
Used interface : Native Win32 interface for Win NT & 2000
Gap handling : Appended to previous track

Used output format : User Defined Encoder
Selected bitrate : 1024 kBit/s
Quality : High
Add ID3 tag : No
Command line compressor : C:\Program Files (x86)\Exact Audio Copy\FLAC\FLAC.EXE
Additional command line options : -8 -e -p -V -T "ARTIST=%artist%" -T "TITLE=%title%" -T "ALBUM=%albumtitle%" -T "DATE=%year%" -T "TRACKNUMBER=%tracknr%" -T "GENRE=%genre%" -T "PERFORMER=%albuminterpret%" -T "COMPOSER=%composer%" %haslyrics%–tag-from-file=LYRICS="%lyricsfile%"%haslyrics% -T "ALBUMARTIST=%albumartist%" -T "DISCNUMBER=%cdnumber%" -T "TOTALDISCS=%totalcds%" -T "TOTALTRACKS=%numtracks%" -T "COMMENT=%comment%" %source% -o %dest%


TOC of the extracted CD

Track | Start | Length | Start sector | End sector
––––––––––––––––––––––––––––-
1 | 0:00.00 | 3:44.56 | 0 | 16855
2 | 3:44.56 | 2:38.67 | 16856 | 28772
3 | 6:23.48 | 4:29.44 | 28773 | 48991
4 | 10:53.17 | 1:04.04 | 48992 | 53795
5 | 11:57.21 | 1:45.65 | 53796 | 61735
6 | 13:43.11 | 1:13.47 | 61736 | 67257
7 | 14:56.58 | 2:18.24 | 67258 | 77631
8 | 17:15.07 | 7:45.28 | 77632 | 112534
9 | 25:00.35 | 3:41.20 | 112535 | 129129
10 | 28:41.55 | 9:25.62 | 129130 | 171566
11 | 38:07.42 | 5:13.66 | 171567 | 195107
12 | 43:21.33 | 4:14.26 | 195108 | 214183
13 | 47:35.59 | 12:58.00 | 214184 | 272533
14 | 60:33.59 | 4:10.67 | 272534 | 291350
15 | 64:44.51 | 8:34.58 | 291351 | 329958


Track 1

Filename E:\01Music\VA - Best Violin 50 (2011) [FLAC]\CD 1\01 The Four Seasons, Concerto No. 1 in E, RV 269 'La primavera Spring' (Op.8 No. 1)- I. Allegro.wav

Pre-gap length 0:00:02.00

Peak level 77.7 %
Extraction speed 1.1 X
Track quality 99.9 %
Test CRC AB206808
Copy CRC AB206808
Accurately ripped (confidence 3) [3C75FDFD] (AR v2)
Copy OK

Track 2

Filename E:\01Music\VA - Best Violin 50 (2011) [FLAC]\CD 1\02 The Four Seasons, Concerto No. 1 in E, RV 269 'La primavera Spring' (Op.8 No. 1)- II. Largo.wav

Peak level 34.2 %
Extraction speed 1.2 X
Track quality 100.0 %
Test CRC B85DA203
Copy CRC B85DA203
Accurately ripped (confidence 3) [45E3BC3F] (AR v2)
Copy OK

Track 3

Filename E:\01Music\VA - Best Violin 50 (2011) [FLAC]\CD 1\03 The Four Seasons, Concerto No. 1 in E, RV 269 'La primavera Spring' (Op.8 No. 1)- III. Allegro.wav

Peak level 67.3 %
Extraction speed 1.3 X
Track quality 99.9 %
Test CRC 73E2DF1A
Copy CRC 73E2DF1A
Accurately ripped (confidence 3) [DEDD4F87] (AR v2)
Copy OK

Track 4

Filename E:\01Music\VA - Best Violin 50 (2011) [FLAC]\CD 1\04 Violin Sonata No. 2 in A, Op. 2 No. 2- I. Preludio a capriccio (Presto - Adagio - Presto).wav

Pre-gap length 0:00:03.23

Peak level 52.6 %
Extraction speed 0.8 X
Track quality 99.8 %
Test CRC C044275F
Copy CRC C044275F
Accurately ripped (confidence 3) [915659BF] (AR v2)
Copy OK

Track 5

Filename E:\01Music\VA - Best Violin 50 (2011) [FLAC]\CD 1\05 Violin Sonata No. 2 in A, Op. 2 No. 2- II. Corrente (Allegro).wav

Peak level 35.0 %
Extraction speed 1.3 X
Track quality 100.0 %
Test CRC 743C2FE4
Copy CRC 743C2FE4
Accurately ripped (confidence 3) [3598ACBC] (AR v2)
Copy OK

Track 6

Filename E:\01Music\VA - Best Violin 50 (2011) [FLAC]\CD 1\06 Violin Sonata No. 2 in A, Op. 2 No. 2- III. Adagio.wav

Peak level 43.1 %
Extraction speed 1.2 X
Track quality 100.0 %
Test CRC F88475B1
Copy CRC F88475B1
Accurately ripped (confidence 3) [01DD67B3] (AR v2)
Copy OK

Track 7

Filename E:\01Music\VA - Best Violin 50 (2011) [FLAC]\CD 1\07 Violin Sonata No. 2 in A, Op. 2 No. 2- IV. Giga (Allegro).wav

Peak level 50.0 %
Extraction speed 1.5 X
Track quality 100.0 %
Test CRC C9CAE100
Copy CRC C9CAE100
Accurately ripped (confidence 3) [12E61095] (AR v2)
Copy OK

Track 8

Filename E:\01Music\VA - Best Violin 50 (2011) [FLAC]\CD 1\08 Violin Sonata in G minor ''Il trillo del diavolo''- III. Grave-Allegro assai- Cadenza - Adagio.wav

Pre-gap length 0:00:04.51

Peak level 65.4 %
Extraction speed 1.9 X
Track quality 100.0 %
Test CRC 450F276C
Copy CRC 450F276C
Accurately ripped (confidence 3) [D58DA052] (AR v2)
Copy OK

Track 9

Filename E:\01Music\VA - Best Violin 50 (2011) [FLAC]\CD 1\09 String Quintet in E major Op. 13 No. 5 Minuetto in A.wav

Pre-gap length 0:00:04.06

Peak level 47.1 %
Extraction speed 1.9 X
Track quality 100.0 %
Test CRC 85D7355B
Copy CRC 85D7355B
Accurately ripped (confidence 3) [5D11313D] (AR v2)
Copy OK

Track 10

Filename E:\01Music\VA - Best Violin 50 (2011) [FLAC]\CD 1\10 ''La Follia,'' Op. 5 No. 12.wav

Pre-gap length 0:00:03.40

Peak level 56.8 %
Extraction speed 2.2 X
Track quality 100.0 %
Test CRC A6C5D5A2
Copy CRC A6C5D5A2
Accurately ripped (confidence 3) [6005A01D] (AR v2)
Copy OK

Track 11

Filename E:\01Music\VA - Best Violin 50 (2011) [FLAC]\CD 1\11 Brandenburg Concerto No. 5 in D BWV1050- III. Allegro.wav

Pre-gap length 0:00:06.56

Peak level 71.4 %
Extraction speed 2.2 X
Track quality 100.0 %
Test CRC BB14D7C5
Copy CRC BB14D7C5
Accurately ripped (confidence 3) [28FFC1AF] (AR v2)
Copy OK

Track 12

Filename E:\01Music\VA - Best Violin 50 (2011) [FLAC]\CD 1\12 Violin Concerto in A minor, BWV 1041- I. [Allegro].wav

Pre-gap length 0:00:04.37

Peak level 76.5 %
Extraction speed 2.3 X
Track quality 100.0 %
Test CRC A6D2BCC7
Copy CRC A6D2BCC7
Accurately ripped (confidence 3) [4D458203] (AR v2)
Copy OK

Track 13

Filename E:\01Music\VA - Best Violin 50 (2011) [FLAC]\CD 1\13 3 Sonatas & 3 Partitas, BWV 1001-1006, Partita No. 2 in D Minor, BWV 1004- V. Chaconne.wav

Pre-gap length 0:00:04.61

Peak level 61.8 %
Extraction speed 2.6 X
Track quality 100.0 %
Test CRC CE3CD893
Copy CRC CE3CD893
Accurately ripped (confidence 3) [1A877481] (AR v2)
Copy OK

Track 14

Filename E:\01Music\VA - Best Violin 50 (2011) [FLAC]\CD 1\14 Violin Sonata in B flat K378- III. Rondo - Allegro.wav

Pre-gap length 0:00:04.40

Peak level 89.3 %
Extraction speed 2.5 X
Track quality 100.0 %
Test CRC 05B8244A
Copy CRC 05B8244A
Accurately ripped (confidence 3) [4F0CB0D6] (AR v2)
Copy OK

Track 15

Filename E:\01Music\VA - Best Violin 50 (2011) [FLAC]\CD 1\15 Violin Concerto No. 5 in A Major, K.219 'Turkish'- III. Rondeau (Tempo di menuetto - Allegro).wav

Pre-gap length 0:00:02.38

Peak level 98.6 %
Extraction speed 2.8 X
Track quality 100.0 %
Test CRC A0565ED0
Copy CRC A0565ED0
Accurately ripped (confidence 3) [D2669B7A] (AR v2)
Copy OK


All tracks accurately ripped

No errors occurred

End of status report

–– CUETools DB Plugin V2.1.6

[CTDB TOCID: ALTK08PTs9J2g2gYN52i9apmcT8-] found
Submit result: ALTK08PTs9J2g2gYN52i9apmcT8- has been confirmed
Track | CTDB Status
1 | (5/5) Accurately ripped
2 | (5/5) Accurately ripped
3 | (5/5) Accurately ripped
4 | (5/5) Accurately ripped
5 | (5/5) Accurately ripped
6 | (5/5) Accurately ripped
7 | (5/5) Accurately ripped
8 | (5/5) Accurately ripped
9 | (5/5) Accurately ripped
10 | (5/5) Accurately ripped
11 | (5/5) Accurately ripped
12 | (5/5) Accurately ripped
13 | (5/5) Accurately ripped
14 | (5/5) Accurately ripped
15 | (5/5) Accurately ripped


==== Log checksum 896F26AE32BB73F90243D0B9DD0F4E11C00D47CFD2EF2B9A10E1107BBF31E8C6 ====

Exact Audio Copy V1.3 from 2. September 2016

EAC extraction logfile from 15. April 2018, 12:38

Various / 50 Best Violin Disc 2

Used drive : Memorex MRX-650LE v7 Adapter: 1 ID: 0

Read mode : Secure
Utilize accurate stream : Yes
Defeat audio cache : Yes
Make use of C2 pointers : No

Read offset correction : 6
Overread into Lead-In and Lead-Out : No
Fill up missing offset samples with silence : Yes
Delete leading and trailing silent blocks : No
Null samples used in CRC calculations : Yes
Used interface : Native Win32 interface for Win NT & 2000
Gap handling : Appended to previous track

Used output format : User Defined Encoder
Selected bitrate : 1024 kBit/s
Quality : High
Add ID3 tag : No
Command line compressor : C:\Program Files (x86)\Exact Audio Copy\FLAC\FLAC.EXE
Additional command line options : -8 -e -p -V -T "ARTIST=%artist%" -T "TITLE=%title%" -T "ALBUM=%albumtitle%" -T "DATE=%year%" -T "TRACKNUMBER=%tracknr%" -T "GENRE=%genre%" -T "PERFORMER=%albuminterpret%" -T "COMPOSER=%composer%" %haslyrics%–tag-from-file=LYRICS="%lyricsfile%"%haslyrics% -T "ALBUMARTIST=%albumartist%" -T "DISCNUMBER=%cdnumber%" -T "TOTALDISCS=%totalcds%" -T "TOTALTRACKS=%numtracks%" -T "COMMENT=%comment%" %source% -o %dest%


TOC of the extracted CD

Track | Start | Length | Start sector | End sector
––––––––––––––––––––––––––––-
1 | 0:00.00 | 4:30.16 | 0 | 20265
2 | 4:30.16 | 6:34.15 | 20266 | 49830
3 | 11:04.31 | 4:06.53 | 49831 | 68333
4 | 15:11.09 | 3:29.29 | 68334 | 84037
5 | 18:40.38 | 5:04.02 | 84038 | 106839
6 | 23:44.40 | 8:35.16 | 106840 | 145480
7 | 32:19.56 | 8:00.04 | 145481 | 181484
8 | 40:19.60 | 8:58.20 | 181485 | 221854
9 | 49:18.05 | 5:32.55 | 221855 | 246809
10 | 54:50.60 | 8:45.12 | 246810 | 286196
11 | 63:35.72 | 3:19.70 | 286197 | 301191
12 | 66:55.67 | 7:40.46 | 301192 | 335737
13 | 74:36.38 | 3:24.01 | 335738 | 351038


Track 1

Filename E:\01Music\VA - Best Violin 50 (2011) [FLAC]\CD 2\01 Romances- No. 1 in G, Op.40 (c1802).wav

Pre-gap length 0:00:02.00

Peak level 82.2 %
Extraction speed 2.6 X
Track quality 99.9 %
Test CRC 00BBD80D
Copy CRC 00BBD80D
Accurately ripped (confidence 3) [7E242A14] (AR v2)
Copy OK

Track 2

Filename E:\01Music\VA - Best Violin 50 (2011) [FLAC]\CD 2\02 Violin Concerto in D Op. 61 (cadenzas by Vasa Prihoda)- I. Allegro ma non troppo.wav

Pre-gap length 0:00:04.03

Peak level 99.9 %
Extraction speed 3.5 X
Track quality 100.0 %
Test CRC D6FE2EE0
Copy CRC D6FE2EE0
Accurately ripped (confidence 3) [77644A52] (AR v2)
Copy OK

Track 3

Filename E:\01Music\VA - Best Violin 50 (2011) [FLAC]\CD 2\03 Violin Concerto in D Op. 61 (cadenzas by Vasa Prihoda)- I. Allegro ma non troppo.wav

Pre-gap length 0:00:04.21

Peak level 81.2 %
Extraction speed 3.7 X
Track quality 100.0 %
Test CRC 06E6A994
Copy CRC 06E6A994
Accurately ripped (confidence 3) [3C9B4B91] (AR v2)
Copy OK

Track 4

Filename E:\01Music\VA - Best Violin 50 (2011) [FLAC]\CD 2\04 Violin Concerto in D Op. 61 (cadenzas by Vasa Prihoda)- II. Larghetto.wav

Pre-gap length 0:00:02.66

Peak level 41.2 %
Extraction speed 3.7 X
Track quality 100.0 %
Test CRC 2678D514
Copy CRC 2678D514
Accurately ripped (confidence 3) [3E798E7B] (AR v2)
Copy OK

Track 5

Filename E:\01Music\VA - Best Violin 50 (2011) [FLAC]\CD 2\05 Violin Concerto in D Op. 61 (cadenzas by Vasa Prihoda)- III. Rondo (Allegro).wav

Pre-gap length 0:00:01.57

Peak level 93.0 %
Extraction speed 4.2 X
Track quality 100.0 %
Test CRC F3677B3A
Copy CRC F3677B3A
Accurately ripped (confidence 3) [E346B308] (AR v2)
Copy OK

Track 6

Filename E:\01Music\VA - Best Violin 50 (2011) [FLAC]\CD 2\06 Violin Concerto in D Major, Op.77- II. Allegro giocoso, ma non troppo vivace (Cadenza by Kreisler).wav

Pre-gap length 0:00:04.47

Peak level 99.9 %
Extraction speed 4.8 X
Track quality 100.0 %
Test CRC EB8E9FA9
Copy CRC EB8E9FA9
Accurately ripped (confidence 3) [D750B6F9] (AR v2)
Copy OK

Track 7

Filename E:\01Music\VA - Best Violin 50 (2011) [FLAC]\CD 2\07 Violin Concerto in E Minor, Op.64- II. Andante.wav

Pre-gap length 0:00:03.44

Peak level 90.6 %
Extraction speed 4.6 X
Track quality 99.9 %
Test CRC AF02DB10
Copy CRC AF02DB10
Accurately ripped (confidence 3) [2835C81C] (AR v2)
Copy OK

Track 8

Filename E:\01Music\VA - Best Violin 50 (2011) [FLAC]\CD 2\08 Introduction and Rondo capriccioso for Violin and Orchestra, Op. 28.wav

Pre-gap length 0:00:05.19

Peak level 97.9 %
Extraction speed 5.5 X
Track quality 100.0 %
Test CRC F4A775DA
Copy CRC F4A775DA
Accurately ripped (confidence 3) [9CE62CBA] (AR v2)
Copy OK

Track 9

Filename E:\01Music\VA - Best Violin 50 (2011) [FLAC]\CD 2\09 Thaïs- Méditation from ''Thaïs''.wav

Pre-gap length 0:00:03.13

Peak level 98.0 %
Extraction speed 5.6 X
Track quality 100.0 %
Test CRC 6D90966B
Copy CRC 6D90966B
Accurately ripped (confidence 3) [69A7E41B] (AR v2)
Copy OK

Track 10

Filename E:\01Music\VA - Best Violin 50 (2011) [FLAC]\CD 2\10 Concerto for violin and orchestra No. 1 in G minor Op. 26- Second movement- Adagio.wav

Pre-gap length 0:00:04.32

Peak level 81.3 %
Extraction speed 6.0 X
Track quality 100.0 %
Test CRC B3122DAA
Copy CRC B3122DAA
Accurately ripped (confidence 3) [44910974] (AR v2)
Copy OK

Track 11

Filename E:\01Music\VA - Best Violin 50 (2011) [FLAC]\CD 2\11 Salut d'amour Op. 12.wav

Pre-gap length 0:00:04.63

Peak level 38.2 %
Extraction speed 5.6 X
Track quality 100.0 %
Test CRC 1E21D795
Copy CRC 1E21D795
Accurately ripped (confidence 3) [77CC3EEB] (AR v2)
Copy OK

Track 12

Filename E:\01Music\VA - Best Violin 50 (2011) [FLAC]\CD 2\12 Violin Concerto in D minor Op. 47- III. Allegro ma non tanto.wav

Pre-gap length 0:00:02.02

Peak level 99.8 %
Extraction speed 6.4 X
Track quality 100.0 %
Test CRC 7D5C30F0
Copy CRC 7D5C30F0
Accurately ripped (confidence 3) [46AF5EA7] (AR v2)
Copy OK

Track 13

Filename E:\01Music\VA - Best Violin 50 (2011) [FLAC]\CD 2\13 Berceuse Op. 16.wav

Pre-gap length 0:00:03.61

Peak level 46.8 %
Extraction speed 5.9 X
Track quality 100.0 %
Test CRC 834340C3
Copy CRC 834340C3
Accurately ripped (confidence 3) [5483C213] (AR v2)
Copy OK


All tracks accurately ripped

No errors occurred

End of status report

–– CUETools DB Plugin V2.1.6

[CTDB TOCID: fyJ9u4WO195hQjSE_i149F7O8PA-] found
Submit result: fyJ9u4WO195hQjSE_i149F7O8PA- has been confirmed
Track | CTDB Status
1 | (5/5) Accurately ripped
2 | (5/5) Accurately ripped
3 | (5/5) Accurately ripped
4 | (5/5) Accurately ripped
5 | (5/5) Accurately ripped
6 | (5/5) Accurately ripped
7 | (5/5) Accurately ripped
8 | (5/5) Accurately ripped
9 | (5/5) Accurately ripped
10 | (5/5) Accurately ripped
11 | (5/5) Accurately ripped
12 | (5/5) Accurately ripped
13 | (5/5) Accurately ripped


==== Log checksum 5D46BF95BFFB002952860D3E4674FA32BBE2D32D85D02BEAD4BA8A1B9EBE466F ====

Exact Audio Copy V1.3 from 2. September 2016

EAC extraction logfile from 15. April 2018, 14:49

Various Artists / Best Violin 50 Disc 3

Used drive : Memorex MRX-650LE v7 Adapter: 1 ID: 0

Read mode : Secure
Utilize accurate stream : Yes
Defeat audio cache : Yes
Make use of C2 pointers : No

Read offset correction : 6
Overread into Lead-In and Lead-Out : No
Fill up missing offset samples with silence : Yes
Delete leading and trailing silent blocks : No
Null samples used in CRC calculations : Yes
Used interface : Native Win32 interface for Win NT & 2000
Gap handling : Appended to previous track

Used output format : User Defined Encoder
Selected bitrate : 1024 kBit/s
Quality : High
Add ID3 tag : No
Command line compressor : C:\Program Files (x86)\Exact Audio Copy\FLAC\FLAC.EXE
Additional command line options : -8 -e -p -V -T "ARTIST=%artist%" -T "TITLE=%title%" -T "ALBUM=%albumtitle%" -T "DATE=%year%" -T "TRACKNUMBER=%tracknr%" -T "GENRE=%genre%" -T "PERFORMER=%albuminterpret%" -T "COMPOSER=%composer%" %haslyrics%–tag-from-file=LYRICS="%lyricsfile%"%haslyrics% -T "ALBUMARTIST=%albumartist%" -T "DISCNUMBER=%cdnumber%" -T "TOTALDISCS=%totalcds%" -T "TOTALTRACKS=%numtracks%" -T "COMMENT=%comment%" %source% -o %dest%


TOC of the extracted CD

Track | Start | Length | Start sector | End sector
––––––––––––––––––––––––––––-
1 | 0:00.00 | 5:29.65 | 0 | 24739
2 | 5:29.65 | 3:08.40 | 24740 | 38879
3 | 8:38.30 | 4:30.58 | 38880 | 59187
4 | 13:09.13 | 3:20.54 | 59188 | 74241
5 | 16:29.67 | 3:03.53 | 74242 | 88019
6 | 19:33.45 | 2:20.03 | 88020 | 98522
7 | 21:53.48 | 1:19.68 | 98523 | 104515
8 | 23:13.41 | 5:58.13 | 104516 | 131378
9 | 29:11.54 | 3:17.32 | 131379 | 146185
10 | 32:29.11 | 2:31.34 | 146186 | 157544
11 | 35:00.45 | 5:29.66 | 157545 | 182285
12 | 40:30.36 | 3:34.17 | 182286 | 198352
13 | 44:04.53 | 1:59.32 | 198353 | 207309
14 | 46:04.10 | 2:55.55 | 207310 | 220489
15 | 48:59.65 | 3:26.65 | 220490 | 236004
16 | 52:26.55 | 2:41.73 | 236005 | 248152
17 | 55:08.53 | 5:09.07 | 248153 | 271334
18 | 60:17.60 | 5:21.40 | 271335 | 295449
19 | 65:39.25 | 4:57.40 | 295450 | 317764
20 | 70:36.65 | 3:00.34 | 317765 | 331298
21 | 73:37.24 | 3:16.21 | 331299 | 346019
22 | 76:53.45 | 1:53.42 | 346020 | 354536


Track 1

Filename E:\01Music\VA - Best Violin 50 (2011) [FLAC]\CD 3\01 Bazzini- La ronde des lutins, Op.25- Scherzo fantastique.wav

Pre-gap length 0:00:02.00

Peak level 99.8 %
Extraction speed 1.4 X
Track quality 100.0 %
Test CRC D1241C2E
Copy CRC D1241C2E
Accurately ripped (confidence 3) [8EF99ADB] (AR v2)
Copy OK

Track 2

Filename E:\01Music\VA - Best Violin 50 (2011) [FLAC]\CD 3\02 Dvorák- Humoresques, Op.101, B187 n.7 in G♭.wav

Pre-gap length 0:00:01.22

Peak level 81.8 %
Extraction speed 1.2 X
Track quality 99.9 %
Test CRC 7842D1AA
Copy CRC 7842D1AA
Accurately ripped (confidence 3) [CB18F38D] (AR v2)
Copy OK

Track 3

Filename E:\01Music\VA - Best Violin 50 (2011) [FLAC]\CD 3\03 Paganini- Caprice for Violin Solo, Op.1 n.24 in A minor.wav

Pre-gap length 0:00:02.11

Peak level 47.1 %
Extraction speed 1.6 X
Track quality 100.0 %
Test CRC AD443A8D
Copy CRC AD443A8D
Accurately ripped (confidence 3) [DCA60218] (AR v2)
Copy OK

Track 4

Filename E:\01Music\VA - Best Violin 50 (2011) [FLAC]\CD 3\04 Rossini- Andante & Variations for Violin & Piano.wav

Pre-gap length 0:00:04.26

Peak level 89.0 %
Extraction speed 1.6 X
Track quality 100.0 %
Test CRC 35D2F8B6
Copy CRC 35D2F8B6
Accurately ripped (confidence 2) [C67C4E4C] (AR v2)
Copy OK

Track 5

Filename E:\01Music\VA - Best Violin 50 (2011) [FLAC]\CD 3\05 Kreisler- La Gitarra.wav

Pre-gap length 0:00:01.49

Peak level 97.8 %
Extraction speed 1.7 X
Track quality 100.0 %
Test CRC 368163F2
Copy CRC 368163F2
Accurately ripped (confidence 3) [A218791E] (AR v2)
Copy OK

Track 6

Filename E:\01Music\VA - Best Violin 50 (2011) [FLAC]\CD 3\06 Khachaturian- Gayaneh- Sabre Dance.wav

Pre-gap length 0:00:02.04

Peak level 72.4 %
Extraction speed 1.6 X
Track quality 100.0 %
Test CRC 79C1A667
Copy CRC 79C1A667
Accurately ripped (confidence 3) [086F5E62] (AR v2)
Copy OK

Track 7

Filename E:\01Music\VA - Best Violin 50 (2011) [FLAC]\CD 3\07 Rimsky-Korsakov- Tale of Tsar Saltan- Suite, Op. 57 - ''Flight of the Bumblebee''.wav

Pre-gap length 0:00:03.13

Peak level 93.0 %
Extraction speed 1.5 X
Track quality 100.0 %
Test CRC EC704FE8
Copy CRC EC704FE8
Accurately ripped (confidence 3) [77DEC83A] (AR v2)
Copy OK

Track 8

Filename E:\01Music\VA - Best Violin 50 (2011) [FLAC]\CD 3\08 Wieniawski- Polonaise brillante for Violin & Piano no.1 in D, Op.4.wav

Pre-gap length 0:00:02.03

Peak level 86.0 %
Extraction speed 2.0 X
Track quality 100.0 %
Test CRC 6B206D40
Copy CRC 6B206D40
Accurately ripped (confidence 13) [C8D25B78] (AR v2)
Copy OK

Track 9

Filename E:\01Music\VA - Best Violin 50 (2011) [FLAC]\CD 3\09 Kreisler- Liebefround.wav

Pre-gap length 0:00:00.70

Peak level 83.9 %
Extraction speed 2.0 X
Track quality 100.0 %
Test CRC AD6C99DA
Copy CRC AD6C99DA
Accurately ripped (confidence 3) [4CB827E7] (AR v2)
Copy OK

Track 10

Filename E:\01Music\VA - Best Violin 50 (2011) [FLAC]\CD 3\10 Brahms- Hungarian Dance No5.wav

Pre-gap length 0:00:02.61

Peak level 90.1 %
Extraction speed 2.0 X
Track quality 100.0 %
Test CRC BB9A4314
Copy CRC BB9A4314
Accurately ripped (confidence 3) [BD19088E] (AR v2)
Copy OK

Track 11

Filename E:\01Music\VA - Best Violin 50 (2011) [FLAC]\CD 3\11 Tchaikovsky- Valse-Scherzo in C, Op.34.wav

Pre-gap length 0:00:01.00

Peak level 65.2 %
Extraction speed 2.3 X
Track quality 100.0 %
Test CRC 73BFF3FD
Copy CRC 73BFF3FD
Accurately ripped (confidence 13) [F90064E5] (AR v2)
Copy OK

Track 12

Filename E:\01Music\VA - Best Violin 50 (2011) [FLAC]\CD 3\12 Sarasate- Spanish Dances, Op.23 n.2 ''Zapateada''.wav

Pre-gap length 0:00:03.04

Peak level 65.3 %
Extraction speed 2.2 X
Track quality 100.0 %
Test CRC 14B8B42F
Copy CRC 14B8B42F
Accurately ripped (confidence 3) [1D7B45AA] (AR v2)
Copy OK

Track 13

Filename E:\01Music\VA - Best Violin 50 (2011) [FLAC]\CD 3\13 Kreisler- Schön Rosmarin.wav

Pre-gap length 0:00:04.49

Peak level 63.4 %
Extraction speed 2.0 X
Track quality 100.0 %
Test CRC B3B59185
Copy CRC B3B59185
Accurately ripped (confidence 13) [E2C146AD] (AR v2)
Copy OK

Track 14

Filename E:\01Music\VA - Best Violin 50 (2011) [FLAC]\CD 3\14 Josef Suk- Pieces for Violin & Piano, Op.17 n.4- Burlesca.wav

Pre-gap length 0:00:03.52

Peak level 61.7 %
Extraction speed 2.3 X
Track quality 100.0 %
Test CRC 2E7783F4
Copy CRC 2E7783F4
Accurately ripped (confidence 3) [50CD273F] (AR v2)
Copy OK

Track 15

Filename E:\01Music\VA - Best Violin 50 (2011) [FLAC]\CD 3\15 Falla- La vida breve- Dance espagnole.wav

Pre-gap length 0:00:02.50

Peak level 98.8 %
Extraction speed 2.4 X
Track quality 100.0 %
Test CRC 1E266C7F
Copy CRC 1E266C7F
Accurately ripped (confidence 3) [4B771E4C] (AR v2)
Copy OK

Track 16

Filename E:\01Music\VA - Best Violin 50 (2011) [FLAC]\CD 3\16 R.Shchedrin- Balalaika, Op.100.wav

Pre-gap length 0:00:01.01

Peak level 91.7 %
Extraction speed 1.9 X
Track quality 99.9 %
Test CRC 0FD1FFE6
Copy CRC 0FD1FFE6
Accurately ripped (confidence 13) [A1C0DD47] (AR v2)
Copy OK

Track 17

Filename E:\01Music\VA - Best Violin 50 (2011) [FLAC]\CD 3\17 Schubert- Ellens Gesang III, D.839, Op.52 n.6- ''Ave Maria''.wav

Pre-gap length 0:00:02.11

Peak level 88.5 %
Extraction speed 2.4 X
Track quality 99.9 %
Test CRC 414E0DF6
Copy CRC 414E0DF6
Accurately ripped (confidence 13) [7426041E] (AR v2)
Copy OK

Track 18

Filename E:\01Music\VA - Best Violin 50 (2011) [FLAC]\CD 3\18 Sarasate- Introduction & Tarantella Op.43.wav

Pre-gap length 0:00:00.61

Peak level 81.1 %
Extraction speed 2.8 X
Track quality 100.0 %
Test CRC FC3B0304
Copy CRC FC3B0304
Accurately ripped (confidence 12) [B57ACFB6] (AR v2)
Copy OK

Track 19

Filename E:\01Music\VA - Best Violin 50 (2011) [FLAC]\CD 3\19 Kreisler- Preludium & Allegro in style of Pugnani.wav

Pre-gap length 0:00:02.17

Peak level 65.9 %
Extraction speed 2.8 X
Track quality 100.0 %
Test CRC 006BE5DA
Copy CRC 006BE5DA
Accurately ripped (confidence 3) [2AAE0FD8] (AR v2)
Copy OK

Track 20

Filename E:\01Music\VA - Best Violin 50 (2011) [FLAC]\CD 3\20 Vittorio Monti- Csárdás.wav

Pre-gap length 0:00:04.56

Peak level 98.8 %
Extraction speed 2.6 X
Track quality 100.0 %
Test CRC 7AF9DE62
Copy CRC 7AF9DE62
Accurately ripped (confidence 3) [4BA2611F] (AR v2)
Copy OK

Track 21

Filename E:\01Music\VA - Best Violin 50 (2011) [FLAC]\CD 3\21 Paganini- Moto perpetuo in C, Op.11.wav

Pre-gap length 0:00:03.32

Peak level 67.2 %
Extraction speed 2.8 X
Track quality 100.0 %
Test CRC 79D21974
Copy CRC 79D21974
Accurately ripped (confidence 3) [5C9A2E2B] (AR v2)
Copy OK

Track 22

Filename E:\01Music\VA - Best Violin 50 (2011) [FLAC]\CD 3\22 Grigoras Dinicu- Hora staccata.wav

Pre-gap length 0:00:02.69

Peak level 58.0 %
Extraction speed 2.0 X
Track quality 99.9 %
Test CRC 0D5A3AE9
Copy CRC 0D5A3AE9
Accurately ripped (confidence 3) [60104662] (AR v2)
Copy OK


All tracks accurately ripped

No errors occurred

End of status report

–– CUETools DB Plugin V2.1.6

[CTDB TOCID: 06te4ba4ENlO7HCCpxmXc3_gBTQ-] found
Submit result: 06te4ba4ENlO7HCCpxmXc3_gBTQ- has been confirmed
Track | CTDB Status
1 | ( 5/24) Accurately ripped
2 | ( 5/24) Accurately ripped
3 | ( 5/24) Accurately ripped
4 | ( 4/24) Accurately ripped
5 | ( 5/24) Accurately ripped
6 | ( 5/24) Accurately ripped
7 | ( 5/24) Accurately ripped
8 | (24/24) Accurately ripped
9 | ( 5/24) Accurately ripped
10 | ( 5/24) Accurately ripped
11 | (24/24) Accurately ripped
12 | ( 5/24) Accurately ripped
13 | (24/24) Accurately ripped
14 | ( 5/24) Accurately ripped
15 | ( 5/24) Accurately ripped
16 | (24/24) Accurately ripped
17 | (24/24) Accurately ripped
18 | (24/24) Accurately ripped
19 | ( 5/24) Accurately ripped
20 | ( 5/24) Accurately ripped
21 | ( 5/24) Accurately ripped
22 | ( 5/24) Accurately ripped


==== Log checksum 6DF8797C2B71D02331912E2E2469E2E945DAE15DCCEAA4154A8E90A1B3F833F0 ====


Thanks to the Original customer.