Subcategories

Various Artists - Children Of Pepper (2017)

Posted By: delpotro
Various Artists - Children Of Pepper (2017)

Various Artists - Children Of Pepper (2017)
EAC Rip | FLAC (tracks+log+.cue) | 00:58:24 | 370 Mb
Psychedelic Rock, Garage Rock | Label: 23 Ears, Mojo June 2017

MOJO celebrates the 50th Birthday of The Beatles’ Sgt. Pepper’s Lonely Hearts Club Band – rebooted in 2017 with a thrilling new stereo mix. On this Cd you can find 15 cracking tracks from the Beatles’ psychedelic offspring. Including Ty Segall, Apples In Stereo, Pond, Thee Oh Sees and The Moonlandingz.
Tracklist:
1. Ty Segall - The Clock
2. Dutch Uncles - Big Balloon
3. Sic Alps - Moviehead
4. Gap Dream - Shine Your Light
5. The Sunshine Fix - Future History And The Irrelevance Of Time
6. Sundowners - Ritual
7. Pond - 30000 Megatons
8. Thee Oh Sees - The Lens
9. The Apples In Stereo - Strawberryfire
10. The Essex Green - Primrose
11. The Frowning Clouds - Inner Circle
12. Cosmonauts - Vanilla
13. Gnoomes - Cascais
14. The Moonlandingz - Sweet Saturn Mine
15. Pictish Trail - Strange Sun

Exact Audio Copy V1.1 from 23. June 2015

EAC extraction logfile from 21. April 2017, 11:34

Various Artists / Children Of Pepper

Used drive : hp DVDRW SU208FB Adapter: 1 ID: 0

Read mode : Secure
Utilize accurate stream : Yes
Defeat audio cache : Yes
Make use of C2 pointers : No

Read offset correction : 6
Overread into Lead-In and Lead-Out : No
Fill up missing offset samples with silence : Yes
Delete leading and trailing silent blocks : No
Null samples used in CRC calculations : Yes
Used interface : Native Win32 interface for Win NT & 2000
Gap handling : Appended to previous track

Used output format : User Defined Encoder
Selected bitrate : 1024 kBit/s
Quality : High
Add ID3 tag : No
Command line compressor : C:\Program Files (x86)\Exact Audio Copy\FLAC\flac.exe
Additional command line options : -8 -e -V -T "ARTIST=%artist%" -T "TITLE=%title%" -T "ALBUM=%albumtitle%" -T "DATE=%year%" -T "TRACKNUMBER=%tracknr%" -T "GENRE=%genre%" -T "PERFORMER=%albuminterpret%" -T "COMPOSER=%composer%" %haslyrics%–tag-from-file=LYRICS="%lyricsfile%"%haslyrics% -T "ALBUMARTIST=%albumartist%" -T "DISCNUMBER=%cdnumber%" -T "TOTALDISCS=%totalcds%" -T "TOTALTRACKS=%numtracks%" -T "COMMENT=%comment%" %source% -o %dest%


TOC of the extracted CD

Track | Start | Length | Start sector | End sector
––––––––––––––––––––––––––––-
1 | 0:00.00 | 2:54.07 | 0 | 13056
2 | 2:54.07 | 3:15.56 | 13057 | 27737
3 | 6:09.63 | 2:54.35 | 27738 | 40822
4 | 9:04.23 | 4:40.00 | 40823 | 61822
5 | 13:44.23 | 3:14.21 | 61823 | 76393
6 | 16:58.44 | 3:24.61 | 76394 | 91754
7 | 20:23.30 | 4:03.20 | 91755 | 109999
8 | 24:26.50 | 2:36.45 | 110000 | 121744
9 | 27:03.20 | 4:27.29 | 121745 | 141798
10 | 31:30.49 | 3:54.54 | 141799 | 159402
11 | 35:25.28 | 2:27.07 | 159403 | 170434
12 | 37:52.35 | 4:52.17 | 170435 | 192351
13 | 42:44.52 | 4:51.67 | 192352 | 214243
14 | 47:36.44 | 3:48.54 | 214244 | 231397
15 | 51:25.23 | 6:59.01 | 231398 | 262823


Track 1

Filename F:\Various Artists\Various Artists - Children Of Pepper (2017)(Mojo, June 2017)[CD FLAC]\01 Ty Segall The Clock.wav

Pre-gap length 0:00:02.00

Peak level 100.0 %
Extraction speed 2.0 X
Track quality 100.0 %
Test CRC CA24D007
Copy CRC CA24D007
Track not present in AccurateRip database
Copy OK

Track 2

Filename F:\Various Artists\Various Artists - Children Of Pepper (2017)(Mojo, June 2017)[CD FLAC]\02 Dutch Uncles Big Balloon.wav

Peak level 97.7 %
Extraction speed 2.2 X
Track quality 100.0 %
Test CRC AB91F68F
Copy CRC AB91F68F
Track not present in AccurateRip database
Copy OK

Track 3

Filename F:\Various Artists\Various Artists - Children Of Pepper (2017)(Mojo, June 2017)[CD FLAC]\03 Sic Alps Moviehead.wav

Peak level 100.0 %
Extraction speed 2.3 X
Track quality 100.0 %
Test CRC DC5CE167
Copy CRC DC5CE167
Track not present in AccurateRip database
Copy OK

Track 4

Filename F:\Various Artists\Various Artists - Children Of Pepper (2017)(Mojo, June 2017)[CD FLAC]\04 Gap Dream Shine Your Light.wav

Peak level 97.7 %
Extraction speed 2.7 X
Track quality 100.0 %
Test CRC 9CBAB51A
Copy CRC 9CBAB51A
Track not present in AccurateRip database
Copy OK

Track 5

Filename F:\Various Artists\Various Artists - Children Of Pepper (2017)(Mojo, June 2017)[CD FLAC]\05 The Sunshine Fix Future History And The Irrelevance Of Time.wav

Peak level 96.6 %
Extraction speed 2.8 X
Track quality 100.0 %
Test CRC 67ADE9DA
Copy CRC 67ADE9DA
Track not present in AccurateRip database
Copy OK

Track 6

Filename F:\Various Artists\Various Artists - Children Of Pepper (2017)(Mojo, June 2017)[CD FLAC]\06 Sundowners Ritual.wav

Peak level 99.9 %
Extraction speed 2.1 X
Track quality 99.9 %
Test CRC 5193CAB1
Copy CRC 5193CAB1
Track not present in AccurateRip database
Copy OK

Track 7

Filename F:\Various Artists\Various Artists - Children Of Pepper (2017)(Mojo, June 2017)[CD FLAC]\07 Pond 30000 Megatons.wav

Peak level 93.5 %
Extraction speed 2.9 X
Track quality 100.0 %
Test CRC 1662E479
Copy CRC 1662E479
Track not present in AccurateRip database
Copy OK

Track 8

Filename F:\Various Artists\Various Artists - Children Of Pepper (2017)(Mojo, June 2017)[CD FLAC]\08 Thee Oh Sees The Lens.wav

Peak level 99.9 %
Extraction speed 2.8 X
Track quality 100.0 %
Test CRC F8670F5C
Copy CRC F8670F5C
Track not present in AccurateRip database
Copy OK

Track 9

Filename F:\Various Artists\Various Artists - Children Of Pepper (2017)(Mojo, June 2017)[CD FLAC]\09 The Apples In Stereo Strawberryfire.wav

Peak level 99.9 %
Extraction speed 3.2 X
Track quality 100.0 %
Test CRC D223D246
Copy CRC D223D246
Track not present in AccurateRip database
Copy OK

Track 10

Filename F:\Various Artists\Various Artists - Children Of Pepper (2017)(Mojo, June 2017)[CD FLAC]\10 The Essex Green Primrose.wav

Peak level 82.0 %
Extraction speed 2.8 X
Track quality 99.9 %
Test CRC 5408D19A
Copy CRC 5408D19A
Track not present in AccurateRip database
Copy OK

Track 11

Filename F:\Various Artists\Various Artists - Children Of Pepper (2017)(Mojo, June 2017)[CD FLAC]\11 The Frowning Clouds Inner Circle.wav

Peak level 98.0 %
Extraction speed 3.2 X
Track quality 100.0 %
Test CRC 95ECB9E2
Copy CRC 95ECB9E2
Track not present in AccurateRip database
Copy OK

Track 12

Filename F:\Various Artists\Various Artists - Children Of Pepper (2017)(Mojo, June 2017)[CD FLAC]\12 Cosmonauts Vanilla.wav

Peak level 95.4 %
Extraction speed 3.8 X
Track quality 100.0 %
Test CRC 66A7BBBE
Copy CRC 66A7BBBE
Track not present in AccurateRip database
Copy OK

Track 13

Filename F:\Various Artists\Various Artists - Children Of Pepper (2017)(Mojo, June 2017)[CD FLAC]\13 Gnoomes Cascais.wav

Peak level 97.7 %
Extraction speed 4.0 X
Track quality 100.0 %
Test CRC F1C2768D
Copy CRC F1C2768D
Track not present in AccurateRip database
Copy OK

Track 14

Filename F:\Various Artists\Various Artists - Children Of Pepper (2017)(Mojo, June 2017)[CD FLAC]\14 The Moonlandingz Sweet Saturn Mine.wav

Peak level 100.0 %
Extraction speed 3.2 X
Track quality 99.9 %
Test CRC 1A8E6AE8
Copy CRC 1A8E6AE8
Track not present in AccurateRip database
Copy OK

Track 15

Filename F:\Various Artists\Various Artists - Children Of Pepper (2017)(Mojo, June 2017)[CD FLAC]\15 Pictish Trail Strange Sun.wav

Peak level 99.9 %
Extraction speed 4.3 X
Track quality 100.0 %
Test CRC 13090292
Copy CRC 13090292
Track not present in AccurateRip database
Copy OK


None of the tracks are present in the AccurateRip database

No errors occurred

End of status report

–– CUETools DB Plugin V2.1.6

[CTDB TOCID: fJ.LdTOc_g1CGZbRUNaWgC6isMQ-] disk not present in database
Submit result: fJ.LdTOc_g1CGZbRUNaWgC6isMQ- has been uploaded


==== Log checksum 6A6BCF7E4D8C234637CCC5B37121674EFF6DA81F6780DC6C5C80B37C9B4823A5 ====

Thanks to the Original ripper rubberturd13 !