Subcategories
Tags
Language
Tags

VA - Cold War On The Rocks: Disco And Electronic Music From Finland 1980-1991 (2019)

Posted By: delpotro
VA - Cold War On The Rocks: Disco And Electronic Music From Finland 1980-1991 (2019)

VA - Cold War On The Rocks: Disco And Electronic Music From Finland 1980-1991 (2019)
EAC Rip | FLAC (tracks+log+.cue) - 505 Mb | MP3 CBR 320 kbps - 184 Mb | 01:18:54
Electronic, New Wave, Disco | Label: Svart Records

Cold War On The Rocks presents 20 tracks from the history of Finnish disco and early electronic music. The journey goes from orchestral disco to experimental electronic sounds and back. It includes lone 7” singles from relatively unknown performers, interesting album cuts from artists who are better known in completely different musical genres, and also a few electronic artists whose work is rather underrated.
Tracklist:
1. Jori Sivonen – Jupiter
2. Taiska – Ei Voittajaa
3. Eini – Jossakin, Jos Haluat
4. Esa Mäkelä – Kun Yö On
5. Mika Sundqvist – Tähdenlento
6. Buffalo Soldier – Hi-Jacker
7. Step On The Other Side – The Cold War On The Rocks
8. Biba – This Night Is Like Magic
9. Kain Käärmeenpoika & Kvartsikoirat – Eros – Jumalan Kaltainen
10. Vaarallinen Mutantti – Robotin’ USA
11. Ira Kaspi – Hei Kundi
12. Simo Laiho – Marco Polo
13. Jarmo Juhani – Nuori Inka
14. Digital Dance – Sunshine, Rain Or Moonlight
15. Kaija Koo – Tyhjyys
16. Visual – Big & Beautiful
17. Saigon – Etsin Maailmaa
18. Jokke Seppälä – Galaxin YksinäIset
19. Mad Lindell – Grandmaster Klaus
20. Clifters – Sormus

Exact Audio Copy V1.5 from 20. February 2020

EAC extraction logfile from 12. September 2020, 15:17

Various Artists / Cold War on the Rocks: Disco and Electronic Music From Finland 1980-1991

Used drive : HL-DT-STDVD+-RW GSA-H31L Adapter: 1 ID: 0

Read mode : Secure
Utilize accurate stream : Yes
Defeat audio cache : Yes
Make use of C2 pointers : No

Read offset correction : 102
Overread into Lead-In and Lead-Out : Yes
Fill up missing offset samples with silence : Yes
Delete leading and trailing silent blocks : No
Null samples used in CRC calculations : Yes
Used interface : Native Win32 interface for Win NT & 2000
Gap handling : Appended to previous track

Used output format : User Defined Encoder
Selected bitrate : 896 kBit/s
Quality : High
Add ID3 tag : No
Command line compressor : C:\ProgramData\chocolatey\lib\flac\tools\flac-1.3.2-win\win64\flac.exe
Additional command line options : -8 -e -V -T "ARTIST=%artist%" -T "TITLE=%title%" -T "ALBUM=%albumtitle%" -T "DATE=%year%" -T "TRACKNUMBER=%tracknr%" -T "ALBUMARTIST=%albumartist%" -T "TOTALTRACKS=%numtracks%" %source% -o %dest%


TOC of the extracted CD

Track | Start | Length | Start sector | End sector
––––––––––––––––––––––––––––-
1 | 0:00.00 | 3:14.00 | 0 | 14549
2 | 3:14.00 | 3:52.02 | 14550 | 31951
3 | 7:06.02 | 3:57.74 | 31952 | 49800
4 | 11:04.01 | 3:52.02 | 49801 | 67202
5 | 14:56.03 | 3:34.03 | 67203 | 83255
6 | 18:30.06 | 4:02.52 | 83256 | 101457
7 | 22:32.58 | 4:51.58 | 101458 | 123340
8 | 27:24.41 | 4:14.46 | 123341 | 142436
9 | 31:39.12 | 4:21.51 | 142437 | 162062
10 | 36:00.63 | 3:10.67 | 162063 | 176379
11 | 39:11.55 | 3:31.32 | 176380 | 192236
12 | 42:43.12 | 3:54.09 | 192237 | 209795
13 | 46:37.21 | 3:14.56 | 209796 | 224401
14 | 49:52.02 | 3:38.30 | 224402 | 240781
15 | 53:30.32 | 5:00.70 | 240782 | 263351
16 | 58:31.27 | 5:42.35 | 263352 | 289036
17 | 64:13.62 | 4:27.19 | 289037 | 309080
18 | 68:41.06 | 3:04.06 | 309081 | 322886
19 | 71:45.12 | 3:35.56 | 322887 | 339067
20 | 75:20.68 | 3:33.49 | 339068 | 355091


Track 1

Filename W:\Beyond the Fields We Know\Various Artists - Cold War on the Rocks- Disco and Electronic Music From Finland 1980-1991\01 - Jori Sivonen - Jupiter.wav

Pre-gap length 0:00:02.00

Peak level 98.4 %
Extraction speed 1.7 X
Track quality 100.0 %
Test CRC 02AE9AA9
Copy CRC 02AE9AA9
Accurately ripped (confidence 2) [D68F47AD] (AR v2)
Copy OK

Track 2

Filename W:\Beyond the Fields We Know\Various Artists - Cold War on the Rocks- Disco and Electronic Music From Finland 1980-1991\02 - Taiska - Ei voittajaa - J'veux d'la tendresse.wav

Pre-gap length 0:00:03.62

Peak level 98.1 %
Extraction speed 1.8 X
Track quality 100.0 %
Test CRC 99319B2F
Copy CRC 99319B2F
Accurately ripped (confidence 2) [43F4918C] (AR v2)
Copy OK

Track 3

Filename W:\Beyond the Fields We Know\Various Artists - Cold War on the Rocks- Disco and Electronic Music From Finland 1980-1991\03 - Eini - Jossakin, jos haluat.wav

Pre-gap length 0:00:03.01

Peak level 98.4 %
Extraction speed 2.0 X
Track quality 100.0 %
Test CRC 8456A991
Copy CRC 8456A991
Accurately ripped (confidence 2) [6030EB57] (AR v2)
Copy OK

Track 4

Filename W:\Beyond the Fields We Know\Various Artists - Cold War on the Rocks- Disco and Electronic Music From Finland 1980-1991\04 - Esa Mäkelä - Kun yö on - Vill ha dig.wav

Pre-gap length 0:00:04.13

Peak level 98.0 %
Extraction speed 2.2 X
Track quality 100.0 %
Test CRC 90D1011A
Copy CRC 90D1011A
Accurately ripped (confidence 2) [477CAD57] (AR v2)
Copy OK

Track 5

Filename W:\Beyond the Fields We Know\Various Artists - Cold War on the Rocks- Disco and Electronic Music From Finland 1980-1991\05 - Mika Sundqvist - Tähdenlento.wav

Pre-gap length 0:00:02.94

Peak level 99.5 %
Extraction speed 2.2 X
Track quality 100.0 %
Test CRC 444D5126
Copy CRC 444D5126
Accurately ripped (confidence 2) [13D914C6] (AR v2)
Copy OK

Track 6

Filename W:\Beyond the Fields We Know\Various Artists - Cold War on the Rocks- Disco and Electronic Music From Finland 1980-1991\06 - Buffalo Soldier - Hi-Jacker.wav

Pre-gap length 0:00:03.06

Peak level 98.3 %
Extraction speed 2.1 X
Track quality 99.9 %
Test CRC 861FB9CB
Copy CRC 861FB9CB
Accurately ripped (confidence 2) [1FD95FA3] (AR v2)
Copy OK

Track 7

Filename W:\Beyond the Fields We Know\Various Artists - Cold War on the Rocks- Disco and Electronic Music From Finland 1980-1991\07 - Step On The Other Side - The Cold War on the Rocks.wav

Pre-gap length 0:00:04.08

Peak level 99.7 %
Extraction speed 2.6 X
Track quality 100.0 %
Test CRC 05A27611
Copy CRC 05A27611
Accurately ripped (confidence 2) [D4ACAA5C] (AR v2)
Copy OK

Track 8

Filename W:\Beyond the Fields We Know\Various Artists - Cold War on the Rocks- Disco and Electronic Music From Finland 1980-1991\08 - Biba - This Night Is Like Magic.wav

Pre-gap length 0:00:04.80

Peak level 99.1 %
Extraction speed 2.3 X
Track quality 99.9 %
Test CRC 5C1E8984
Copy CRC 5C1E8984
Accurately ripped (confidence 2) [AD06E6F8] (AR v2)
Copy OK

Track 9

Filename W:\Beyond the Fields We Know\Various Artists - Cold War on the Rocks- Disco and Electronic Music From Finland 1980-1991\09 - Kain Käärmeenpoika & Kvartsikoirat - Eros - Jumalan kaltainen.wav

Pre-gap length 0:00:04.04

Peak level 98.6 %
Extraction speed 2.8 X
Track quality 100.0 %
Test CRC 45A3B2C7
Copy CRC 45A3B2C7
Accurately ripped (confidence 2) [3CD4D07C] (AR v2)
Copy OK

Track 10

Filename W:\Beyond the Fields We Know\Various Artists - Cold War on the Rocks- Disco and Electronic Music From Finland 1980-1991\10 - Vaarallinen mutantti - Robotin' USA.wav

Pre-gap length 0:00:03.97

Peak level 98.9 %
Extraction speed 2.3 X
Track quality 99.9 %
Test CRC C8979762
Copy CRC C8979762
Accurately ripped (confidence 2) [CA7216E9] (AR v2)
Copy OK

Track 11

Filename W:\Beyond the Fields We Know\Various Artists - Cold War on the Rocks- Disco and Electronic Music From Finland 1980-1991\11 - Ira Kaspi - Hei kundi.wav

Pre-gap length 0:00:03.29

Peak level 100.0 %
Extraction speed 2.8 X
Track quality 100.0 %
Test CRC AC5AF1AD
Copy CRC AC5AF1AD
Accurately ripped (confidence 2) [23B59FB3] (AR v2)
Copy OK

Track 12

Filename W:\Beyond the Fields We Know\Various Artists - Cold War on the Rocks- Disco and Electronic Music From Finland 1980-1991\12 - Simo Laiho - Marco Polo.wav

Pre-gap length 0:00:04.34

Peak level 98.6 %
Extraction speed 3.0 X
Track quality 100.0 %
Test CRC 11091B90
Copy CRC 11091B90
Accurately ripped (confidence 2) [EF7A938F] (AR v2)
Copy OK

Track 13

Filename W:\Beyond the Fields We Know\Various Artists - Cold War on the Rocks- Disco and Electronic Music From Finland 1980-1991\13 - Jarmo Juhani - Nuori inka.wav

Pre-gap length 0:00:03.84

Peak level 97.9 %
Extraction speed 3.0 X
Track quality 100.0 %
Test CRC 58FA508D
Copy CRC 58FA508D
Accurately ripped (confidence 2) [8E30CBDF] (AR v2)
Copy OK

Track 14

Filename W:\Beyond the Fields We Know\Various Artists - Cold War on the Rocks- Disco and Electronic Music From Finland 1980-1991\14 - Digital Dance - Sunshine, Rain or Moonlight.wav

Pre-gap length 0:00:04.66

Peak level 99.9 %
Extraction speed 3.1 X
Track quality 100.0 %
Test CRC 33A972EB
Copy CRC 33A972EB
Accurately ripped (confidence 2) [46E81E7C] (AR v2)
Copy OK

Track 15

Filename W:\Beyond the Fields We Know\Various Artists - Cold War on the Rocks- Disco and Electronic Music From Finland 1980-1991\15 - Kaija Koo - Tyhjyys - Tyngdlös.wav

Pre-gap length 0:00:03.10

Peak level 98.1 %
Extraction speed 3.3 X
Track quality 100.0 %
Test CRC D91790AF
Copy CRC D91790AF
Accurately ripped (confidence 2) [A0CE6CC3] (AR v2)
Copy OK

Track 16

Filename W:\Beyond the Fields We Know\Various Artists - Cold War on the Rocks- Disco and Electronic Music From Finland 1980-1991\16 - Visual - Big & Beautiful.wav

Pre-gap length 0:00:03.53

Peak level 98.6 %
Extraction speed 3.5 X
Track quality 100.0 %
Test CRC 18D42D6D
Copy CRC 18D42D6D
Accurately ripped (confidence 2) [CBDD9BBD] (AR v2)
Copy OK

Track 17

Filename W:\Beyond the Fields We Know\Various Artists - Cold War on the Rocks- Disco and Electronic Music From Finland 1980-1991\17 - Saigon - Etsin maailmaa.wav

Pre-gap length 0:00:03.32

Peak level 98.4 %
Extraction speed 3.1 X
Track quality 99.9 %
Test CRC 17899E45
Copy CRC 17899E45
Accurately ripped (confidence 2) [E59ED89D] (AR v2)
Copy OK

Track 18

Filename W:\Beyond the Fields We Know\Various Artists - Cold War on the Rocks- Disco and Electronic Music From Finland 1980-1991\18 - Jokke Seppälä - Galaxin yksinäiset.wav

Pre-gap length 0:00:04.32

Peak level 98.4 %
Extraction speed 3.4 X
Track quality 100.0 %
Test CRC D8FC3681
Copy CRC D8FC3681
Accurately ripped (confidence 2) [CBBBFF02] (AR v2)
Copy OK

Track 19

Filename W:\Beyond the Fields We Know\Various Artists - Cold War on the Rocks- Disco and Electronic Music From Finland 1980-1991\19 - Tommi Lindell - Grandmaster Klaus.wav

Pre-gap length 0:00:04.56

Peak level 98.5 %
Extraction speed 3.5 X
Track quality 100.0 %
Test CRC 9DC1F58C
Copy CRC 9DC1F58C
Accurately ripped (confidence 2) [779B1909] (AR v2)
Copy OK

Track 20

Filename W:\Beyond the Fields We Know\Various Artists - Cold War on the Rocks- Disco and Electronic Music From Finland 1980-1991\20 - Clifters - Sormus.wav

Pre-gap length 0:00:04.74

Peak level 99.9 %
Extraction speed 4.0 X
Track quality 100.0 %
Test CRC 8D054D9C
Copy CRC 8D054D9C
Accurately ripped (confidence 2) [EA6CF43F] (AR v2)
Copy OK


All tracks accurately ripped

No errors occurred

End of status report

–– CUETools DB Plugin V2.1.6

[CTDB TOCID: WxjM1k62gduuf.cLq2R3TutRh1Q-] found
Submit result: WxjM1k62gduuf.cLq2R3TutRh1Q- has been confirmed
Track | CTDB Status
1 | (18/18) Accurately ripped
2 | (18/18) Accurately ripped
3 | (18/18) Accurately ripped
4 | (18/18) Accurately ripped
5 | (18/18) Accurately ripped
6 | (17/18) Accurately ripped
7 | (17/18) Accurately ripped
8 | (17/18) Accurately ripped
9 | (17/18) Accurately ripped
10 | (17/18) Accurately ripped
11 | (17/18) Accurately ripped
12 | (17/18) Accurately ripped
13 | (17/18) Accurately ripped
14 | (17/18) Accurately ripped
15 | (17/18) Accurately ripped
16 | (17/18) Accurately ripped
17 | (18/18) Accurately ripped
18 | (18/18) Accurately ripped
19 | (17/18) Accurately ripped
20 | (17/18) Accurately ripped


==== Log checksum 0FBE7CD2D8E68FC43A0A52E4D40CDCE9D10EFB1F90697C111FA218BEE230F951 ====

Thanks to the Original ripper !